<?xml version="1.0" standalone="no"?>
<!DOCTYPE svg PUBLIC "-//W3C//DTD SVG 1.1//EN" "http://www.w3.org/Graphics/SVG/1.1/DTD/svg11.dtd" >
<svg xmlns="http://www.w3.org/2000/svg" xmlns:xlink="http://www.w3.org/1999/xlink" version="1.1">
<metadata>
Created by FontForge 20170924 at Mon Aug 31 14:44:49 2015
 By www-data
Copyright 2010, 2012, 2014 Adobe Systems Incorporated (http://www.adobe.com/), with Reserved Font Name 'Source'.
</metadata>
<defs>
<font id="SourceSansPro-Bold" horiz-adv-x="0" >
  <font-face 
    font-family="Source Sans Pro"
    font-weight="700"
    font-stretch="normal"
    units-per-em="1000"
    panose-1="2 11 7 3 3 4 3 2 2 4"
    ascent="750"
    descent="-250"
    x-height="496"
    cap-height="652"
    bbox="-457 -316 2157 1009"
    underline-thickness="50"
    underline-position="-100"
    stemh="115"
    stemv="147"
    unicode-range="U+0020-1F16B"
  />
<missing-glyph horiz-adv-x="690" 
d="M80 0v660h530v-660h-530zM263 91h164l-39 77l-41 98h-4l-41 -98zM343 414h4l42 95l32 59h-152l31 -59zM178 155l95 185l-95 186v-371zM511 155v371l-94 -186z" />
    <glyph glyph-name="f_f" unicode="ff" horiz-adv-x="657" 
d="M406 0v381h-169v-381h-147v381h-66v109l66 5v23c0 102 53 185 188 185c42 0 80 -9 103 -18l-27 -109c-16 7 -31 11 -58 11c-34 0 -59 -21 -59 -68v-23h169v26c0 105 49 191 183 191c41 0 77 -10 99 -18l-27 -108c-17 6 -35 10 -51 10c-36 0 -57 -20 -57 -71v-30h89v-115
h-89v-381h-147z" />
    <glyph glyph-name="f_t" unicode="ft" horiz-adv-x="688" 
d="M90 0v381h-66v109l66 5v27c0 105 49 191 183 191c41 0 77 -10 99 -18l-27 -108c-17 6 -35 10 -51 10c-36 0 -57 -20 -57 -71v-30h161l17 132h122v-132h119v-115h-119v-199c0 -56 25 -79 64 -79c16 0 34 5 47 10l23 -107c-26 -8 -62 -18 -110 -18c-123 0 -171 77 -171 192
v201h-153v-381h-147z" />
    <glyph glyph-name="f_f_t" unicode="fft" horiz-adv-x="1004" 
d="M90 0v381h-66v109l66 5v23c0 102 53 185 188 185c42 0 80 -9 103 -18l-27 -109c-16 7 -31 11 -58 11c-34 0 -59 -21 -59 -68v-23h169v26c0 105 49 191 183 191c41 0 77 -10 99 -18l-27 -108c-17 6 -35 10 -51 10c-36 0 -57 -20 -57 -71v-30h161l17 132h122v-132h119v-115
h-119v-199c0 -56 25 -79 64 -79c16 0 34 5 47 10l23 -107c-26 -8 -62 -18 -110 -18c-123 0 -171 77 -171 192v201h-153v-381h-147v381h-169v-381h-147z" />
    <glyph glyph-name=".notdef" horiz-adv-x="690" 
d="M80 0v660h530v-660h-530zM263 91h164l-39 77l-41 98h-4l-41 -98zM343 414h4l42 95l32 59h-152l31 -59zM178 155l95 185l-95 186v-371zM511 155v371l-94 -186z" />
    <glyph glyph-name="space" unicode=" " horiz-adv-x="200" 
 />
    <glyph glyph-name="A" unicode="A" horiz-adv-x="573" 
d="M230 330l-16 -60h139l-15 60c-18 65 -36 142 -53 210h-4c-16 -69 -33 -145 -51 -210zM-6 0l204 652h177l204 -652h-156l-40 155h-199l-40 -155h-150z" />
    <glyph glyph-name="B" unicode="B" horiz-adv-x="605" 
d="M77 0v652h223c135 0 240 -37 240 -162c0 -58 -32 -121 -85 -141v-4c66 -17 117 -66 117 -153c0 -133 -112 -192 -253 -192h-242zM224 391h69c72 0 103 30 103 77c0 51 -33 70 -102 70h-70v-147zM224 114h83c80 0 121 28 121 88c0 57 -40 80 -121 80h-83v-168z" />
    <glyph glyph-name="C" unicode="C" horiz-adv-x="582" 
d="M349 -12c-165 0 -303 115 -303 334c0 216 143 342 308 342c84 0 152 -40 196 -85l-78 -94c-33 30 -68 52 -115 52c-89 0 -160 -79 -160 -210c0 -134 62 -212 158 -212c53 0 95 27 127 61l78 -92c-54 -63 -126 -96 -211 -96z" />
    <glyph glyph-name="D" unicode="D" horiz-adv-x="635" 
d="M77 0v652h184c199 0 327 -99 327 -323s-128 -329 -319 -329h-192zM224 119h28c111 0 185 54 185 210s-74 204 -185 204h-28v-414z" />
    <glyph glyph-name="E" unicode="E" horiz-adv-x="548" 
d="M77 0v652h408v-124h-261v-131h222v-123h-222v-150h271v-124h-418z" />
    <glyph glyph-name="F" unicode="F" horiz-adv-x="524" 
d="M77 0v652h411v-124h-264v-151h226v-124h-226v-253h-147z" />
    <glyph glyph-name="G" unicode="G" horiz-adv-x="638" 
d="M365 -12c-179 0 -319 115 -319 334c0 216 144 342 318 342c94 0 162 -41 205 -85l-77 -94c-33 29 -67 52 -123 52c-101 0 -172 -79 -172 -210c0 -134 61 -212 183 -212c27 0 54 7 70 20v112h-108v120h238v-300c-45 -44 -124 -79 -215 -79z" />
    <glyph glyph-name="H" unicode="H" horiz-adv-x="674" 
d="M77 0v652h147v-251h225v251h148v-652h-148v272h-225v-272h-147z" />
    <glyph glyph-name="I" unicode="I" horiz-adv-x="301" 
d="M77 0v652h147v-652h-147z" />
    <glyph glyph-name="J" unicode="J" horiz-adv-x="509" 
d="M226 -12c-99 0 -165 39 -210 118l100 74c24 -44 58 -65 91 -65c53 0 81 27 81 114v423h147v-435c0 -126 -65 -229 -209 -229z" />
    <glyph glyph-name="K" unicode="K" horiz-adv-x="614" 
d="M77 0v652h147v-267h4l194 267h162l-197 -260l233 -392h-161l-159 275l-76 -100v-175h-147z" />
    <glyph glyph-name="L" unicode="L" horiz-adv-x="518" 
d="M77 0v652h147v-528h258v-124h-405z" />
    <glyph glyph-name="M" unicode="M" horiz-adv-x="762" 
d="M77 0v652h161l105 -290c13 -38 25 -80 38 -120h4c13 40 24 82 37 120l103 290h160v-652h-134v239c0 64 12 159 19 222h-4l-53 -155l-93 -249h-81l-93 249l-52 155h-4c7 -63 19 -158 19 -222v-239h-132z" />
    <glyph glyph-name="N" unicode="N" horiz-adv-x="665" 
d="M77 0v652h151l170 -324l64 -144h4c-6 69 -18 161 -18 238v230h140v-652h-151l-170 325l-64 142h-4c6 -72 18 -159 18 -236v-231h-140z" />
    <glyph glyph-name="O" unicode="O" horiz-adv-x="684" 
d="M342 -12c-176 0 -296 128 -296 341s120 335 296 335s296 -123 296 -335c0 -213 -120 -341 -296 -341zM342 115c89 0 145 83 145 214c0 130 -56 208 -145 208s-145 -78 -145 -208c0 -131 56 -214 145 -214z" />
    <glyph glyph-name="P" unicode="P" horiz-adv-x="596" 
d="M77 0v652h224c143 0 259 -52 259 -210c0 -153 -117 -221 -255 -221h-81v-221h-147zM224 338h72c81 0 120 36 120 104s-44 93 -124 93h-68v-197z" />
    <glyph glyph-name="Q" unicode="Q" horiz-adv-x="684" 
d="M342 108c89 0 145 82 145 221c0 130 -56 208 -145 208s-145 -78 -145 -208c0 -139 56 -221 145 -221zM557 -182c-138 0 -236 75 -282 177c-139 29 -229 150 -229 334c0 213 120 335 296 335s296 -123 296 -335c0 -175 -81 -293 -207 -329c30 -46 88 -64 143 -64
c28 0 53 5 72 11l26 -107c-24 -12 -65 -22 -115 -22z" />
    <glyph glyph-name="R" unicode="R" horiz-adv-x="613" 
d="M77 0v652h235c138 0 251 -48 251 -203c0 -96 -46 -157 -116 -188l148 -261h-165l-125 235h-81v-235h-147zM224 352h76c77 0 119 33 119 97s-42 86 -119 86h-76v-183z" />
    <glyph glyph-name="S" unicode="S" horiz-adv-x="556" 
d="M276 -12c-85 0 -175 32 -241 94l84 101c47 -40 107 -68 161 -68c61 0 91 24 91 63c0 41 -37 54 -94 78l-85 36c-67 27 -131 83 -131 178c0 108 96 194 232 194c75 0 154 -30 210 -86l-75 -93c-43 33 -83 52 -135 52c-51 0 -83 -22 -83 -59c0 -40 43 -54 99 -77l84 -34
c79 -32 129 -85 129 -177c0 -108 -90 -202 -246 -202z" />
    <glyph glyph-name="T" unicode="T" horiz-adv-x="556" 
d="M204 0v528h-179v124h506v-124h-179v-528h-148z" />
    <glyph glyph-name="U" unicode="U" horiz-adv-x="665" 
d="M334 -12c-169 0 -261 95 -261 314v350h148v-365c0 -128 40 -172 113 -172s115 44 115 172v365h142v-350c0 -219 -89 -314 -257 -314z" />
    <glyph glyph-name="V" unicode="V" horiz-adv-x="556" 
d="M190 0l-197 652h156l78 -304c20 -71 33 -137 53 -209h4c19 72 33 138 52 209l77 304h150l-196 -652h-177z" />
    <glyph glyph-name="W" unicode="W" horiz-adv-x="813" 
d="M135 0l-121 652h151l45 -305c8 -68 18 -137 26 -206h4c13 69 26 138 39 206l70 305h125l70 -305c13 -66 26 -136 39 -206h4c9 70 18 139 27 206l45 305h141l-116 -652h-185l-64 296c-11 50 -19 103 -26 151h-4c-8 -48 -16 -101 -27 -151l-61 -296h-182z" />
    <glyph glyph-name="X" unicode="X" horiz-adv-x="567" 
d="M11 0l181 335l-170 317h164l57 -123c15 -30 29 -64 47 -105h4c15 41 29 75 42 105l52 123h157l-169 -324l180 -328h-164l-65 133c-16 34 -31 67 -49 107h-4c-15 -40 -30 -73 -44 -107l-61 -133h-158z" />
    <glyph glyph-name="Y" unicode="Y" horiz-adv-x="525" 
d="M189 0v232l-197 420h158l58 -150c18 -49 35 -94 53 -144h4c19 50 37 95 55 144l59 150h154l-197 -420v-232h-147z" />
    <glyph glyph-name="Z" unicode="Z" horiz-adv-x="541" 
d="M36 0v89l288 439h-261v124h442v-89l-288 -439h291v-124h-472z" />
    <glyph glyph-name="a" unicode="a" horiz-adv-x="527" 
d="M190 -12c-91 0 -148 66 -148 150c0 104 83 161 279 181c-3 44 -24 72 -78 72c-42 0 -83 -17 -131 -45l-53 97c63 38 134 65 212 65c127 0 197 -72 197 -224v-284h-120l-10 51h-4c-42 -37 -88 -63 -144 -63zM240 102c33 0 55 16 81 42v87c-104 -14 -138 -44 -138 -82
c0 -32 22 -47 57 -47z" />
    <glyph glyph-name="b" unicode="b" horiz-adv-x="573" 
d="M325 -12c-44 0 -90 22 -129 65h-4l-12 -53h-115v701h147v-172l-4 -76c38 34 85 55 131 55c120 0 195 -99 195 -251c0 -171 -102 -269 -209 -269zM291 108c51 0 92 44 92 146c0 89 -27 134 -86 134c-30 0 -57 -14 -85 -45v-203c26 -24 54 -32 79 -32z" />
    <glyph glyph-name="c" unicode="c" horiz-adv-x="467" 
d="M281 -12c-138 0 -245 95 -245 260s121 260 258 260c61 0 108 -22 145 -53l-69 -95c-24 20 -44 29 -67 29c-71 0 -116 -55 -116 -141s47 -141 111 -141c32 0 63 16 89 36l58 -96c-49 -43 -110 -59 -164 -59z" />
    <glyph glyph-name="d" unicode="d" horiz-adv-x="573" 
d="M242 -12c-123 0 -203 98 -203 260s101 260 206 260c55 0 88 -20 122 -52l-6 76v169h147v-701h-120l-10 49h-4c-35 -35 -84 -61 -132 -61zM280 108c32 0 57 12 81 45v203c-26 24 -55 32 -82 32c-47 0 -89 -44 -89 -138c0 -98 33 -142 90 -142z" />
    <glyph glyph-name="e" unicode="e" horiz-adv-x="518" 
d="M287 -12c-142 0 -251 96 -251 260c0 161 115 260 234 260c141 0 211 -103 211 -238c0 -26 -3 -53 -6 -65h-297c13 -72 63 -105 129 -105c37 0 71 11 107 33l49 -89c-51 -35 -117 -56 -176 -56zM177 302h179c0 55 -24 94 -83 94c-46 0 -86 -31 -96 -94z" />
    <glyph glyph-name="f" unicode="f" horiz-adv-x="341" 
d="M90 0v381h-66v109l66 5v27c0 105 49 191 183 191c41 0 77 -10 99 -18l-27 -108c-17 6 -35 10 -51 10c-36 0 -57 -20 -57 -71v-30h89v-115h-89v-381h-147z" />
    <glyph glyph-name="g" unicode="g" horiz-adv-x="534" 
d="M242 -211c-116 0 -208 38 -208 126c0 41 25 74 71 100v4c-26 17 -46 43 -46 84c0 36 24 71 56 93v4c-35 24 -67 71 -67 129c0 119 98 179 205 179c28 0 55 -4 77 -12h181v-107h-79c9 -15 16 -39 16 -65c0 -114 -86 -167 -195 -167c-18 0 -38 3 -60 10
c-13 -11 -18 -20 -18 -37c0 -25 20 -37 75 -37h80c122 0 189 -37 189 -126c0 -103 -107 -178 -277 -178zM253 246c39 0 68 28 68 83c0 52 -29 80 -68 80s-68 -27 -68 -80c0 -55 29 -83 68 -83zM265 -119c66 0 114 27 114 61c0 31 -27 39 -76 39h-51c-34 0 -54 2 -70 6
c-18 -16 -27 -31 -27 -49c0 -37 44 -57 110 -57z" />
    <glyph glyph-name="h" unicode="h" horiz-adv-x="571" 
d="M65 0v701h147v-172l-7 -89c37 33 86 68 153 68c108 0 154 -76 154 -200v-308h-147v289c0 72 -19 94 -61 94c-37 0 -60 -17 -92 -48v-335h-147z" />
    <glyph glyph-name="i" unicode="i" horiz-adv-x="276" 
d="M65 0v496h147v-496h-147zM138 569c-49 0 -85 32 -85 77s36 76 85 76c50 0 85 -31 85 -76s-35 -77 -85 -77z" />
    <glyph glyph-name="j" unicode="j" horiz-adv-x="278" 
d="M36 -196c-41 0 -67 6 -87 14l26 108c13 -4 25 -7 39 -7c39 0 52 25 52 80v497h147v-493c0 -108 -42 -199 -177 -199zM140 569c-49 0 -85 32 -85 77s36 76 85 76s85 -31 85 -76s-36 -77 -85 -77z" />
    <glyph glyph-name="k" unicode="k" horiz-adv-x="548" 
d="M65 0v701h143v-402h4l157 197h160l-174 -204l187 -292h-159l-112 193l-63 -71v-122h-143z" />
    <glyph glyph-name="l" unicode="l" horiz-adv-x="286" 
d="M200 -12c-101 0 -135 66 -135 166v547h147v-553c0 -31 14 -41 26 -41c6 0 10 0 18 2l18 -109c-16 -7 -41 -12 -74 -12z" />
    <glyph glyph-name="m" unicode="m" horiz-adv-x="857" 
d="M65 0v496h120l10 -64h4c41 41 85 76 150 76c70 0 112 -30 137 -83c44 45 90 83 156 83c107 0 155 -76 155 -200v-308h-147v289c0 72 -19 94 -61 94c-25 0 -53 -16 -85 -48v-335h-147v289c0 72 -19 94 -61 94c-24 0 -53 -16 -84 -48v-335h-147z" />
    <glyph glyph-name="n" unicode="n" horiz-adv-x="572" 
d="M65 0v496h120l10 -63h4c42 40 92 75 159 75c108 0 154 -76 154 -200v-308h-147v289c0 72 -19 94 -61 94c-37 0 -60 -17 -92 -48v-335h-147z" />
    <glyph glyph-name="o" unicode="o" horiz-adv-x="555" 
d="M278 -12c-126 0 -242 95 -242 260s116 260 242 260c125 0 241 -95 241 -260s-116 -260 -241 -260zM278 107c60 0 91 55 91 141s-31 141 -91 141c-61 0 -91 -55 -91 -141s30 -141 91 -141z" />
    <glyph glyph-name="p" unicode="p" horiz-adv-x="573" 
d="M65 -184v680h120l10 -49h4c39 35 89 61 141 61c120 0 194 -99 194 -252c0 -170 -102 -268 -209 -268c-43 0 -83 19 -118 52l5 -79v-145h-147zM291 108c51 0 92 44 92 146c0 89 -27 134 -86 134c-30 0 -56 -14 -85 -45v-203c26 -24 54 -32 79 -32z" />
    <glyph glyph-name="q" unicode="q" horiz-adv-x="573" 
d="M361 -184v151l6 76c-33 -32 -80 -55 -125 -55c-123 0 -203 98 -203 260s101 260 206 260c54 0 93 -19 132 -61h4l12 49h115v-680h-147zM280 108c32 0 57 12 81 45v203c-26 24 -55 32 -82 32c-47 0 -89 -44 -89 -138c0 -98 33 -142 90 -142z" />
    <glyph glyph-name="r" unicode="r" horiz-adv-x="398" 
d="M65 0v496h120l10 -87h4c36 67 90 99 141 99c28 0 45 -4 59 -10l-24 -127c-18 5 -33 8 -54 8c-37 0 -83 -24 -109 -91v-288h-147z" />
    <glyph glyph-name="s" unicode="s" horiz-adv-x="443" 
d="M211 -12c-65 0 -140 28 -190 69l66 92c45 -34 86 -52 128 -52c44 0 63 16 63 42c0 33 -50 48 -101 68c-60 23 -131 64 -131 146c0 92 75 155 190 155c76 0 132 -31 175 -63l-66 -88c-36 26 -70 42 -105 42c-38 0 -56 -14 -56 -39c0 -32 46 -44 97 -63
c63 -23 134 -58 134 -149c0 -90 -71 -160 -204 -160z" />
    <glyph glyph-name="t" unicode="t" horiz-adv-x="383" 
d="M256 -12c-123 0 -171 77 -171 192v201h-68v109l76 6l17 132h122v-132h119v-115h-119v-199c0 -56 25 -79 64 -79c16 0 34 5 47 10l23 -107c-26 -8 -62 -18 -110 -18z" />
    <glyph glyph-name="u" unicode="u" horiz-adv-x="568" 
d="M214 -12c-108 0 -154 76 -154 200v308h147v-289c0 -71 19 -94 62 -94c37 0 59 16 88 55v328h147v-496h-120l-11 69h-3c-42 -50 -88 -81 -156 -81z" />
    <glyph glyph-name="v" unicode="v" horiz-adv-x="523" 
d="M179 0l-167 496h148l64 -234c13 -49 26 -101 39 -153h4c12 52 25 104 38 153l65 234h141l-162 -496h-170z" />
    <glyph glyph-name="w" unicode="w" horiz-adv-x="776" 
d="M148 0l-124 496h146l48 -230c8 -49 14 -97 22 -147h4c9 50 17 100 29 147l55 230h127l56 -230c12 -49 21 -97 31 -147h4c9 50 14 98 23 147l47 230h136l-119 -496h-172l-45 198c-10 46 -18 92 -27 145h-4c-9 -53 -16 -99 -25 -145l-44 -198h-168z" />
    <glyph glyph-name="x" unicode="x" horiz-adv-x="514" 
d="M14 0l152 258l-143 238h158l44 -80c13 -28 28 -57 42 -85h4c10 28 23 57 34 85l34 80h152l-144 -255l153 -241h-158l-48 82c-16 28 -31 58 -47 86h-4c-12 -28 -26 -57 -38 -86l-39 -82h-152z" />
    <glyph glyph-name="y" unicode="y" horiz-adv-x="521" 
d="M120 -194c-30 0 -50 4 -70 10l26 112c9 -2 22 -6 33 -6c49 0 74 26 87 65l7 26l-191 483h148l71 -213c14 -45 26 -92 39 -141h4c11 47 22 94 34 141l60 213h141l-172 -501c-47 -125 -100 -189 -217 -189z" />
    <glyph glyph-name="z" unicode="z" horiz-adv-x="460" 
d="M38 0v79l208 302h-185v115h368v-78l-208 -303h215v-115h-398z" />
    <glyph glyph-name="Agrave" unicode="&#xc0;" horiz-adv-x="573" 
d="M230 330l-16 -60h139l-15 60c-18 65 -36 142 -53 210h-4c-16 -69 -33 -145 -51 -210zM-6 0l204 652h177l204 -652h-156l-40 155h-199l-40 -155h-150zM293 680l-183 119l78 95l171 -140z" />
    <glyph glyph-name="Aacute" unicode="&#xc1;" horiz-adv-x="573" 
d="M230 330l-16 -60h139l-15 60c-18 65 -36 142 -53 210h-4c-16 -69 -33 -145 -51 -210zM-6 0l204 652h177l204 -652h-156l-40 155h-199l-40 -155h-150zM273 680l-66 74l171 140l78 -95z" />
    <glyph glyph-name="Acircumflex" unicode="&#xc2;" horiz-adv-x="573" 
d="M230 330l-16 -60h139l-15 60c-18 65 -36 142 -53 210h-4c-16 -69 -33 -145 -51 -210zM-6 0l204 652h177l204 -652h-156l-40 155h-199l-40 -155h-150zM113 724l90 111h160l90 -111l-64 -39l-104 84h-4l-104 -84z" />
    <glyph glyph-name="Atilde" unicode="&#xc3;" horiz-adv-x="573" 
d="M230 330l-16 -60h139l-15 60c-18 65 -36 142 -53 210h-4c-16 -69 -33 -145 -51 -210zM-6 0l204 652h177l204 -652h-156l-40 155h-199l-40 -155h-150zM354 692c-71 0 -104 58 -137 58c-19 0 -33 -13 -37 -49l-95 7c5 101 57 144 127 144c71 0 104 -58 137 -58
c19 0 33 13 37 49l95 -7c-5 -100 -57 -144 -127 -144z" />
    <glyph glyph-name="Adieresis" unicode="&#xc4;" horiz-adv-x="573" 
d="M230 330l-16 -60h139l-15 60c-18 65 -36 142 -53 210h-4c-16 -69 -33 -145 -51 -210zM-6 0l204 652h177l204 -652h-156l-40 155h-199l-40 -155h-150zM172 700c-41 0 -70 30 -70 70s29 70 70 70s70 -30 70 -70s-29 -70 -70 -70zM394 700c-41 0 -70 30 -70 70s29 70 70 70
s70 -30 70 -70s-29 -70 -70 -70z" />
    <glyph glyph-name="Amacron" unicode="&#x100;" horiz-adv-x="573" 
d="M230 330l-16 -60h139l-15 60c-18 65 -36 142 -53 210h-4c-16 -69 -33 -145 -51 -210zM-6 0l204 652h177l204 -652h-156l-40 155h-199l-40 -155h-150zM132 721v94h302v-94h-302z" />
    <glyph glyph-name="Abreve" unicode="&#x102;" horiz-adv-x="573" 
d="M230 330l-16 -60h139l-15 60c-18 65 -36 142 -53 210h-4c-16 -69 -33 -145 -51 -210zM-6 0l204 652h177l204 -652h-156l-40 155h-199l-40 -155h-150zM283 697c-99 0 -154 48 -163 137l80 14c9 -41 38 -66 83 -66s74 25 83 66l80 -14c-9 -89 -64 -137 -163 -137z" />
    <glyph glyph-name="Aring" unicode="&#xc5;" horiz-adv-x="573" 
d="M230 330l-16 -60h139l-15 60c-18 65 -36 142 -53 210h-4c-16 -69 -33 -145 -51 -210zM-6 0l204 652h177l204 -652h-156l-40 155h-199l-40 -155h-150zM283 697c-68 0 -114 39 -114 99s46 98 114 98c67 0 114 -38 114 -98s-47 -99 -114 -99zM283 752c23 0 42 17 42 44
c0 26 -19 43 -42 43s-42 -17 -42 -43c0 -27 19 -44 42 -44z" />
    <glyph glyph-name="uni01CD" unicode="&#x1cd;" horiz-adv-x="573" 
d="M230 330l-16 -60h139l-15 60c-18 65 -36 142 -53 210h-4c-16 -69 -33 -145 -51 -210zM-6 0l204 652h177l204 -652h-156l-40 155h-199l-40 -155h-150zM203 702l-90 110l64 40l104 -84h4l104 84l64 -40l-90 -110h-160z" />
    <glyph glyph-name="uni1EA0" unicode="&#x1ea0;" horiz-adv-x="573" 
d="M230 330l-16 -60h139l-15 60c-18 65 -36 142 -53 210h-4c-16 -69 -33 -145 -51 -210zM-6 0l204 652h177l204 -652h-156l-40 155h-199l-40 -155h-150zM283 -226c-48 0 -81 32 -81 77s33 77 81 77s81 -32 81 -77s-33 -77 -81 -77z" />
    <glyph glyph-name="uni1EA2" unicode="&#x1ea2;" horiz-adv-x="573" 
d="M230 330l-16 -60h139l-15 60c-18 65 -36 142 -53 210h-4c-16 -69 -33 -145 -51 -210zM-6 0l204 652h177l204 -652h-156l-40 155h-199l-40 -155h-150zM240 691l-12 58c25 5 45 12 45 30c0 19 -22 30 -80 34l17 73c124 -3 169 -38 169 -91c0 -69 -64 -98 -139 -104z" />
    <glyph glyph-name="uni1EA4" unicode="&#x1ea4;" horiz-adv-x="573" 
d="M230 330l-16 -60h139l-15 60c-18 65 -36 142 -53 210h-4c-16 -69 -33 -145 -51 -210zM-6 0l204 652h177l204 -652h-156l-40 155h-199l-40 -155h-150zM189 685l-59 39l90 100h126l90 -100l-59 -39l-92 72h-4zM435 759l-44 50l100 86l49 -60z" />
    <glyph glyph-name="uni1EA6" unicode="&#x1ea6;" horiz-adv-x="573" 
d="M230 330l-16 -60h139l-15 60c-18 65 -36 142 -53 210h-4c-16 -69 -33 -145 -51 -210zM-6 0l204 652h177l204 -652h-156l-40 155h-199l-40 -155h-150zM189 685l-59 39l90 100h126l90 -100l-59 -39l-92 72h-4zM175 808l-44 -49l-101 77l48 59z" />
    <glyph glyph-name="uni1EA8" unicode="&#x1ea8;" horiz-adv-x="573" 
d="M230 330l-16 -60h139l-15 60c-18 65 -36 142 -53 210h-4c-16 -69 -33 -145 -51 -210zM-6 0l204 652h177l204 -652h-156l-40 155h-199l-40 -155h-150zM189 685l-59 39l90 100h126l90 -100l-59 -39l-92 72h-4zM420 750l-11 47c18 4 32 10 32 27c0 19 -15 29 -65 33l13 60
c110 -3 147 -36 147 -80c0 -59 -51 -82 -116 -87z" />
    <glyph glyph-name="uni1EAA" unicode="&#x1eaa;" horiz-adv-x="573" 
d="M230 330l-16 -60h139l-15 60c-18 65 -36 142 -53 210h-4c-16 -69 -33 -145 -51 -210zM-6 0l204 652h177l204 -652h-156l-40 155h-199l-40 -155h-150zM189 685l-59 39l90 92h126l90 -92l-59 -39l-92 63h-4zM130 852c4 76 37 111 93 111c55 0 83 -44 111 -44
c18 0 28 12 32 39l70 -9c-4 -76 -37 -111 -93 -111c-55 0 -83 44 -111 44c-18 0 -28 -11 -32 -38z" />
    <glyph glyph-name="uni1EAC" unicode="&#x1eac;" horiz-adv-x="573" 
d="M230 330l-16 -60h139l-15 60c-18 65 -36 142 -53 210h-4c-16 -69 -33 -145 -51 -210zM-6 0l204 652h177l204 -652h-156l-40 155h-199l-40 -155h-150zM113 724l90 111h160l90 -111l-64 -39l-104 84h-4l-104 -84zM283 -226c-48 0 -81 32 -81 77s33 77 81 77s81 -32 81 -77
s-33 -77 -81 -77z" />
    <glyph glyph-name="uni1EAE" unicode="&#x1eae;" horiz-adv-x="573" 
d="M230 330l-16 -60h139l-15 60c-18 65 -36 142 -53 210h-4c-16 -69 -33 -145 -51 -210zM-6 0l204 652h177l204 -652h-156l-40 155h-199l-40 -155h-150zM228 852l95 137l92 -57l-115 -127zM283 697c-99 0 -154 48 -163 137l72 14c10 -47 42 -74 91 -74s81 27 91 74l72 -14
c-9 -89 -64 -137 -163 -137z" />
    <glyph glyph-name="uni1EB0" unicode="&#x1eb0;" horiz-adv-x="573" 
d="M230 330l-16 -60h139l-15 60c-18 65 -36 142 -53 210h-4c-16 -69 -33 -145 -51 -210zM-6 0l204 652h177l204 -652h-156l-40 155h-199l-40 -155h-150zM338 852l-72 -47l-115 127l92 57zM283 697c-99 0 -154 48 -163 137l72 14c10 -47 42 -74 91 -74s81 27 91 74l72 -14
c-9 -89 -64 -137 -163 -137z" />
    <glyph glyph-name="uni1EB2" unicode="&#x1eb2;" horiz-adv-x="573" 
d="M230 330l-16 -60h139l-15 60c-18 65 -36 142 -53 210h-4c-16 -69 -33 -145 -51 -210zM-6 0l204 652h177l204 -652h-156l-40 155h-199l-40 -155h-150zM251 806l-12 47c19 4 33 10 33 27c0 19 -16 29 -66 33l14 61c109 -4 146 -37 146 -81c0 -59 -51 -82 -115 -87zM283 697
c-99 0 -154 48 -163 137l72 14c10 -47 42 -74 91 -74s81 27 91 74l72 -14c-9 -89 -64 -137 -163 -137z" />
    <glyph glyph-name="uni1EB4" unicode="&#x1eb4;" horiz-adv-x="573" 
d="M230 330l-16 -60h139l-15 60c-18 65 -36 142 -53 210h-4c-16 -69 -33 -145 -51 -210zM-6 0l204 652h177l204 -652h-156l-40 155h-199l-40 -155h-150zM283 702c-99 0 -149 45 -157 112l71 12c8 -29 31 -53 86 -53s78 24 86 53l71 -12c-8 -67 -58 -112 -157 -112zM130 860
c4 76 37 111 93 111c55 0 83 -44 111 -44c18 0 28 12 32 39l70 -9c-4 -75 -37 -110 -93 -110c-55 0 -83 44 -111 44c-18 0 -28 -12 -32 -39z" />
    <glyph glyph-name="uni1EB6" unicode="&#x1eb6;" horiz-adv-x="573" 
d="M230 330l-16 -60h139l-15 60c-18 65 -36 142 -53 210h-4c-16 -69 -33 -145 -51 -210zM-6 0l204 652h177l204 -652h-156l-40 155h-199l-40 -155h-150zM283 697c-99 0 -154 48 -163 137l80 14c9 -41 38 -66 83 -66s74 25 83 66l80 -14c-9 -89 -64 -137 -163 -137zM283 -226
c-48 0 -81 32 -81 77s33 77 81 77s81 -32 81 -77s-33 -77 -81 -77z" />
    <glyph glyph-name="Aogonek" unicode="&#x104;" horiz-adv-x="573" 
d="M496 -223c-64 0 -114 34 -114 94c0 62 48 110 81 129h-40l-40 155h-199l-40 -155h-150l204 652h177l204 -652c-55 -5 -90 -50 -90 -90c0 -25 18 -38 39 -38c15 0 29 7 39 14l34 -74c-26 -20 -70 -35 -105 -35zM230 330l-16 -60h139l-15 60c-18 65 -36 142 -53 210h-4
c-16 -69 -33 -145 -51 -210z" />
    <glyph glyph-name="AE" unicode="&#xc6;" horiz-adv-x="845" 
d="M303 356l-42 -93h125v278h-4c-27 -64 -53 -128 -79 -185zM-14 0l310 652h487v-124h-250v-131h211v-123h-211v-150h260v-124h-407v149h-177l-68 -149h-155z" />
    <glyph glyph-name="uni01FC" unicode="&#x1fc;" horiz-adv-x="845" 
d="M303 356l-42 -93h125v278h-4c-27 -64 -53 -128 -79 -185zM-14 0l310 652h487v-124h-250v-131h211v-123h-211v-150h260v-124h-407v149h-177l-68 -149h-155zM527 698l-66 74l171 140l78 -95z" />
    <glyph glyph-name="uni01E2" unicode="&#x1e2;" horiz-adv-x="845" 
d="M303 356l-42 -93h125v278h-4c-27 -64 -53 -128 -79 -185zM-14 0l310 652h487v-124h-250v-131h211v-123h-211v-150h260v-124h-407v149h-177l-68 -149h-155zM386 739v94h302v-94h-302z" />
    <glyph glyph-name="uni0243" unicode="&#x243;" horiz-adv-x="628" 
d="M100 0v175h-74v65l74 6v406h224c135 0 240 -39 240 -157c0 -55 -33 -110 -110 -129v-4c93 -18 142 -70 142 -162c0 -138 -112 -200 -254 -200h-242zM248 397h69c71 0 106 31 106 81c0 48 -37 68 -105 68h-70v-149zM248 105h82c80 0 125 37 125 106s-44 99 -125 99h-82
v-64h126v-71h-126v-70z" />
    <glyph glyph-name="uni1E06" unicode="&#x1e06;" horiz-adv-x="605" 
d="M77 0v652h223c135 0 240 -37 240 -162c0 -58 -32 -121 -85 -141v-4c66 -17 117 -66 117 -153c0 -133 -112 -192 -253 -192h-242zM224 391h69c72 0 103 30 103 77c0 51 -33 70 -102 70h-70v-147zM224 114h83c80 0 121 28 121 88c0 57 -40 80 -121 80h-83v-168zM166 -188
v93h296v-93h-296z" />
    <glyph glyph-name="Ccedilla" unicode="&#xc7;" horiz-adv-x="582" 
d="M248 -239l-11 59c78 4 103 16 103 44c0 20 -16 34 -77 42l42 85c-145 19 -259 132 -259 331c0 216 143 342 308 342c84 0 152 -40 196 -85l-78 -94c-33 30 -68 52 -115 52c-89 0 -160 -79 -160 -210c0 -134 62 -212 158 -212c53 0 95 27 127 61l78 -92
c-45 -52 -102 -84 -169 -93l-22 -52c50 -12 76 -33 76 -75c0 -68 -72 -99 -197 -103z" />
    <glyph glyph-name="Cacute" unicode="&#x106;" horiz-adv-x="582" 
d="M349 -12c-165 0 -303 115 -303 334c0 216 143 342 308 342c84 0 152 -40 196 -85l-78 -94c-33 30 -68 52 -115 52c-89 0 -160 -79 -160 -210c0 -134 62 -212 158 -212c53 0 95 27 127 61l78 -92c-54 -63 -126 -96 -211 -96zM333 680l-66 74l171 140l78 -95z" />
    <glyph glyph-name="Ccircumflex" unicode="&#x108;" horiz-adv-x="582" 
d="M349 -12c-165 0 -303 115 -303 334c0 216 143 342 308 342c84 0 152 -40 196 -85l-78 -94c-33 30 -68 52 -115 52c-89 0 -160 -79 -160 -210c0 -134 62 -212 158 -212c53 0 95 27 127 61l78 -92c-54 -63 -126 -96 -211 -96zM173 724l90 111h160l90 -111l-64 -39l-104 84
h-4l-104 -84z" />
    <glyph glyph-name="Ccaron" unicode="&#x10c;" horiz-adv-x="582" 
d="M349 -12c-165 0 -303 115 -303 334c0 216 143 342 308 342c84 0 152 -40 196 -85l-78 -94c-33 30 -68 52 -115 52c-89 0 -160 -79 -160 -210c0 -134 62 -212 158 -212c53 0 95 27 127 61l78 -92c-54 -63 -126 -96 -211 -96zM263 702l-90 110l64 40l104 -84h4l104 84
l64 -40l-90 -110h-160z" />
    <glyph glyph-name="Cdotaccent" unicode="&#x10a;" horiz-adv-x="582" 
d="M349 -12c-165 0 -303 115 -303 334c0 216 143 342 308 342c84 0 152 -40 196 -85l-78 -94c-33 30 -68 52 -115 52c-89 0 -160 -79 -160 -210c0 -134 62 -212 158 -212c53 0 95 27 127 61l78 -92c-54 -63 -126 -96 -211 -96zM343 701c-49 0 -85 32 -85 77s36 77 85 77
s85 -32 85 -77s-36 -77 -85 -77z" />
    <glyph glyph-name="Dcaron" unicode="&#x10e;" horiz-adv-x="635" 
d="M77 0v652h184c199 0 327 -99 327 -323s-128 -329 -319 -329h-192zM224 119h28c111 0 185 54 185 210s-74 204 -185 204h-28v-414zM238 702l-90 110l64 40l104 -84h4l104 84l64 -40l-90 -110h-160z" />
    <glyph glyph-name="uni1E0C" unicode="&#x1e0c;" horiz-adv-x="635" 
d="M77 0v652h184c199 0 327 -99 327 -323s-128 -329 -319 -329h-192zM224 119h28c111 0 185 54 185 210s-74 204 -185 204h-28v-414zM313 -226c-48 0 -81 32 -81 77s33 77 81 77s81 -32 81 -77s-33 -77 -81 -77z" />
    <glyph glyph-name="uni1E0E" unicode="&#x1e0e;" horiz-adv-x="635" 
d="M77 0v652h184c199 0 327 -99 327 -323s-128 -329 -319 -329h-192zM224 119h28c111 0 185 54 185 210s-74 204 -185 204h-28v-414zM165 -188v93h296v-93h-296z" />
    <glyph glyph-name="Dcroat" unicode="&#x110;" horiz-adv-x="660" 
d="M26 301v66l76 5v280h184c199 0 327 -99 327 -323s-128 -329 -319 -329h-192v301h-76zM249 119h28c111 0 185 54 185 210s-74 204 -185 204h-28v-161h125v-71h-125v-182z" />
    <glyph glyph-name="Egrave" unicode="&#xc8;" horiz-adv-x="548" 
d="M77 0v652h408v-124h-261v-131h222v-123h-222v-150h271v-124h-418zM298 680l-183 119l78 95l171 -140z" />
    <glyph glyph-name="Eacute" unicode="&#xc9;" horiz-adv-x="548" 
d="M77 0v652h408v-124h-261v-131h222v-123h-222v-150h271v-124h-418zM278 680l-66 74l171 140l78 -95z" />
    <glyph glyph-name="Ecircumflex" unicode="&#xca;" horiz-adv-x="548" 
d="M77 0v652h408v-124h-261v-131h222v-123h-222v-150h271v-124h-418zM118 724l90 111h160l90 -111l-64 -39l-104 84h-4l-104 -84z" />
    <glyph glyph-name="Ecaron" unicode="&#x11a;" horiz-adv-x="548" 
d="M77 0v652h408v-124h-261v-131h222v-123h-222v-150h271v-124h-418zM208 702l-90 110l64 40l104 -84h4l104 84l64 -40l-90 -110h-160z" />
    <glyph glyph-name="Edieresis" unicode="&#xcb;" horiz-adv-x="548" 
d="M77 0v652h408v-124h-261v-131h222v-123h-222v-150h271v-124h-418zM177 700c-41 0 -70 30 -70 70s29 70 70 70s70 -30 70 -70s-29 -70 -70 -70zM399 700c-41 0 -70 30 -70 70s29 70 70 70s70 -30 70 -70s-29 -70 -70 -70z" />
    <glyph glyph-name="Emacron" unicode="&#x112;" horiz-adv-x="548" 
d="M77 0v652h408v-124h-261v-131h222v-123h-222v-150h271v-124h-418zM137 721v94h302v-94h-302z" />
    <glyph glyph-name="Ebreve" unicode="&#x114;" horiz-adv-x="548" 
d="M77 0v652h408v-124h-261v-131h222v-123h-222v-150h271v-124h-418zM288 697c-99 0 -154 48 -163 137l80 14c9 -41 38 -66 83 -66s74 25 83 66l80 -14c-9 -89 -64 -137 -163 -137z" />
    <glyph glyph-name="Edotaccent" unicode="&#x116;" horiz-adv-x="548" 
d="M77 0v652h408v-124h-261v-131h222v-123h-222v-150h271v-124h-418zM288 701c-49 0 -85 32 -85 77s36 77 85 77s85 -32 85 -77s-36 -77 -85 -77z" />
    <glyph glyph-name="uni1EB8" unicode="&#x1eb8;" horiz-adv-x="548" 
d="M77 0v652h408v-124h-261v-131h222v-123h-222v-150h271v-124h-418zM295 -226c-48 0 -81 32 -81 77s33 77 81 77s81 -32 81 -77s-33 -77 -81 -77z" />
    <glyph glyph-name="uni1EBA" unicode="&#x1eba;" horiz-adv-x="548" 
d="M77 0v652h408v-124h-261v-131h222v-123h-222v-150h271v-124h-418zM245 691l-12 58c25 5 45 12 45 30c0 19 -22 30 -80 34l17 73c124 -3 169 -38 169 -91c0 -69 -64 -98 -139 -104z" />
    <glyph glyph-name="uni1EBC" unicode="&#x1ebc;" horiz-adv-x="548" 
d="M77 0v652h408v-124h-261v-131h222v-123h-222v-150h271v-124h-418zM359 692c-71 0 -104 58 -137 58c-19 0 -33 -13 -37 -49l-95 7c5 101 57 144 127 144c71 0 104 -58 137 -58c19 0 33 13 37 49l95 -7c-5 -100 -57 -144 -127 -144z" />
    <glyph glyph-name="uni1EBE" unicode="&#x1ebe;" horiz-adv-x="548" 
d="M77 0v652h408v-124h-261v-131h222v-123h-222v-150h271v-124h-418zM194 685l-59 39l90 100h126l90 -100l-59 -39l-92 72h-4zM440 759l-44 50l100 86l49 -60z" />
    <glyph glyph-name="uni1EC0" unicode="&#x1ec0;" horiz-adv-x="548" 
d="M77 0v652h408v-124h-261v-131h222v-123h-222v-150h271v-124h-418zM194 685l-59 39l90 100h126l90 -100l-59 -39l-92 72h-4zM180 808l-44 -49l-101 77l48 59z" />
    <glyph glyph-name="uni1EC2" unicode="&#x1ec2;" horiz-adv-x="548" 
d="M77 0v652h408v-124h-261v-131h222v-123h-222v-150h271v-124h-418zM194 685l-59 39l90 100h126l90 -100l-59 -39l-92 72h-4zM425 750l-11 47c18 4 32 10 32 27c0 19 -15 29 -65 33l13 60c110 -3 147 -36 147 -80c0 -59 -51 -82 -116 -87z" />
    <glyph glyph-name="uni1EC4" unicode="&#x1ec4;" horiz-adv-x="548" 
d="M77 0v652h408v-124h-261v-131h222v-123h-222v-150h271v-124h-418zM194 685l-59 39l90 92h126l90 -92l-59 -39l-92 63h-4zM135 852c4 76 37 111 93 111c55 0 83 -44 111 -44c18 0 28 12 32 39l70 -9c-4 -76 -37 -111 -93 -111c-55 0 -83 44 -111 44c-18 0 -28 -11 -32 -38
z" />
    <glyph glyph-name="uni1EC6" unicode="&#x1ec6;" horiz-adv-x="548" 
d="M77 0v652h408v-124h-261v-131h222v-123h-222v-150h271v-124h-418zM118 724l90 111h160l90 -111l-64 -39l-104 84h-4l-104 -84zM295 -226c-48 0 -81 32 -81 77s33 77 81 77s81 -32 81 -77s-33 -77 -81 -77z" />
    <glyph glyph-name="Eogonek" unicode="&#x118;" horiz-adv-x="548" 
d="M411 -223c-64 0 -115 34 -115 94c0 61 45 108 79 129h-298v652h408v-124h-261v-131h222v-123h-222v-150h271v-124h-5c-46 -2 -86 -46 -86 -90c0 -26 21 -38 42 -38c13 0 26 7 36 14l34 -74c-26 -20 -70 -35 -105 -35z" />
    <glyph glyph-name="uni1E16" unicode="&#x1e16;" horiz-adv-x="548" 
d="M77 0v652h408v-124h-261v-131h222v-123h-222v-150h271v-124h-418zM257 834l-49 66l155 107l60 -81zM137 721v94h302v-94h-302z" />
    <glyph glyph-name="uni01F4" unicode="&#x1f4;" horiz-adv-x="638" 
d="M365 -12c-179 0 -319 115 -319 334c0 216 144 342 318 342c94 0 162 -41 205 -85l-77 -94c-33 29 -67 52 -123 52c-101 0 -172 -79 -172 -210c0 -134 61 -212 183 -212c27 0 54 7 70 20v112h-108v120h238v-300c-45 -44 -124 -79 -215 -79zM357 680l-66 74l171 140l78 -95
z" />
    <glyph glyph-name="Gcircumflex" unicode="&#x11c;" horiz-adv-x="638" 
d="M365 -12c-179 0 -319 115 -319 334c0 216 144 342 318 342c94 0 162 -41 205 -85l-77 -94c-33 29 -67 52 -123 52c-101 0 -172 -79 -172 -210c0 -134 61 -212 183 -212c27 0 54 7 70 20v112h-108v120h238v-300c-45 -44 -124 -79 -215 -79zM197 724l90 111h160l90 -111
l-64 -39l-104 84h-4l-104 -84z" />
    <glyph glyph-name="Gbreve" unicode="&#x11e;" horiz-adv-x="638" 
d="M365 -12c-179 0 -319 115 -319 334c0 216 144 342 318 342c94 0 162 -41 205 -85l-77 -94c-33 29 -67 52 -123 52c-101 0 -172 -79 -172 -210c0 -134 61 -212 183 -212c27 0 54 7 70 20v112h-108v120h238v-300c-45 -44 -124 -79 -215 -79zM367 697
c-99 0 -154 48 -163 137l80 14c9 -41 38 -66 83 -66s74 25 83 66l80 -14c-9 -89 -64 -137 -163 -137z" />
    <glyph glyph-name="Gdotaccent" unicode="&#x120;" horiz-adv-x="638" 
d="M365 -12c-179 0 -319 115 -319 334c0 216 144 342 318 342c94 0 162 -41 205 -85l-77 -94c-33 29 -67 52 -123 52c-101 0 -172 -79 -172 -210c0 -134 61 -212 183 -212c27 0 54 7 70 20v112h-108v120h238v-300c-45 -44 -124 -79 -215 -79zM367 701c-49 0 -85 32 -85 77
s36 77 85 77s85 -32 85 -77s-36 -77 -85 -77z" />
    <glyph glyph-name="uni0122" unicode="&#x122;" horiz-adv-x="638" 
d="M365 -12c-179 0 -319 115 -319 334c0 216 144 342 318 342c94 0 162 -41 205 -85l-77 -94c-33 29 -67 52 -123 52c-101 0 -172 -79 -172 -210c0 -134 61 -212 183 -212c27 0 54 7 70 20v112h-108v120h238v-300c-45 -44 -124 -79 -215 -79zM261 -239l-11 59
c78 4 103 16 103 39c0 19 -19 31 -64 35l28 54c107 -9 141 -35 141 -84c0 -68 -72 -99 -197 -103z" />
    <glyph glyph-name="Gcaron" unicode="&#x1e6;" horiz-adv-x="638" 
d="M365 -12c-179 0 -319 115 -319 334c0 216 144 342 318 342c94 0 162 -41 205 -85l-77 -94c-33 29 -67 52 -123 52c-101 0 -172 -79 -172 -210c0 -134 61 -212 183 -212c27 0 54 7 70 20v112h-108v120h238v-300c-45 -44 -124 -79 -215 -79zM287 702l-90 110l64 40l104 -84
h4l104 84l64 -40l-90 -110h-160z" />
    <glyph glyph-name="uni1E20" unicode="&#x1e20;" horiz-adv-x="638" 
d="M365 -12c-179 0 -319 115 -319 334c0 216 144 342 318 342c94 0 162 -41 205 -85l-77 -94c-33 29 -67 52 -123 52c-101 0 -172 -79 -172 -210c0 -134 61 -212 183 -212c27 0 54 7 70 20v112h-108v120h238v-300c-45 -44 -124 -79 -215 -79zM216 721v94h302v-94h-302z" />
    <glyph glyph-name="uni00470303" horiz-adv-x="638" 
d="M365 -12c-179 0 -319 115 -319 334c0 216 144 342 318 342c94 0 162 -41 205 -85l-77 -94c-33 29 -67 52 -123 52c-101 0 -172 -79 -172 -210c0 -134 61 -212 183 -212c27 0 54 7 70 20v112h-108v120h238v-300c-45 -44 -124 -79 -215 -79zM438 692c-71 0 -104 58 -137 58
c-19 0 -33 -13 -37 -49l-95 7c5 101 57 144 127 144c71 0 104 -58 137 -58c19 0 33 13 37 49l95 -7c-5 -100 -57 -144 -127 -144z" />
    <glyph glyph-name="uni0193" unicode="&#x193;" horiz-adv-x="638" 
d="M365 -12c-179 0 -319 115 -319 334c0 216 144 342 318 342c18 0 36 -1 52 -4c0 6 -1 11 -1 17c0 77 53 141 144 141c41 0 65 -6 85 -13l-26 -109c-10 4 -17 7 -28 7c-30 0 -51 -17 -51 -48c0 -26 14 -44 30 -64l-77 -95c-33 23 -67 41 -123 41c-101 0 -172 -79 -172 -210
c0 -134 61 -212 183 -212c27 0 54 7 70 20v112h-108v120h238v-300c-45 -44 -124 -79 -215 -79z" />
    <glyph glyph-name="Hcircumflex" unicode="&#x124;" horiz-adv-x="674" 
d="M77 0v652h147v-251h225v251h148v-652h-148v272h-225v-272h-147zM166 724l90 111h160l90 -111l-64 -39l-104 84h-4l-104 -84z" />
    <glyph glyph-name="uni1E24" unicode="&#x1e24;" horiz-adv-x="674" 
d="M77 0v652h147v-251h225v251h148v-652h-148v272h-225v-272h-147zM336 -226c-48 0 -81 32 -81 77s33 77 81 77s81 -32 81 -77s-33 -77 -81 -77z" />
    <glyph glyph-name="uni1E2A" unicode="&#x1e2a;" horiz-adv-x="674" 
d="M77 0v652h147v-251h225v251h148v-652h-148v272h-225v-272h-147zM336 -233c-114 0 -166 69 -169 157l84 14c6 -43 32 -79 85 -79s79 36 85 79l84 -14c-3 -88 -54 -157 -169 -157z" />
    <glyph glyph-name="Hbar" unicode="&#x126;" horiz-adv-x="712" 
d="M25 486v65l72 6v95h147v-95h225v95h148v-95h70v-71h-70v-486h-148v272h-225v-272h-147v486h-72zM244 401h225v85h-225v-85z" />
    <glyph glyph-name="Igrave" unicode="&#xcc;" horiz-adv-x="301" 
d="M77 0v652h147v-652h-147zM161 680l-183 119l78 95l171 -140z" />
    <glyph glyph-name="Iacute" unicode="&#xcd;" horiz-adv-x="301" 
d="M77 0v652h147v-652h-147zM141 680l-66 74l171 140l78 -95z" />
    <glyph glyph-name="Icircumflex" unicode="&#xce;" horiz-adv-x="301" 
d="M77 0v652h147v-652h-147zM-19 724l90 111h160l90 -111l-64 -39l-104 84h-4l-104 -84z" />
    <glyph glyph-name="Itilde" unicode="&#x128;" horiz-adv-x="301" 
d="M77 0v652h147v-652h-147zM222 692c-71 0 -104 58 -137 58c-19 0 -33 -13 -37 -49l-95 7c5 101 57 144 127 144c71 0 104 -58 137 -58c19 0 33 13 37 49l95 -7c-5 -100 -57 -144 -127 -144z" />
    <glyph glyph-name="Idieresis" unicode="&#xcf;" horiz-adv-x="301" 
d="M77 0v652h147v-652h-147zM40 700c-41 0 -70 30 -70 70s29 70 70 70s70 -30 70 -70s-29 -70 -70 -70zM262 700c-41 0 -70 30 -70 70s29 70 70 70s70 -30 70 -70s-29 -70 -70 -70z" />
    <glyph glyph-name="Imacron" unicode="&#x12a;" horiz-adv-x="301" 
d="M77 0v652h147v-652h-147zM0 721v94h302v-94h-302z" />
    <glyph glyph-name="Idotaccent" unicode="&#x130;" horiz-adv-x="301" 
d="M77 0v652h147v-652h-147zM151 701c-49 0 -85 32 -85 77s36 77 85 77s85 -32 85 -77s-36 -77 -85 -77z" />
    <glyph glyph-name="uni01CF" unicode="&#x1cf;" horiz-adv-x="301" 
d="M77 0v652h147v-652h-147zM71 702l-90 110l64 40l104 -84h4l104 84l64 -40l-90 -110h-160z" />
    <glyph glyph-name="uni1EC8" unicode="&#x1ec8;" horiz-adv-x="301" 
d="M77 0v652h147v-652h-147zM108 691l-12 58c25 5 45 12 45 30c0 19 -22 30 -80 34l17 73c124 -3 169 -38 169 -91c0 -69 -64 -98 -139 -104z" />
    <glyph glyph-name="uni1ECA" unicode="&#x1eca;" horiz-adv-x="301" 
d="M77 0v652h147v-652h-147zM151 -226c-48 0 -81 32 -81 77s33 77 81 77s81 -32 81 -77s-33 -77 -81 -77z" />
    <glyph glyph-name="Iogonek" unicode="&#x12e;" horiz-adv-x="301" 
d="M157 -223c-64 0 -115 34 -115 94c0 64 45 108 74 129h-39v652h147v-652c-53 -22 -74 -56 -74 -90c0 -26 21 -38 41 -38c14 0 28 7 37 14l33 -74c-25 -20 -69 -35 -104 -35z" />
    <glyph glyph-name="uni012C" unicode="&#x12c;" horiz-adv-x="301" 
d="M77 0v652h147v-652h-147zM151 697c-99 0 -154 48 -163 137l80 14c9 -41 38 -66 83 -66s74 25 83 66l80 -14c-9 -89 -64 -137 -163 -137z" />
    <glyph glyph-name="Jcircumflex" unicode="&#x134;" horiz-adv-x="509" 
d="M226 -12c-99 0 -165 39 -210 118l100 74c24 -44 58 -65 91 -65c53 0 81 27 81 114v423h147v-435c0 -126 -65 -229 -209 -229zM189 724l90 111h160l90 -111l-64 -39l-104 84h-4l-104 -84z" />
    <glyph glyph-name="uni0136" unicode="&#x136;" horiz-adv-x="614" 
d="M77 0v652h147v-267h4l194 267h162l-197 -260l233 -392h-161l-159 275l-76 -100v-175h-147zM230 -239l-11 59c78 4 103 16 103 39c0 19 -19 31 -64 35l28 54c107 -9 141 -35 141 -84c0 -68 -72 -99 -197 -103z" />
    <glyph glyph-name="uni1E32" unicode="&#x1e32;" horiz-adv-x="614" 
d="M77 0v652h147v-267h4l194 267h162l-197 -260l233 -392h-161l-159 275l-76 -100v-175h-147zM332 -226c-48 0 -81 32 -81 77s33 77 81 77s81 -32 81 -77s-33 -77 -81 -77z" />
    <glyph glyph-name="uni1E34" unicode="&#x1e34;" horiz-adv-x="614" 
d="M77 0v652h147v-267h4l194 267h162l-197 -260l233 -392h-161l-159 275l-76 -100v-175h-147zM184 -188v93h296v-93h-296z" />
    <glyph glyph-name="Lacute" unicode="&#x139;" horiz-adv-x="518" 
d="M77 0v652h147v-528h258v-124h-405zM144 680l-66 74l171 140l78 -95z" />
    <glyph glyph-name="Lcaron" unicode="&#x13d;" horiz-adv-x="518" 
d="M77 0v652h147v-528h258v-124h-405zM353 510l-6 222h95l-2 -69l-24 -153h-63z" />
    <glyph glyph-name="uni013B" unicode="&#x13b;" horiz-adv-x="518" 
d="M77 0v652h147v-528h258v-124h-405zM188 -239l-11 59c78 4 103 16 103 39c0 19 -19 31 -64 35l28 54c107 -9 141 -35 141 -84c0 -68 -72 -99 -197 -103z" />
    <glyph glyph-name="Ldot" unicode="&#x13f;" horiz-adv-x="518" 
d="M77 0v652h147v-528h258v-124h-405zM410 236c-51 0 -89 40 -89 92c0 53 38 93 89 93s89 -40 89 -93c0 -52 -38 -92 -89 -92z" />
    <glyph glyph-name="uni1E36" unicode="&#x1e36;" horiz-adv-x="518" 
d="M77 0v652h147v-528h258v-124h-405zM290 -226c-48 0 -81 32 -81 77s33 77 81 77s81 -32 81 -77s-33 -77 -81 -77z" />
    <glyph glyph-name="uni1E38" unicode="&#x1e38;" horiz-adv-x="518" 
d="M77 0v652h147v-528h258v-124h-405zM3 721v94h302v-94h-302zM290 -226c-48 0 -81 32 -81 77s33 77 81 77s81 -32 81 -77s-33 -77 -81 -77z" />
    <glyph glyph-name="uni1E3A" unicode="&#x1e3a;" horiz-adv-x="518" 
d="M77 0v652h147v-528h258v-124h-405zM142 -188v93h296v-93h-296z" />
    <glyph glyph-name="Lslash" unicode="&#x141;" horiz-adv-x="524" 
d="M27 176l-50 88l107 60v328h147v-260l158 87l50 -88l-208 -113v-154h258v-124h-405v210z" />
    <glyph glyph-name="uni1E3E" unicode="&#x1e3e;" horiz-adv-x="762" 
d="M77 0v652h161l105 -290c13 -38 25 -80 38 -120h4c13 40 24 82 37 120l103 290h160v-652h-134v239c0 64 12 159 19 222h-4l-53 -155l-93 -249h-81l-93 249l-52 155h-4c7 -63 19 -158 19 -222v-239h-132zM371 680l-66 74l171 140l78 -95z" />
    <glyph glyph-name="uni1E40" unicode="&#x1e40;" horiz-adv-x="762" 
d="M77 0v652h161l105 -290c13 -38 25 -80 38 -120h4c13 40 24 82 37 120l103 290h160v-652h-134v239c0 64 12 159 19 222h-4l-53 -155l-93 -249h-81l-93 249l-52 155h-4c7 -63 19 -158 19 -222v-239h-132zM381 701c-49 0 -85 32 -85 77s36 77 85 77s85 -32 85 -77
s-36 -77 -85 -77z" />
    <glyph glyph-name="uni1E42" unicode="&#x1e42;" horiz-adv-x="762" 
d="M77 0v652h161l105 -290c13 -38 25 -80 38 -120h4c13 40 24 82 37 120l103 290h160v-652h-134v239c0 64 12 159 19 222h-4l-53 -155l-93 -249h-81l-93 249l-52 155h-4c7 -63 19 -158 19 -222v-239h-132zM383 -226c-48 0 -81 32 -81 77s33 77 81 77s81 -32 81 -77
s-33 -77 -81 -77z" />
    <glyph glyph-name="Nacute" unicode="&#x143;" horiz-adv-x="665" 
d="M77 0v652h151l170 -324l64 -144h4c-6 69 -18 161 -18 238v230h140v-652h-151l-170 325l-64 142h-4c6 -72 18 -159 18 -236v-231h-140zM324 680l-66 74l171 140l78 -95z" />
    <glyph glyph-name="uni01F8" unicode="&#x1f8;" horiz-adv-x="665" 
d="M77 0v652h151l170 -324l64 -144h4c-6 69 -18 161 -18 238v230h140v-652h-151l-170 325l-64 142h-4c6 -72 18 -159 18 -236v-231h-140zM344 680l-183 119l78 95l171 -140z" />
    <glyph glyph-name="Ncaron" unicode="&#x147;" horiz-adv-x="665" 
d="M77 0v652h151l170 -324l64 -144h4c-6 69 -18 161 -18 238v230h140v-652h-151l-170 325l-64 142h-4c6 -72 18 -159 18 -236v-231h-140zM253 702l-90 110l64 40l104 -84h4l104 84l64 -40l-90 -110h-160z" />
    <glyph glyph-name="Ntilde" unicode="&#xd1;" horiz-adv-x="665" 
d="M77 0v652h151l170 -324l64 -144h4c-6 69 -18 161 -18 238v230h140v-652h-151l-170 325l-64 142h-4c6 -72 18 -159 18 -236v-231h-140zM404 692c-71 0 -104 58 -137 58c-19 0 -33 -13 -37 -49l-95 7c5 101 57 144 127 144c71 0 104 -58 137 -58c19 0 33 13 37 49l95 -7
c-5 -100 -57 -144 -127 -144z" />
    <glyph glyph-name="uni0145" unicode="&#x145;" horiz-adv-x="665" 
d="M77 0v652h151l170 -324l64 -144h4c-6 69 -18 161 -18 238v230h140v-652h-151l-170 325l-64 142h-4c6 -72 18 -159 18 -236v-231h-140zM242 -239l-11 59c78 4 103 16 103 39c0 19 -19 31 -64 35l28 54c107 -9 141 -35 141 -84c0 -68 -72 -99 -197 -103z" />
    <glyph glyph-name="uni1E44" unicode="&#x1e44;" horiz-adv-x="665" 
d="M77 0v652h151l170 -324l64 -144h4c-6 69 -18 161 -18 238v230h140v-652h-151l-170 325l-64 142h-4c6 -72 18 -159 18 -236v-231h-140zM333 701c-49 0 -85 32 -85 77s36 77 85 77s85 -32 85 -77s-36 -77 -85 -77z" />
    <glyph glyph-name="uni1E46" unicode="&#x1e46;" horiz-adv-x="665" 
d="M77 0v652h151l170 -324l64 -144h4c-6 69 -18 161 -18 238v230h140v-652h-151l-170 325l-64 142h-4c6 -72 18 -159 18 -236v-231h-140zM344 -226c-48 0 -81 32 -81 77s33 77 81 77s81 -32 81 -77s-33 -77 -81 -77z" />
    <glyph glyph-name="uni1E48" unicode="&#x1e48;" horiz-adv-x="665" 
d="M77 0v652h151l170 -324l64 -144h4c-6 69 -18 161 -18 238v230h140v-652h-151l-170 325l-64 142h-4c6 -72 18 -159 18 -236v-231h-140zM196 -188v93h296v-93h-296z" />
    <glyph glyph-name="Ograve" unicode="&#xd2;" horiz-adv-x="684" 
d="M342 -12c-176 0 -296 128 -296 341s120 335 296 335s296 -123 296 -335c0 -213 -120 -341 -296 -341zM342 115c89 0 145 83 145 214c0 130 -56 208 -145 208s-145 -78 -145 -208c0 -131 56 -214 145 -214zM352 680l-183 119l78 95l171 -140z" />
    <glyph glyph-name="Oacute" unicode="&#xd3;" horiz-adv-x="684" 
d="M342 -12c-176 0 -296 128 -296 341s120 335 296 335s296 -123 296 -335c0 -213 -120 -341 -296 -341zM342 115c89 0 145 83 145 214c0 130 -56 208 -145 208s-145 -78 -145 -208c0 -131 56 -214 145 -214zM332 680l-66 74l171 140l78 -95z" />
    <glyph glyph-name="Ocircumflex" unicode="&#xd4;" horiz-adv-x="684" 
d="M342 -12c-176 0 -296 128 -296 341s120 335 296 335s296 -123 296 -335c0 -213 -120 -341 -296 -341zM342 115c89 0 145 83 145 214c0 130 -56 208 -145 208s-145 -78 -145 -208c0 -131 56 -214 145 -214zM172 724l90 111h160l90 -111l-64 -39l-104 84h-4l-104 -84z" />
    <glyph glyph-name="Otilde" unicode="&#xd5;" horiz-adv-x="684" 
d="M342 -12c-176 0 -296 128 -296 341s120 335 296 335s296 -123 296 -335c0 -213 -120 -341 -296 -341zM342 115c89 0 145 83 145 214c0 130 -56 208 -145 208s-145 -78 -145 -208c0 -131 56 -214 145 -214zM413 692c-71 0 -104 58 -137 58c-19 0 -33 -13 -37 -49l-95 7
c5 101 57 144 127 144c71 0 104 -58 137 -58c19 0 33 13 37 49l95 -7c-5 -100 -57 -144 -127 -144z" />
    <glyph glyph-name="Odieresis" unicode="&#xd6;" horiz-adv-x="684" 
d="M342 -12c-176 0 -296 128 -296 341s120 335 296 335s296 -123 296 -335c0 -213 -120 -341 -296 -341zM342 115c89 0 145 83 145 214c0 130 -56 208 -145 208s-145 -78 -145 -208c0 -131 56 -214 145 -214zM231 700c-41 0 -70 30 -70 70s29 70 70 70s70 -30 70 -70
s-29 -70 -70 -70zM453 700c-41 0 -70 30 -70 70s29 70 70 70s70 -30 70 -70s-29 -70 -70 -70z" />
    <glyph glyph-name="Omacron" unicode="&#x14c;" horiz-adv-x="684" 
d="M342 -12c-176 0 -296 128 -296 341s120 335 296 335s296 -123 296 -335c0 -213 -120 -341 -296 -341zM342 115c89 0 145 83 145 214c0 130 -56 208 -145 208s-145 -78 -145 -208c0 -131 56 -214 145 -214zM191 721v94h302v-94h-302z" />
    <glyph glyph-name="Ohungarumlaut" unicode="&#x150;" horiz-adv-x="684" 
d="M342 -12c-176 0 -296 128 -296 341s120 335 296 335s296 -123 296 -335c0 -213 -120 -341 -296 -341zM342 115c89 0 145 83 145 214c0 130 -56 208 -145 208s-145 -78 -145 -208c0 -131 56 -214 145 -214zM207 728l101 161l93 -52l-122 -143zM394 728l101 161l94 -52
l-122 -143z" />
    <glyph glyph-name="uni01D1" unicode="&#x1d1;" horiz-adv-x="684" 
d="M342 -12c-176 0 -296 128 -296 341s120 335 296 335s296 -123 296 -335c0 -213 -120 -341 -296 -341zM342 115c89 0 145 83 145 214c0 130 -56 208 -145 208s-145 -78 -145 -208c0 -131 56 -214 145 -214zM262 702l-90 110l64 40l104 -84h4l104 84l64 -40l-90 -110h-160z
" />
    <glyph glyph-name="uni1ECC" unicode="&#x1ecc;" horiz-adv-x="684" 
d="M342 -12c-176 0 -296 128 -296 341s120 335 296 335s296 -123 296 -335c0 -213 -120 -341 -296 -341zM342 115c89 0 145 83 145 214c0 130 -56 208 -145 208s-145 -78 -145 -208c0 -131 56 -214 145 -214zM342 -226c-48 0 -81 32 -81 77s33 77 81 77s81 -32 81 -77
s-33 -77 -81 -77z" />
    <glyph glyph-name="uni1ECE" unicode="&#x1ece;" horiz-adv-x="684" 
d="M342 -12c-176 0 -296 128 -296 341s120 335 296 335s296 -123 296 -335c0 -213 -120 -341 -296 -341zM342 115c89 0 145 83 145 214c0 130 -56 208 -145 208s-145 -78 -145 -208c0 -131 56 -214 145 -214zM299 691l-12 58c25 5 45 12 45 30c0 19 -22 30 -80 34l17 73
c124 -3 169 -38 169 -91c0 -69 -64 -98 -139 -104z" />
    <glyph glyph-name="uni1ED0" unicode="&#x1ed0;" horiz-adv-x="684" 
d="M342 -12c-176 0 -296 128 -296 341s120 335 296 335s296 -123 296 -335c0 -213 -120 -341 -296 -341zM342 115c89 0 145 83 145 214c0 130 -56 208 -145 208s-145 -78 -145 -208c0 -131 56 -214 145 -214zM248 685l-59 39l90 100h126l90 -100l-59 -39l-92 72h-4zM494 759
l-44 50l100 86l49 -60z" />
    <glyph glyph-name="uni1ED2" unicode="&#x1ed2;" horiz-adv-x="684" 
d="M342 -12c-176 0 -296 128 -296 341s120 335 296 335s296 -123 296 -335c0 -213 -120 -341 -296 -341zM342 115c89 0 145 83 145 214c0 130 -56 208 -145 208s-145 -78 -145 -208c0 -131 56 -214 145 -214zM248 685l-59 39l90 100h126l90 -100l-59 -39l-92 72h-4zM234 808
l-44 -49l-101 77l48 59z" />
    <glyph glyph-name="uni1ED4" unicode="&#x1ed4;" horiz-adv-x="684" 
d="M342 -12c-176 0 -296 128 -296 341s120 335 296 335s296 -123 296 -335c0 -213 -120 -341 -296 -341zM342 115c89 0 145 83 145 214c0 130 -56 208 -145 208s-145 -78 -145 -208c0 -131 56 -214 145 -214zM248 685l-59 39l90 100h126l90 -100l-59 -39l-92 72h-4zM479 750
l-11 47c18 4 32 10 32 27c0 19 -15 29 -65 33l13 60c110 -3 147 -36 147 -80c0 -59 -51 -82 -116 -87z" />
    <glyph glyph-name="uni1ED6" unicode="&#x1ed6;" horiz-adv-x="684" 
d="M342 -12c-176 0 -296 128 -296 341s120 335 296 335s296 -123 296 -335c0 -213 -120 -341 -296 -341zM342 115c89 0 145 83 145 214c0 130 -56 208 -145 208s-145 -78 -145 -208c0 -131 56 -214 145 -214zM248 685l-59 39l90 92h126l90 -92l-59 -39l-92 63h-4zM189 852
c4 76 37 111 93 111c55 0 83 -44 111 -44c18 0 28 12 32 39l70 -9c-4 -76 -37 -111 -93 -111c-55 0 -83 44 -111 44c-18 0 -28 -11 -32 -38z" />
    <glyph glyph-name="uni1ED8" unicode="&#x1ed8;" horiz-adv-x="684" 
d="M342 -12c-176 0 -296 128 -296 341s120 335 296 335s296 -123 296 -335c0 -213 -120 -341 -296 -341zM342 115c89 0 145 83 145 214c0 130 -56 208 -145 208s-145 -78 -145 -208c0 -131 56 -214 145 -214zM172 724l90 111h160l90 -111l-64 -39l-104 84h-4l-104 -84z
M342 -226c-48 0 -81 32 -81 77s33 77 81 77s81 -32 81 -77s-33 -77 -81 -77z" />
    <glyph glyph-name="uni014E" unicode="&#x14e;" horiz-adv-x="684" 
d="M342 -12c-176 0 -296 128 -296 341s120 335 296 335s296 -123 296 -335c0 -213 -120 -341 -296 -341zM342 115c89 0 145 83 145 214c0 130 -56 208 -145 208s-145 -78 -145 -208c0 -131 56 -214 145 -214zM342 697c-99 0 -154 48 -163 137l80 14c9 -41 38 -66 83 -66
s74 25 83 66l80 -14c-9 -89 -64 -137 -163 -137z" />
    <glyph glyph-name="uni1E52" unicode="&#x1e52;" horiz-adv-x="684" 
d="M342 -12c-176 0 -296 128 -296 341s120 335 296 335s296 -123 296 -335c0 -213 -120 -341 -296 -341zM342 115c89 0 145 83 145 214c0 130 -56 208 -145 208s-145 -78 -145 -208c0 -131 56 -214 145 -214zM311 834l-49 66l155 107l60 -81zM191 721v94h302v-94h-302z" />
    <glyph glyph-name="Oslash" unicode="&#xd8;" horiz-adv-x="684" 
d="M343 -12c-63 0 -119 17 -165 48l-62 -77l-76 58l69 86c-39 57 -62 134 -62 226c0 213 120 335 296 335c68 0 127 -18 175 -53l66 82l76 -59l-76 -94c35 -54 55 -125 55 -211c0 -213 -120 -341 -296 -341zM198 329c0 -37 5 -71 13 -99l220 273c-23 22 -53 34 -88 34
c-89 0 -145 -78 -145 -208zM343 115c89 0 145 83 145 214c0 30 -3 57 -9 81l-215 -267c22 -18 49 -28 79 -28z" />
    <glyph glyph-name="OE" unicode="&#x152;" horiz-adv-x="871" 
d="M373 0c-186 0 -327 105 -327 329s141 323 335 323h427v-124h-247v-131h208v-123h-208v-150h257v-124h-445zM390 119h23v414h-23c-114 0 -193 -47 -193 -204c0 -158 79 -210 193 -210z" />
    <glyph glyph-name="Ohorn" unicode="&#x1a0;" horiz-adv-x="684" 
d="M343 -12c-176 0 -296 128 -296 341s120 335 296 335c52 0 99 -11 139 -31c39 11 60 29 60 72c0 26 -8 50 -16 65l109 44c16 -22 30 -58 30 -98c0 -72 -39 -112 -115 -132c56 -58 89 -144 89 -255c0 -213 -120 -341 -296 -341zM343 115c89 0 145 83 145 214
c0 130 -56 208 -145 208s-145 -78 -145 -208c0 -131 56 -214 145 -214z" />
    <glyph glyph-name="uni1EDA" unicode="&#x1eda;" horiz-adv-x="684" 
d="M343 -12c-176 0 -296 128 -296 341s120 335 296 335c52 0 99 -11 139 -31c39 11 60 29 60 72c0 26 -8 50 -16 65l109 44c16 -22 30 -58 30 -98c0 -72 -39 -112 -115 -132c56 -58 89 -144 89 -255c0 -213 -120 -341 -296 -341zM343 115c89 0 145 83 145 214
c0 130 -56 208 -145 208s-145 -78 -145 -208c0 -131 56 -214 145 -214zM332 680l-66 74l171 140l78 -95z" />
    <glyph glyph-name="uni1EDC" unicode="&#x1edc;" horiz-adv-x="684" 
d="M343 -12c-176 0 -296 128 -296 341s120 335 296 335c52 0 99 -11 139 -31c39 11 60 29 60 72c0 26 -8 50 -16 65l109 44c16 -22 30 -58 30 -98c0 -72 -39 -112 -115 -132c56 -58 89 -144 89 -255c0 -213 -120 -341 -296 -341zM343 115c89 0 145 83 145 214
c0 130 -56 208 -145 208s-145 -78 -145 -208c0 -131 56 -214 145 -214zM352 680l-183 119l78 95l171 -140z" />
    <glyph glyph-name="uni1EDE" unicode="&#x1ede;" horiz-adv-x="684" 
d="M343 -12c-176 0 -296 128 -296 341s120 335 296 335c52 0 99 -11 139 -31c39 11 60 29 60 72c0 26 -8 50 -16 65l109 44c16 -22 30 -58 30 -98c0 -72 -39 -112 -115 -132c56 -58 89 -144 89 -255c0 -213 -120 -341 -296 -341zM343 115c89 0 145 83 145 214
c0 130 -56 208 -145 208s-145 -78 -145 -208c0 -131 56 -214 145 -214zM299 691l-12 58c25 5 45 12 45 30c0 19 -22 30 -80 34l17 73c124 -3 169 -38 169 -91c0 -69 -64 -98 -139 -104z" />
    <glyph glyph-name="uni1EE0" unicode="&#x1ee0;" horiz-adv-x="684" 
d="M343 -12c-176 0 -296 128 -296 341s120 335 296 335c52 0 99 -11 139 -31c39 11 60 29 60 72c0 26 -8 50 -16 65l109 44c16 -22 30 -58 30 -98c0 -72 -39 -112 -115 -132c56 -58 89 -144 89 -255c0 -213 -120 -341 -296 -341zM343 115c89 0 145 83 145 214
c0 130 -56 208 -145 208s-145 -78 -145 -208c0 -131 56 -214 145 -214zM397 692c-71 0 -104 58 -137 58c-19 0 -33 -13 -37 -49l-95 7c5 101 57 144 127 144c71 0 104 -58 137 -58c19 0 33 13 37 49l95 -7c-5 -100 -57 -144 -127 -144z" />
    <glyph glyph-name="uni1EE2" unicode="&#x1ee2;" horiz-adv-x="684" 
d="M343 -12c-176 0 -296 128 -296 341s120 335 296 335c52 0 99 -11 139 -31c39 11 60 29 60 72c0 26 -8 50 -16 65l109 44c16 -22 30 -58 30 -98c0 -72 -39 -112 -115 -132c56 -58 89 -144 89 -255c0 -213 -120 -341 -296 -341zM343 115c89 0 145 83 145 214
c0 130 -56 208 -145 208s-145 -78 -145 -208c0 -131 56 -214 145 -214zM342 -226c-48 0 -81 32 -81 77s33 77 81 77s81 -32 81 -77s-33 -77 -81 -77z" />
    <glyph glyph-name="uni01EA" unicode="&#x1ea;" horiz-adv-x="684" 
d="M368 -223c-64 0 -115 34 -115 94c0 52 33 93 63 119c-165 12 -270 138 -270 339c0 213 120 335 296 335s296 -123 296 -335c0 -184 -78 -275 -207 -334c-50 -22 -71 -57 -71 -85c0 -26 21 -38 42 -38c14 0 26 7 36 14l34 -74c-26 -20 -70 -35 -104 -35zM342 115
c89 0 145 83 145 214c0 130 -56 208 -145 208s-145 -78 -145 -208c0 -131 56 -214 145 -214z" />
    <glyph glyph-name="Racute" unicode="&#x154;" horiz-adv-x="613" 
d="M77 0v652h235c138 0 251 -48 251 -203c0 -96 -46 -157 -116 -188l148 -261h-165l-125 235h-81v-235h-147zM224 352h76c77 0 119 33 119 97s-42 86 -119 86h-76v-183zM298 680l-66 74l171 140l78 -95z" />
    <glyph glyph-name="Rcaron" unicode="&#x158;" horiz-adv-x="613" 
d="M77 0v652h235c138 0 251 -48 251 -203c0 -96 -46 -157 -116 -188l148 -261h-165l-125 235h-81v-235h-147zM224 352h76c77 0 119 33 119 97s-42 86 -119 86h-76v-183zM228 702l-90 110l64 40l104 -84h4l104 84l64 -40l-90 -110h-160z" />
    <glyph glyph-name="uni1E58" unicode="&#x1e58;" horiz-adv-x="613" 
d="M77 0v652h235c138 0 251 -48 251 -203c0 -96 -46 -157 -116 -188l148 -261h-165l-125 235h-81v-235h-147zM224 352h76c77 0 119 33 119 97s-42 86 -119 86h-76v-183zM308 701c-49 0 -85 32 -85 77s36 77 85 77s85 -32 85 -77s-36 -77 -85 -77z" />
    <glyph glyph-name="uni0156" unicode="&#x156;" horiz-adv-x="613" 
d="M77 0v652h235c138 0 251 -48 251 -203c0 -96 -46 -157 -116 -188l148 -261h-165l-125 235h-81v-235h-147zM224 352h76c77 0 119 33 119 97s-42 86 -119 86h-76v-183zM224 -239l-11 59c78 4 103 16 103 39c0 19 -19 31 -64 35l28 54c107 -9 141 -35 141 -84
c0 -68 -72 -99 -197 -103z" />
    <glyph glyph-name="uni1E5A" unicode="&#x1e5a;" horiz-adv-x="613" 
d="M77 0v652h235c138 0 251 -48 251 -203c0 -96 -46 -157 -116 -188l148 -261h-165l-125 235h-81v-235h-147zM224 352h76c77 0 119 33 119 97s-42 86 -119 86h-76v-183zM326 -226c-48 0 -81 32 -81 77s33 77 81 77s81 -32 81 -77s-33 -77 -81 -77z" />
    <glyph glyph-name="uni1E5C" unicode="&#x1e5c;" horiz-adv-x="613" 
d="M77 0v652h235c138 0 251 -48 251 -203c0 -96 -46 -157 -116 -188l148 -261h-165l-125 235h-81v-235h-147zM224 352h76c77 0 119 33 119 97s-42 86 -119 86h-76v-183zM157 721v94h302v-94h-302zM326 -226c-48 0 -81 32 -81 77s33 77 81 77s81 -32 81 -77s-33 -77 -81 -77z
" />
    <glyph glyph-name="uni1E5E" unicode="&#x1e5e;" horiz-adv-x="613" 
d="M77 0v652h235c138 0 251 -48 251 -203c0 -96 -46 -157 -116 -188l148 -261h-165l-125 235h-81v-235h-147zM224 352h76c77 0 119 33 119 97s-42 86 -119 86h-76v-183zM178 -188v93h296v-93h-296z" />
    <glyph glyph-name="Sacute" unicode="&#x15a;" horiz-adv-x="556" 
d="M276 -12c-85 0 -175 32 -241 94l84 101c47 -40 107 -68 161 -68c61 0 91 24 91 63c0 41 -37 54 -94 78l-85 36c-67 27 -131 83 -131 178c0 108 96 194 232 194c75 0 154 -30 210 -86l-75 -93c-43 33 -83 52 -135 52c-51 0 -83 -22 -83 -59c0 -40 43 -54 99 -77l84 -34
c79 -32 129 -85 129 -177c0 -108 -90 -202 -246 -202zM281 680l-66 74l171 140l78 -95z" />
    <glyph glyph-name="Scircumflex" unicode="&#x15c;" horiz-adv-x="556" 
d="M276 -12c-85 0 -175 32 -241 94l84 101c47 -40 107 -68 161 -68c61 0 91 24 91 63c0 41 -37 54 -94 78l-85 36c-67 27 -131 83 -131 178c0 108 96 194 232 194c75 0 154 -30 210 -86l-75 -93c-43 33 -83 52 -135 52c-51 0 -83 -22 -83 -59c0 -40 43 -54 99 -77l84 -34
c79 -32 129 -85 129 -177c0 -108 -90 -202 -246 -202zM121 724l90 111h160l90 -111l-64 -39l-104 84h-4l-104 -84z" />
    <glyph glyph-name="Scaron" unicode="&#x160;" horiz-adv-x="556" 
d="M276 -12c-85 0 -175 32 -241 94l84 101c47 -40 107 -68 161 -68c61 0 91 24 91 63c0 41 -37 54 -94 78l-85 36c-67 27 -131 83 -131 178c0 108 96 194 232 194c75 0 154 -30 210 -86l-75 -93c-43 33 -83 52 -135 52c-51 0 -83 -22 -83 -59c0 -40 43 -54 99 -77l84 -34
c79 -32 129 -85 129 -177c0 -108 -90 -202 -246 -202zM211 702l-90 110l64 40l104 -84h4l104 84l64 -40l-90 -110h-160z" />
    <glyph glyph-name="uni015E" unicode="&#x15e;" horiz-adv-x="556" 
d="M177 -239l-11 59c78 4 103 16 103 44c0 20 -16 34 -77 42l41 85c-71 8 -143 39 -198 91l84 101c47 -40 107 -68 161 -68c61 0 91 24 91 63c0 41 -37 54 -94 78l-85 36c-67 27 -131 83 -131 178c0 108 96 194 232 194c75 0 154 -30 210 -86l-75 -93c-43 33 -83 52 -135 52
c-51 0 -83 -22 -83 -59c0 -40 43 -54 99 -77l84 -34c79 -32 129 -85 129 -177c0 -97 -73 -183 -202 -199l-22 -52c50 -12 76 -33 76 -75c0 -68 -72 -99 -197 -103z" />
    <glyph glyph-name="uni0218" unicode="&#x218;" horiz-adv-x="556" 
d="M276 -12c-85 0 -175 32 -241 94l84 101c47 -40 107 -68 161 -68c61 0 91 24 91 63c0 41 -37 54 -94 78l-85 36c-67 27 -131 83 -131 178c0 108 96 194 232 194c75 0 154 -30 210 -86l-75 -93c-43 33 -83 52 -135 52c-51 0 -83 -22 -83 -59c0 -40 43 -54 99 -77l84 -34
c79 -32 129 -85 129 -177c0 -108 -90 -202 -246 -202zM177 -239l-11 59c78 4 103 16 103 39c0 19 -19 31 -64 35l28 54c107 -9 141 -35 141 -84c0 -68 -72 -99 -197 -103z" />
    <glyph glyph-name="uni1E60" unicode="&#x1e60;" horiz-adv-x="556" 
d="M276 -12c-85 0 -175 32 -241 94l84 101c47 -40 107 -68 161 -68c61 0 91 24 91 63c0 41 -37 54 -94 78l-85 36c-67 27 -131 83 -131 178c0 108 96 194 232 194c75 0 154 -30 210 -86l-75 -93c-43 33 -83 52 -135 52c-51 0 -83 -22 -83 -59c0 -40 43 -54 99 -77l84 -34
c79 -32 129 -85 129 -177c0 -108 -90 -202 -246 -202zM291 701c-49 0 -85 32 -85 77s36 77 85 77s85 -32 85 -77s-36 -77 -85 -77z" />
    <glyph glyph-name="uni1E62" unicode="&#x1e62;" horiz-adv-x="556" 
d="M276 -12c-85 0 -175 32 -241 94l84 101c47 -40 107 -68 161 -68c61 0 91 24 91 63c0 41 -37 54 -94 78l-85 36c-67 27 -131 83 -131 178c0 108 96 194 232 194c75 0 154 -30 210 -86l-75 -93c-43 33 -83 52 -135 52c-51 0 -83 -22 -83 -59c0 -40 43 -54 99 -77l84 -34
c79 -32 129 -85 129 -177c0 -108 -90 -202 -246 -202zM279 -226c-48 0 -81 32 -81 77s33 77 81 77s81 -32 81 -77s-33 -77 -81 -77z" />
    <glyph glyph-name="uni1E9E" unicode="&#x1e9e;" horiz-adv-x="705" 
d="M463 -12c-86 0 -149 35 -186 72l77 90c32 -32 62 -43 91 -43c43 0 70 29 70 72c0 40 -41 76 -151 96l-10 86l109 125c-17 31 -52 59 -106 59c-86 0 -129 -52 -129 -156v-389h-148v409c0 146 87 255 281 255c130 0 218 -74 248 -183l-108 -122c98 -31 165 -83 165 -181
c0 -107 -72 -190 -203 -190z" />
    <glyph glyph-name="Tcaron" unicode="&#x164;" horiz-adv-x="556" 
d="M204 0v528h-179v124h506v-124h-179v-528h-148zM198 702l-90 110l64 40l104 -84h4l104 84l64 -40l-90 -110h-160z" />
    <glyph glyph-name="uni0162" unicode="&#x162;" horiz-adv-x="556" 
d="M204 0v528h-179v124h506v-124h-179v-528h-27l-26 -61c50 -12 76 -33 76 -75c0 -68 -72 -99 -197 -103l-11 59c78 4 103 16 103 44c0 20 -16 34 -77 42l46 94h-35z" />
    <glyph glyph-name="uni021A" unicode="&#x21a;" horiz-adv-x="556" 
d="M204 0v528h-179v124h506v-124h-179v-528h-148zM176 -239l-11 59c78 4 103 16 103 39c0 19 -19 31 -64 35l28 54c107 -9 141 -35 141 -84c0 -68 -72 -99 -197 -103z" />
    <glyph glyph-name="uni1E6C" unicode="&#x1e6c;" horiz-adv-x="556" 
d="M204 0v528h-179v124h506v-124h-179v-528h-148zM278 -226c-48 0 -81 32 -81 77s33 77 81 77s81 -32 81 -77s-33 -77 -81 -77z" />
    <glyph glyph-name="uni1E6E" unicode="&#x1e6e;" horiz-adv-x="556" 
d="M204 0v528h-179v124h506v-124h-179v-528h-148zM130 -188v93h296v-93h-296z" />
    <glyph glyph-name="uni0166" unicode="&#x166;" horiz-adv-x="556" 
d="M204 0v285h-118v65l94 6h24v172h-179v124h506v-124h-179v-172h118v-71h-118v-285h-148z" />
    <glyph glyph-name="Ugrave" unicode="&#xd9;" horiz-adv-x="665" 
d="M334 -12c-169 0 -261 95 -261 314v350h148v-365c0 -128 40 -172 113 -172s115 44 115 172v365h142v-350c0 -219 -89 -314 -257 -314zM342 680l-183 119l78 95l171 -140z" />
    <glyph glyph-name="Uacute" unicode="&#xda;" horiz-adv-x="665" 
d="M334 -12c-169 0 -261 95 -261 314v350h148v-365c0 -128 40 -172 113 -172s115 44 115 172v365h142v-350c0 -219 -89 -314 -257 -314zM322 680l-66 74l171 140l78 -95z" />
    <glyph glyph-name="Ucircumflex" unicode="&#xdb;" horiz-adv-x="665" 
d="M334 -12c-169 0 -261 95 -261 314v350h148v-365c0 -128 40 -172 113 -172s115 44 115 172v365h142v-350c0 -219 -89 -314 -257 -314zM162 724l90 111h160l90 -111l-64 -39l-104 84h-4l-104 -84z" />
    <glyph glyph-name="Utilde" unicode="&#x168;" horiz-adv-x="665" 
d="M334 -12c-169 0 -261 95 -261 314v350h148v-365c0 -128 40 -172 113 -172s115 44 115 172v365h142v-350c0 -219 -89 -314 -257 -314zM403 692c-71 0 -104 58 -137 58c-19 0 -33 -13 -37 -49l-95 7c5 101 57 144 127 144c71 0 104 -58 137 -58c19 0 33 13 37 49l95 -7
c-5 -100 -57 -144 -127 -144z" />
    <glyph glyph-name="Udieresis" unicode="&#xdc;" horiz-adv-x="665" 
d="M334 -12c-169 0 -261 95 -261 314v350h148v-365c0 -128 40 -172 113 -172s115 44 115 172v365h142v-350c0 -219 -89 -314 -257 -314zM221 700c-41 0 -70 30 -70 70s29 70 70 70s70 -30 70 -70s-29 -70 -70 -70zM443 700c-41 0 -70 30 -70 70s29 70 70 70s70 -30 70 -70
s-29 -70 -70 -70z" />
    <glyph glyph-name="Umacron" unicode="&#x16a;" horiz-adv-x="665" 
d="M334 -12c-169 0 -261 95 -261 314v350h148v-365c0 -128 40 -172 113 -172s115 44 115 172v365h142v-350c0 -219 -89 -314 -257 -314zM181 721v94h302v-94h-302z" />
    <glyph glyph-name="Ubreve" unicode="&#x16c;" horiz-adv-x="665" 
d="M334 -12c-169 0 -261 95 -261 314v350h148v-365c0 -128 40 -172 113 -172s115 44 115 172v365h142v-350c0 -219 -89 -314 -257 -314zM332 697c-99 0 -154 48 -163 137l80 14c9 -41 38 -66 83 -66s74 25 83 66l80 -14c-9 -89 -64 -137 -163 -137z" />
    <glyph glyph-name="Uring" unicode="&#x16e;" horiz-adv-x="665" 
d="M334 -12c-169 0 -261 95 -261 314v350h148v-365c0 -128 40 -172 113 -172s115 44 115 172v365h142v-350c0 -219 -89 -314 -257 -314zM332 697c-68 0 -114 39 -114 99s46 98 114 98c67 0 114 -38 114 -98s-47 -99 -114 -99zM332 752c23 0 42 17 42 44c0 26 -19 43 -42 43
s-42 -17 -42 -43c0 -27 19 -44 42 -44z" />
    <glyph glyph-name="Uhungarumlaut" unicode="&#x170;" horiz-adv-x="665" 
d="M334 -12c-169 0 -261 95 -261 314v350h148v-365c0 -128 40 -172 113 -172s115 44 115 172v365h142v-350c0 -219 -89 -314 -257 -314zM197 728l101 161l93 -52l-122 -143zM384 728l101 161l94 -52l-122 -143z" />
    <glyph glyph-name="uni01D3" unicode="&#x1d3;" horiz-adv-x="665" 
d="M334 -12c-169 0 -261 95 -261 314v350h148v-365c0 -128 40 -172 113 -172s115 44 115 172v365h142v-350c0 -219 -89 -314 -257 -314zM252 702l-90 110l64 40l104 -84h4l104 84l64 -40l-90 -110h-160z" />
    <glyph glyph-name="uni01D5" unicode="&#x1d5;" horiz-adv-x="665" 
d="M334 -12c-169 0 -261 95 -261 314v350h148v-365c0 -128 40 -172 113 -172s115 44 115 172v365h142v-350c0 -219 -89 -314 -257 -314zM221 700c-36 0 -61 27 -61 62c0 34 25 61 61 61s62 -27 62 -61c0 -35 -26 -62 -62 -62zM181 872v69h302v-69h-302zM443 700
c-36 0 -62 27 -62 62c0 34 26 61 62 61s61 -27 61 -61c0 -35 -25 -62 -61 -62z" />
    <glyph glyph-name="uni01D7" unicode="&#x1d7;" horiz-adv-x="665" 
d="M334 -12c-169 0 -261 95 -261 314v350h148v-365c0 -128 40 -172 113 -172s115 44 115 172v365h142v-350c0 -219 -89 -314 -257 -314zM221 700c-36 0 -61 27 -61 62c0 34 25 61 61 61s62 -27 62 -61c0 -35 -26 -62 -62 -62zM277 864l95 145l92 -57l-124 -127zM443 700
c-36 0 -62 27 -62 62c0 34 26 61 62 61s61 -27 61 -61c0 -35 -25 -62 -61 -62z" />
    <glyph glyph-name="uni01D9" unicode="&#x1d9;" horiz-adv-x="665" 
d="M334 -12c-169 0 -261 95 -261 314v350h148v-365c0 -128 40 -172 113 -172s115 44 115 172v365h142v-350c0 -219 -89 -314 -257 -314zM269 854l-92 102l59 39l94 -73h4l94 73l59 -39l-92 -102h-126zM221 700c-36 0 -61 27 -61 62c0 34 25 61 61 61s62 -27 62 -61
c0 -35 -26 -62 -62 -62zM443 700c-36 0 -62 27 -62 62c0 34 26 61 62 61s61 -27 61 -61c0 -35 -25 -62 -61 -62z" />
    <glyph glyph-name="uni01DB" unicode="&#x1db;" horiz-adv-x="665" 
d="M334 -12c-169 0 -261 95 -261 314v350h148v-365c0 -128 40 -172 113 -172s115 44 115 172v365h142v-350c0 -219 -89 -314 -257 -314zM387 864l-63 -39l-124 127l92 57zM221 700c-36 0 -61 27 -61 62c0 34 25 61 61 61s62 -27 62 -61c0 -35 -26 -62 -62 -62zM443 700
c-36 0 -62 27 -62 62c0 34 26 61 62 61s61 -27 61 -61c0 -35 -25 -62 -61 -62z" />
    <glyph glyph-name="uni1EE4" unicode="&#x1ee4;" horiz-adv-x="665" 
d="M334 -12c-169 0 -261 95 -261 314v350h148v-365c0 -128 40 -172 113 -172s115 44 115 172v365h142v-350c0 -219 -89 -314 -257 -314zM332 -226c-48 0 -81 32 -81 77s33 77 81 77s81 -32 81 -77s-33 -77 -81 -77z" />
    <glyph glyph-name="uni1EE6" unicode="&#x1ee6;" horiz-adv-x="665" 
d="M334 -12c-169 0 -261 95 -261 314v350h148v-365c0 -128 40 -172 113 -172s115 44 115 172v365h142v-350c0 -219 -89 -314 -257 -314zM289 691l-12 58c25 5 45 12 45 30c0 19 -22 30 -80 34l17 73c124 -3 169 -38 169 -91c0 -69 -64 -98 -139 -104z" />
    <glyph glyph-name="Uogonek" unicode="&#x172;" horiz-adv-x="665" 
d="M357 -223c-64 0 -114 34 -114 94c0 62 46 103 64 119c-153 9 -234 107 -234 312v350h148v-365c0 -128 40 -172 113 -172s115 44 115 172v365h142v-350c0 -185 -52 -253 -170 -307c-50 -23 -71 -58 -71 -85c0 -26 21 -38 42 -38c13 0 26 7 36 14l34 -74
c-26 -20 -70 -35 -105 -35z" />
    <glyph glyph-name="Uhorn" unicode="&#x1af;" horiz-adv-x="683" 
d="M334 -12c-169 0 -261 95 -261 314v350h148v-365c0 -128 40 -172 113 -172s115 44 115 172v365h70c40 2 83 12 83 73c0 26 -8 50 -16 65l109 44c15 -22 30 -58 30 -98c0 -82 -51 -123 -134 -138v-296c0 -219 -89 -314 -257 -314z" />
    <glyph glyph-name="uni1EE8" unicode="&#x1ee8;" horiz-adv-x="683" 
d="M334 -12c-169 0 -261 95 -261 314v350h148v-365c0 -128 40 -172 113 -172s115 44 115 172v365h70c40 2 83 12 83 73c0 26 -8 50 -16 65l109 44c15 -22 30 -58 30 -98c0 -82 -51 -123 -134 -138v-296c0 -219 -89 -314 -257 -314zM322 680l-66 74l171 140l78 -95z" />
    <glyph glyph-name="uni1EEA" unicode="&#x1eea;" horiz-adv-x="683" 
d="M334 -12c-169 0 -261 95 -261 314v350h148v-365c0 -128 40 -172 113 -172s115 44 115 172v365h70c40 2 83 12 83 73c0 26 -8 50 -16 65l109 44c15 -22 30 -58 30 -98c0 -82 -51 -123 -134 -138v-296c0 -219 -89 -314 -257 -314zM342 680l-183 119l78 95l171 -140z" />
    <glyph glyph-name="uni1EEC" unicode="&#x1eec;" horiz-adv-x="683" 
d="M334 -12c-169 0 -261 95 -261 314v350h148v-365c0 -128 40 -172 113 -172s115 44 115 172v365h70c40 2 83 12 83 73c0 26 -8 50 -16 65l109 44c15 -22 30 -58 30 -98c0 -82 -51 -123 -134 -138v-296c0 -219 -89 -314 -257 -314zM289 691l-12 58c25 5 45 12 45 30
c0 19 -22 30 -80 34l17 73c124 -3 169 -38 169 -91c0 -69 -64 -98 -139 -104z" />
    <glyph glyph-name="uni1EEE" unicode="&#x1eee;" horiz-adv-x="683" 
d="M334 -12c-169 0 -261 95 -261 314v350h148v-365c0 -128 40 -172 113 -172s115 44 115 172v365h70c40 2 83 12 83 73c0 26 -8 50 -16 65l109 44c15 -22 30 -58 30 -98c0 -82 -51 -123 -134 -138v-296c0 -219 -89 -314 -257 -314zM403 692c-71 0 -104 58 -137 58
c-19 0 -33 -13 -37 -49l-95 7c5 101 57 144 127 144c71 0 104 -58 137 -58c19 0 33 13 37 49l95 -7c-5 -100 -57 -144 -127 -144z" />
    <glyph glyph-name="uni1EF0" unicode="&#x1ef0;" horiz-adv-x="683" 
d="M334 -12c-169 0 -261 95 -261 314v350h148v-365c0 -128 40 -172 113 -172s115 44 115 172v365h70c40 2 83 12 83 73c0 26 -8 50 -16 65l109 44c15 -22 30 -58 30 -98c0 -82 -51 -123 -134 -138v-296c0 -219 -89 -314 -257 -314zM332 -226c-48 0 -81 32 -81 77
s33 77 81 77s81 -32 81 -77s-33 -77 -81 -77z" />
    <glyph glyph-name="Wgrave" unicode="&#x1e80;" horiz-adv-x="813" 
d="M135 0l-121 652h151l45 -305c8 -68 18 -137 26 -206h4c13 69 26 138 39 206l70 305h125l70 -305c13 -66 26 -136 39 -206h4c9 70 18 139 27 206l45 305h141l-116 -652h-185l-64 296c-11 50 -19 103 -26 151h-4c-8 -48 -16 -101 -27 -151l-61 -296h-182zM417 680l-183 119
l78 95l171 -140z" />
    <glyph glyph-name="Wacute" unicode="&#x1e82;" horiz-adv-x="813" 
d="M135 0l-121 652h151l45 -305c8 -68 18 -137 26 -206h4c13 69 26 138 39 206l70 305h125l70 -305c13 -66 26 -136 39 -206h4c9 70 18 139 27 206l45 305h141l-116 -652h-185l-64 296c-11 50 -19 103 -26 151h-4c-8 -48 -16 -101 -27 -151l-61 -296h-182zM397 680l-66 74
l171 140l78 -95z" />
    <glyph glyph-name="Wcircumflex" unicode="&#x174;" horiz-adv-x="813" 
d="M135 0l-121 652h151l45 -305c8 -68 18 -137 26 -206h4c13 69 26 138 39 206l70 305h125l70 -305c13 -66 26 -136 39 -206h4c9 70 18 139 27 206l45 305h141l-116 -652h-185l-64 296c-11 50 -19 103 -26 151h-4c-8 -48 -16 -101 -27 -151l-61 -296h-182zM237 724l90 111
h160l90 -111l-64 -39l-104 84h-4l-104 -84z" />
    <glyph glyph-name="Wdieresis" unicode="&#x1e84;" horiz-adv-x="813" 
d="M135 0l-121 652h151l45 -305c8 -68 18 -137 26 -206h4c13 69 26 138 39 206l70 305h125l70 -305c13 -66 26 -136 39 -206h4c9 70 18 139 27 206l45 305h141l-116 -652h-185l-64 296c-11 50 -19 103 -26 151h-4c-8 -48 -16 -101 -27 -151l-61 -296h-182zM296 700
c-41 0 -70 30 -70 70s29 70 70 70s70 -30 70 -70s-29 -70 -70 -70zM518 700c-41 0 -70 30 -70 70s29 70 70 70s70 -30 70 -70s-29 -70 -70 -70z" />
    <glyph glyph-name="Ygrave" unicode="&#x1ef2;" horiz-adv-x="525" 
d="M189 0v232l-197 420h158l58 -150c18 -49 35 -94 53 -144h4c19 50 37 95 55 144l59 150h154l-197 -420v-232h-147zM272 680l-183 119l78 95l171 -140z" />
    <glyph glyph-name="Yacute" unicode="&#xdd;" horiz-adv-x="525" 
d="M189 0v232l-197 420h158l58 -150c18 -49 35 -94 53 -144h4c19 50 37 95 55 144l59 150h154l-197 -420v-232h-147zM252 680l-66 74l171 140l78 -95z" />
    <glyph glyph-name="Ycircumflex" unicode="&#x176;" horiz-adv-x="525" 
d="M189 0v232l-197 420h158l58 -150c18 -49 35 -94 53 -144h4c19 50 37 95 55 144l59 150h154l-197 -420v-232h-147zM92 724l90 111h160l90 -111l-64 -39l-104 84h-4l-104 -84z" />
    <glyph glyph-name="Ydieresis" unicode="&#x178;" horiz-adv-x="525" 
d="M189 0v232l-197 420h158l58 -150c18 -49 35 -94 53 -144h4c19 50 37 95 55 144l59 150h154l-197 -420v-232h-147zM151 700c-41 0 -70 30 -70 70s29 70 70 70s70 -30 70 -70s-29 -70 -70 -70zM373 700c-41 0 -70 30 -70 70s29 70 70 70s70 -30 70 -70s-29 -70 -70 -70z
" />
    <glyph glyph-name="uni1E8E" unicode="&#x1e8e;" horiz-adv-x="525" 
d="M189 0v232l-197 420h158l58 -150c18 -49 35 -94 53 -144h4c19 50 37 95 55 144l59 150h154l-197 -420v-232h-147zM262 701c-49 0 -85 32 -85 77s36 77 85 77s85 -32 85 -77s-36 -77 -85 -77z" />
    <glyph glyph-name="uni1EF4" unicode="&#x1ef4;" horiz-adv-x="525" 
d="M189 0v232l-197 420h158l58 -150c18 -49 35 -94 53 -144h4c19 50 37 95 55 144l59 150h154l-197 -420v-232h-147zM264 -226c-48 0 -81 32 -81 77s33 77 81 77s81 -32 81 -77s-33 -77 -81 -77z" />
    <glyph glyph-name="uni1EF6" unicode="&#x1ef6;" horiz-adv-x="525" 
d="M189 0v232l-197 420h158l58 -150c18 -49 35 -94 53 -144h4c19 50 37 95 55 144l59 150h154l-197 -420v-232h-147zM219 691l-12 58c25 5 45 12 45 30c0 19 -22 30 -80 34l17 73c124 -3 169 -38 169 -91c0 -69 -64 -98 -139 -104z" />
    <glyph glyph-name="uni1EF8" unicode="&#x1ef8;" horiz-adv-x="525" 
d="M189 0v232l-197 420h158l58 -150c18 -49 35 -94 53 -144h4c19 50 37 95 55 144l59 150h154l-197 -420v-232h-147zM333 692c-71 0 -104 58 -137 58c-19 0 -33 -13 -37 -49l-95 7c5 101 57 144 127 144c71 0 104 -58 137 -58c19 0 33 13 37 49l95 -7
c-5 -100 -57 -144 -127 -144z" />
    <glyph glyph-name="Zacute" unicode="&#x179;" horiz-adv-x="541" 
d="M36 0v89l288 439h-261v124h442v-89l-288 -439h291v-124h-472zM273 680l-66 74l171 140l78 -95z" />
    <glyph glyph-name="Zcaron" unicode="&#x17d;" horiz-adv-x="541" 
d="M36 0v89l288 439h-261v124h442v-89l-288 -439h291v-124h-472zM203 702l-90 110l64 40l104 -84h4l104 84l64 -40l-90 -110h-160z" />
    <glyph glyph-name="Zdotaccent" unicode="&#x17b;" horiz-adv-x="541" 
d="M36 0v89l288 439h-261v124h442v-89l-288 -439h291v-124h-472zM283 701c-49 0 -85 32 -85 77s36 77 85 77s85 -32 85 -77s-36 -77 -85 -77z" />
    <glyph glyph-name="uni1E92" unicode="&#x1e92;" horiz-adv-x="541" 
d="M36 0v89l288 439h-261v124h442v-89l-288 -439h291v-124h-472zM282 -226c-48 0 -81 32 -81 77s33 77 81 77s81 -32 81 -77s-33 -77 -81 -77z" />
    <glyph glyph-name="uni1E94" unicode="&#x1e94;" horiz-adv-x="541" 
d="M36 0v89l288 439h-261v124h442v-89l-288 -439h291v-124h-472zM134 -188v93h296v-93h-296z" />
    <glyph glyph-name="Eth" unicode="&#xd0;" horiz-adv-x="660" 
d="M26 301v66l76 5v280h184c199 0 327 -99 327 -323s-128 -329 -319 -329h-192v301h-76zM249 119h28c111 0 185 54 185 210s-74 204 -185 204h-28v-161h125v-71h-125v-182z" />
    <glyph glyph-name="Thorn" unicode="&#xde;" horiz-adv-x="617" 
d="M77 0v652h147v-99h91c141 0 255 -51 255 -209c0 -154 -117 -221 -255 -221h-91v-123h-147zM224 240h82c81 0 120 36 120 104s-42 92 -120 92h-82v-196z" />
    <glyph glyph-name="uni018F" unicode="&#x18f;" horiz-adv-x="675" 
d="M336 -12c-175 0 -285 117 -285 335c0 15 1 32 3 49h427c-10 117 -63 171 -158 171c-62 0 -108 -29 -143 -61l-67 101c51 47 126 81 227 81c172 0 289 -116 289 -337s-117 -339 -293 -339zM336 108c76 0 129 48 143 156h-278c8 -109 58 -156 135 -156z" />
    <glyph glyph-name="uni014A" unicode="&#x14a;" horiz-adv-x="666" 
d="M412 -12c-31 0 -70 6 -90 19l32 127c11 -5 24 -9 41 -9c40 0 74 37 74 206c0 150 -44 206 -117 206c-41 0 -95 -29 -128 -82v-455h-147v652h142v-70c50 53 110 82 177 82c128 0 224 -90 224 -333c0 -232 -66 -343 -208 -343z" />
    <glyph glyph-name="uni0132" unicode="&#x132;" horiz-adv-x="602" 
d="M77 0v652h147v-652h-147zM348 -182c-41 0 -67 6 -88 14l27 109c13 -4 25 -7 38 -7c40 0 53 25 53 80v638h148v-634c0 -109 -43 -200 -178 -200z" />
    <glyph glyph-name="agrave" unicode="&#xe0;" horiz-adv-x="527" 
d="M190 -12c-91 0 -148 66 -148 150c0 104 83 161 279 181c-3 44 -24 72 -78 72c-42 0 -83 -17 -131 -45l-53 97c63 38 134 65 212 65c127 0 197 -72 197 -224v-284h-120l-10 51h-4c-42 -37 -88 -63 -144 -63zM240 102c33 0 55 16 81 42v87c-104 -14 -138 -44 -138 -82
c0 -32 22 -47 57 -47zM266 572l-181 157l99 97l154 -182z" />
    <glyph glyph-name="aacute" unicode="&#xe1;" horiz-adv-x="527" 
d="M190 -12c-91 0 -148 66 -148 150c0 104 83 161 279 181c-3 44 -24 72 -78 72c-42 0 -83 -17 -131 -45l-53 97c63 38 134 65 212 65c127 0 197 -72 197 -224v-284h-120l-10 51h-4c-42 -37 -88 -63 -144 -63zM240 102c33 0 55 16 81 42v87c-104 -14 -138 -44 -138 -82
c0 -32 22 -47 57 -47zM286 572l-72 72l154 182l99 -97z" />
    <glyph glyph-name="acircumflex" unicode="&#xe2;" horiz-adv-x="527" 
d="M190 -12c-91 0 -148 66 -148 150c0 104 83 161 279 181c-3 44 -24 72 -78 72c-42 0 -83 -17 -131 -45l-53 97c63 38 134 65 212 65c127 0 197 -72 197 -224v-284h-120l-10 51h-4c-42 -37 -88 -63 -144 -63zM240 102c33 0 55 16 81 42v87c-104 -14 -138 -44 -138 -82
c0 -32 22 -47 57 -47zM93 613l108 131h150l108 -131l-56 -52l-125 92h-4l-125 -92z" />
    <glyph glyph-name="atilde" unicode="&#xe3;" horiz-adv-x="527" 
d="M190 -12c-91 0 -148 66 -148 150c0 104 83 161 279 181c-3 44 -24 72 -78 72c-42 0 -83 -17 -131 -45l-53 97c63 38 134 65 212 65c127 0 197 -72 197 -224v-284h-120l-10 51h-4c-42 -37 -88 -63 -144 -63zM240 102c33 0 55 16 81 42v87c-104 -14 -138 -44 -138 -82
c0 -32 22 -47 57 -47zM342 573c-63 0 -98 64 -129 64c-20 0 -31 -16 -35 -55l-92 5c3 103 47 152 124 152c63 0 98 -64 129 -64c20 0 31 17 35 55l92 -5c-3 -103 -47 -152 -124 -152z" />
    <glyph glyph-name="adieresis" unicode="&#xe4;" horiz-adv-x="527" 
d="M190 -12c-91 0 -148 66 -148 150c0 104 83 161 279 181c-3 44 -24 72 -78 72c-42 0 -83 -17 -131 -45l-53 97c63 38 134 65 212 65c127 0 197 -72 197 -224v-284h-120l-10 51h-4c-42 -37 -88 -63 -144 -63zM240 102c33 0 55 16 81 42v87c-104 -14 -138 -44 -138 -82
c0 -32 22 -47 57 -47zM167 569c-42 0 -72 31 -72 72c0 40 30 71 72 71s71 -31 71 -71c0 -41 -29 -72 -71 -72zM385 569c-42 0 -71 31 -71 72c0 40 29 71 71 71s72 -31 72 -71c0 -41 -30 -72 -72 -72z" />
    <glyph glyph-name="amacron" unicode="&#x101;" horiz-adv-x="527" 
d="M190 -12c-91 0 -148 66 -148 150c0 104 83 161 279 181c-3 44 -24 72 -78 72c-42 0 -83 -17 -131 -45l-53 97c63 38 134 65 212 65c127 0 197 -72 197 -224v-284h-120l-10 51h-4c-42 -37 -88 -63 -144 -63zM240 102c33 0 55 16 81 42v87c-104 -14 -138 -44 -138 -82
c0 -32 22 -47 57 -47zM128 592v93h296v-93h-296z" />
    <glyph glyph-name="abreve" unicode="&#x103;" horiz-adv-x="527" 
d="M190 -12c-91 0 -148 66 -148 150c0 104 83 161 279 181c-3 44 -24 72 -78 72c-42 0 -83 -17 -131 -45l-53 97c63 38 134 65 212 65c127 0 197 -72 197 -224v-284h-120l-10 51h-4c-42 -37 -88 -63 -144 -63zM240 102c33 0 55 16 81 42v87c-104 -14 -138 -44 -138 -82
c0 -32 22 -47 57 -47zM276 572c-114 0 -166 69 -169 157l84 14c6 -43 32 -79 85 -79s79 36 85 79l84 -14c-3 -88 -54 -157 -169 -157z" />
    <glyph glyph-name="aring" unicode="&#xe5;" horiz-adv-x="527" 
d="M190 -12c-91 0 -148 66 -148 150c0 104 83 161 279 181c-3 44 -24 72 -78 72c-42 0 -83 -17 -131 -45l-53 97c63 38 134 65 212 65c127 0 197 -72 197 -224v-284h-120l-10 51h-4c-42 -37 -88 -63 -144 -63zM240 102c33 0 55 16 81 42v87c-104 -14 -138 -44 -138 -82
c0 -32 22 -47 57 -47zM276 564c-87 0 -132 46 -132 104s45 104 132 104s132 -46 132 -104s-45 -104 -132 -104zM276 619c24 0 43 20 43 49s-19 49 -43 49s-43 -20 -43 -49s19 -49 43 -49z" />
    <glyph glyph-name="uni01CE" unicode="&#x1ce;" horiz-adv-x="527" 
d="M190 -12c-91 0 -148 66 -148 150c0 104 83 161 279 181c-3 44 -24 72 -78 72c-42 0 -83 -17 -131 -45l-53 97c63 38 134 65 212 65c127 0 197 -72 197 -224v-284h-120l-10 51h-4c-42 -37 -88 -63 -144 -63zM240 102c33 0 55 16 81 42v87c-104 -14 -138 -44 -138 -82
c0 -32 22 -47 57 -47zM201 577l-108 131l56 52l125 -92h4l125 92l56 -52l-108 -131h-150z" />
    <glyph glyph-name="uni1EA1" unicode="&#x1ea1;" horiz-adv-x="527" 
d="M190 -12c-91 0 -148 66 -148 150c0 104 83 161 279 181c-3 44 -24 72 -78 72c-42 0 -83 -17 -131 -45l-53 97c63 38 134 65 212 65c127 0 197 -72 197 -224v-284h-120l-10 51h-4c-42 -37 -88 -63 -144 -63zM240 102c33 0 55 16 81 42v87c-104 -14 -138 -44 -138 -82
c0 -32 22 -47 57 -47zM259 -226c-48 0 -81 32 -81 77s33 77 81 77s81 -32 81 -77s-33 -77 -81 -77z" />
    <glyph glyph-name="uni1EA3" unicode="&#x1ea3;" horiz-adv-x="527" 
d="M190 -12c-91 0 -148 66 -148 150c0 104 83 161 279 181c-3 44 -24 72 -78 72c-42 0 -83 -17 -131 -45l-53 97c63 38 134 65 212 65c127 0 197 -72 197 -224v-284h-120l-10 51h-4c-42 -37 -88 -63 -144 -63zM240 102c33 0 55 16 81 42v87c-104 -14 -138 -44 -138 -82
c0 -32 22 -47 57 -47zM233 568l-12 58c25 5 45 14 45 35c0 24 -22 38 -80 42l9 90c131 -3 178 -51 178 -121c0 -68 -65 -98 -140 -104z" />
    <glyph glyph-name="uni1EA5" unicode="&#x1ea5;" horiz-adv-x="527" 
d="M190 -12c-91 0 -148 66 -148 150c0 104 83 161 279 181c-3 44 -24 72 -78 72c-42 0 -83 -17 -131 -45l-53 97c63 38 134 65 212 65c127 0 197 -72 197 -224v-284h-120l-10 51h-4c-42 -37 -88 -63 -144 -63zM240 102c33 0 55 16 81 42v87c-104 -14 -138 -44 -138 -82
c0 -32 22 -47 57 -47zM172 566l-47 52l93 92h116l93 -92l-47 -52l-102 65h-4zM396 682l79 127l78 -51l-101 -120z" />
    <glyph glyph-name="uni1EA7" unicode="&#x1ea7;" horiz-adv-x="527" 
d="M190 -12c-91 0 -148 66 -148 150c0 104 83 161 279 181c-3 44 -24 72 -78 72c-42 0 -83 -17 -131 -45l-53 97c63 38 134 65 212 65c127 0 197 -72 197 -224v-284h-120l-10 51h-4c-42 -37 -88 -63 -144 -63zM240 102c33 0 55 16 81 42v87c-104 -14 -138 -44 -138 -82
c0 -32 22 -47 57 -47zM172 566l-47 52l93 92h116l93 -92l-47 -52l-102 65h-4zM156 682l-56 -44l-105 119l78 52z" />
    <glyph glyph-name="uni1EA9" unicode="&#x1ea9;" horiz-adv-x="527" 
d="M190 -12c-91 0 -148 66 -148 150c0 104 83 161 279 181c-3 44 -24 72 -78 72c-42 0 -83 -17 -131 -45l-53 97c63 38 134 65 212 65c127 0 197 -72 197 -224v-284h-120l-10 51h-4c-42 -37 -88 -63 -144 -63zM240 102c33 0 55 16 81 42v87c-104 -14 -138 -44 -138 -82
c0 -32 22 -47 57 -47zM172 566l-47 52l93 92h116l93 -92l-47 -52l-102 65h-4zM414 644l-10 50c18 5 30 11 30 29c0 19 -14 29 -65 33l14 62c109 -4 147 -33 147 -80c0 -65 -53 -85 -116 -94z" />
    <glyph glyph-name="uni1EAB" unicode="&#x1eab;" horiz-adv-x="527" 
d="M190 -12c-91 0 -148 66 -148 150c0 104 83 161 279 181c-3 44 -24 72 -78 72c-42 0 -83 -17 -131 -45l-53 97c63 38 134 65 212 65c127 0 197 -72 197 -224v-284h-120l-10 51h-4c-42 -37 -88 -63 -144 -63zM240 102c33 0 55 16 81 42v87c-104 -14 -138 -44 -138 -82
c0 -32 22 -47 57 -47zM172 566l-47 52l93 84h116l93 -84l-47 -52l-102 56h-4zM128 727c8 76 39 111 90 111c55 0 79 -42 108 -42c16 0 25 11 31 38l67 -7c-8 -76 -39 -111 -90 -111c-55 0 -79 42 -108 42c-16 0 -25 -11 -31 -38z" />
    <glyph glyph-name="uni1EAD" unicode="&#x1ead;" horiz-adv-x="527" 
d="M190 -12c-91 0 -148 66 -148 150c0 104 83 161 279 181c-3 44 -24 72 -78 72c-42 0 -83 -17 -131 -45l-53 97c63 38 134 65 212 65c127 0 197 -72 197 -224v-284h-120l-10 51h-4c-42 -37 -88 -63 -144 -63zM240 102c33 0 55 16 81 42v87c-104 -14 -138 -44 -138 -82
c0 -32 22 -47 57 -47zM93 613l108 131h150l108 -131l-56 -52l-125 92h-4l-125 -92zM259 -226c-48 0 -81 32 -81 77s33 77 81 77s81 -32 81 -77s-33 -77 -81 -77z" />
    <glyph glyph-name="uni1EAF" unicode="&#x1eaf;" horiz-adv-x="527" 
d="M190 -12c-91 0 -148 66 -148 150c0 104 83 161 279 181c-3 44 -24 72 -78 72c-42 0 -83 -17 -131 -45l-53 97c63 38 134 65 212 65c127 0 197 -72 197 -224v-284h-120l-10 51h-4c-42 -37 -88 -63 -144 -63zM240 102c33 0 55 16 81 42v87c-104 -14 -138 -44 -138 -82
c0 -32 22 -47 57 -47zM285 699l-64 44l93 141l87 -65zM276 572c-114 0 -166 69 -169 157l75 14c8 -48 36 -88 94 -88s86 40 94 88l75 -14c-3 -88 -54 -157 -169 -157z" />
    <glyph glyph-name="uni1EB1" unicode="&#x1eb1;" horiz-adv-x="527" 
d="M190 -12c-91 0 -148 66 -148 150c0 104 83 161 279 181c-3 44 -24 72 -78 72c-42 0 -83 -17 -131 -45l-53 97c63 38 134 65 212 65c127 0 197 -72 197 -224v-284h-120l-10 51h-4c-42 -37 -88 -63 -144 -63zM240 102c33 0 55 16 81 42v87c-104 -14 -138 -44 -138 -82
c0 -32 22 -47 57 -47zM267 699l-116 120l87 65l93 -141zM276 572c-114 0 -166 69 -169 157l75 14c8 -48 36 -88 94 -88s86 40 94 88l75 -14c-3 -88 -54 -157 -169 -157z" />
    <glyph glyph-name="uni1EB3" unicode="&#x1eb3;" horiz-adv-x="527" 
d="M190 -12c-91 0 -148 66 -148 150c0 104 83 161 279 181c-3 44 -24 72 -78 72c-42 0 -83 -17 -131 -45l-53 97c63 38 134 65 212 65c127 0 197 -72 197 -224v-284h-120l-10 51h-4c-42 -37 -88 -63 -144 -63zM240 102c33 0 55 16 81 42v87c-104 -14 -138 -44 -138 -82
c0 -32 22 -47 57 -47zM241 697l-9 51c19 3 32 10 32 28c0 19 -16 29 -68 33l14 80c111 -4 150 -41 150 -98c0 -65 -54 -86 -119 -94zM276 572c-114 0 -166 69 -169 157l75 14c8 -48 36 -88 94 -88s86 40 94 88l75 -14c-3 -88 -54 -157 -169 -157z" />
    <glyph glyph-name="uni1EB5" unicode="&#x1eb5;" horiz-adv-x="527" 
d="M190 -12c-91 0 -148 66 -148 150c0 104 83 161 279 181c-3 44 -24 72 -78 72c-42 0 -83 -17 -131 -45l-53 97c63 38 134 65 212 65c127 0 197 -72 197 -224v-284h-120l-10 51h-4c-42 -37 -88 -63 -144 -63zM240 102c33 0 55 16 81 42v87c-104 -14 -138 -44 -138 -82
c0 -32 22 -47 57 -47zM276 572c-104 0 -148 53 -154 113l72 12c7 -26 29 -52 82 -52s75 26 82 52l72 -12c-6 -60 -50 -113 -154 -113zM120 725c8 77 43 112 98 112s79 -42 108 -42c16 0 25 11 31 37l75 -7c-8 -76 -43 -111 -98 -111s-79 42 -108 42c-16 0 -25 -11 -31 -38z
" />
    <glyph glyph-name="uni1EB7" unicode="&#x1eb7;" horiz-adv-x="527" 
d="M190 -12c-91 0 -148 66 -148 150c0 104 83 161 279 181c-3 44 -24 72 -78 72c-42 0 -83 -17 -131 -45l-53 97c63 38 134 65 212 65c127 0 197 -72 197 -224v-284h-120l-10 51h-4c-42 -37 -88 -63 -144 -63zM240 102c33 0 55 16 81 42v87c-104 -14 -138 -44 -138 -82
c0 -32 22 -47 57 -47zM276 572c-114 0 -166 69 -169 157l84 14c6 -43 32 -79 85 -79s79 36 85 79l84 -14c-3 -88 -54 -157 -169 -157zM259 -226c-48 0 -81 32 -81 77s33 77 81 77s81 -32 81 -77s-33 -77 -81 -77z" />
    <glyph glyph-name="aogonek" unicode="&#x105;" horiz-adv-x="527" 
d="M387 -210c-58 0 -106 31 -106 91c0 59 44 100 69 117l-12 53h-4c-42 -37 -88 -63 -144 -63c-91 0 -148 66 -148 149c0 105 83 162 279 182c-3 44 -24 72 -78 72c-42 0 -83 -17 -131 -45l-53 97c63 38 134 65 212 65c127 0 197 -72 197 -224v-284c-64 -18 -87 -55 -87 -85
c0 -27 20 -38 41 -38c13 0 27 6 36 12l31 -66c-26 -20 -70 -33 -102 -33zM240 102c33 0 55 16 81 42v87c-104 -14 -138 -44 -138 -82c0 -32 22 -47 57 -47z" />
    <glyph glyph-name="ae" unicode="&#xe6;" horiz-adv-x="786" 
d="M194 -12c-90 0 -147 66 -147 149c0 105 81 163 276 183c-3 43 -22 71 -77 71c-40 0 -82 -17 -130 -45l-52 97c63 38 131 65 203 65c61 0 109 -28 138 -75c42 48 88 75 147 75c131 0 197 -106 197 -241c0 -27 -3 -50 -6 -62h-286c11 -69 59 -102 119 -102
c37 0 69 15 105 36l50 -95c-51 -35 -117 -56 -175 -56c-74 0 -129 31 -171 77c-70 -56 -125 -77 -191 -77zM244 102c34 0 66 16 93 42c-7 20 -12 44 -14 66l-1 21c-97 -14 -135 -43 -135 -82c0 -32 22 -47 57 -47zM457 295h167c0 60 -23 101 -77 101c-46 0 -82 -32 -90 -101
z" />
    <glyph glyph-name="uni01FD" unicode="&#x1fd;" horiz-adv-x="786" 
d="M194 -12c-90 0 -147 66 -147 149c0 105 81 163 276 183c-3 43 -22 71 -77 71c-40 0 -82 -17 -130 -45l-52 97c63 38 131 65 203 65c61 0 109 -28 138 -75c42 48 88 75 147 75c131 0 197 -106 197 -241c0 -27 -3 -50 -6 -62h-286c11 -69 59 -102 119 -102
c37 0 69 15 105 36l50 -95c-51 -35 -117 -56 -175 -56c-74 0 -129 31 -171 77c-70 -56 -125 -77 -191 -77zM244 102c34 0 66 16 93 42c-7 20 -12 44 -14 66l-1 21c-97 -14 -135 -43 -135 -82c0 -32 22 -47 57 -47zM457 295h167c0 60 -23 101 -77 101c-46 0 -82 -32 -90 -101
zM421 572l-72 72l154 182l99 -97z" />
    <glyph glyph-name="uni01E3" unicode="&#x1e3;" horiz-adv-x="786" 
d="M194 -12c-90 0 -147 66 -147 149c0 105 81 163 276 183c-3 43 -22 71 -77 71c-40 0 -82 -17 -130 -45l-52 97c63 38 131 65 203 65c61 0 109 -28 138 -75c42 48 88 75 147 75c131 0 197 -106 197 -241c0 -27 -3 -50 -6 -62h-286c11 -69 59 -102 119 -102
c37 0 69 15 105 36l50 -95c-51 -35 -117 -56 -175 -56c-74 0 -129 31 -171 77c-70 -56 -125 -77 -191 -77zM244 102c34 0 66 16 93 42c-7 20 -12 44 -14 66l-1 21c-97 -14 -135 -43 -135 -82c0 -32 22 -47 57 -47zM457 295h167c0 60 -23 101 -77 101c-46 0 -82 -32 -90 -101
zM263 592v93h296v-93h-296z" />
    <glyph glyph-name="uni0180" unicode="&#x180;" horiz-adv-x="571" 
d="M325 -12c-44 0 -90 22 -129 65h-4l-12 -53h-115v556h-68v65l68 5v75h147v-74h169v-71h-169v-75l-4 -76c38 33 85 55 131 55c120 0 195 -92 195 -226c0 -153 -102 -246 -209 -246zM291 108c51 0 92 42 92 124c0 67 -27 107 -86 107c-30 0 -57 -13 -85 -44v-155
c26 -24 54 -32 79 -32z" />
    <glyph glyph-name="uni1E07" unicode="&#x1e07;" horiz-adv-x="573" 
d="M325 -12c-44 0 -90 22 -129 65h-4l-12 -53h-115v701h147v-172l-4 -76c38 34 85 55 131 55c120 0 195 -99 195 -251c0 -171 -102 -269 -209 -269zM291 108c51 0 92 44 92 146c0 89 -27 134 -86 134c-30 0 -57 -14 -85 -45v-203c26 -24 54 -32 79 -32zM145 -188v93h296v-93
h-296z" />
    <glyph glyph-name="ccedilla" unicode="&#xe7;" horiz-adv-x="467" 
d="M181 -239l-11 59c78 4 103 16 103 44c0 20 -16 34 -77 42l42 85c-117 18 -202 110 -202 257c0 165 121 260 258 260c61 0 108 -22 145 -53l-69 -95c-24 20 -44 29 -67 29c-71 0 -116 -55 -116 -141s47 -141 111 -141c32 0 63 16 89 36l58 -96c-36 -32 -79 -49 -120 -55
l-23 -53c50 -12 76 -33 76 -75c0 -68 -72 -99 -197 -103z" />
    <glyph glyph-name="cacute" unicode="&#x107;" horiz-adv-x="467" 
d="M281 -12c-138 0 -245 95 -245 260s121 260 258 260c61 0 108 -22 145 -53l-69 -95c-24 20 -44 29 -67 29c-71 0 -116 -55 -116 -141s47 -141 111 -141c32 0 63 16 89 36l58 -96c-49 -43 -110 -59 -164 -59zM300 572l-72 72l154 182l99 -97z" />
    <glyph glyph-name="ccircumflex" unicode="&#x109;" horiz-adv-x="467" 
d="M281 -12c-138 0 -245 95 -245 260s121 260 258 260c61 0 108 -22 145 -53l-69 -95c-24 20 -44 29 -67 29c-71 0 -116 -55 -116 -141s47 -141 111 -141c32 0 63 16 89 36l58 -96c-49 -43 -110 -59 -164 -59zM107 613l108 131h150l108 -131l-56 -52l-125 92h-4l-125 -92z
" />
    <glyph glyph-name="ccaron" unicode="&#x10d;" horiz-adv-x="467" 
d="M281 -12c-138 0 -245 95 -245 260s121 260 258 260c61 0 108 -22 145 -53l-69 -95c-24 20 -44 29 -67 29c-71 0 -116 -55 -116 -141s47 -141 111 -141c32 0 63 16 89 36l58 -96c-49 -43 -110 -59 -164 -59zM215 577l-108 131l56 52l125 -92h4l125 92l56 -52l-108 -131
h-150z" />
    <glyph glyph-name="cdotaccent" unicode="&#x10b;" horiz-adv-x="467" 
d="M281 -12c-138 0 -245 95 -245 260s121 260 258 260c61 0 108 -22 145 -53l-69 -95c-24 20 -44 29 -67 29c-71 0 -116 -55 -116 -141s47 -141 111 -141c32 0 63 16 89 36l58 -96c-49 -43 -110 -59 -164 -59zM290 569c-48 0 -81 32 -81 77s33 77 81 77s81 -32 81 -77
s-33 -77 -81 -77z" />
    <glyph glyph-name="dcaron" unicode="&#x10f;" horiz-adv-x="614" 
d="M242 -12c-123 0 -203 98 -203 260s101 260 206 260c55 0 88 -20 122 -52l-6 76v169h147v-701h-120l-10 49h-4c-35 -35 -84 -61 -132 -61zM280 108c32 0 57 12 81 45v203c-26 24 -55 32 -82 32c-47 0 -89 -44 -89 -138c0 -98 33 -142 90 -142zM552 548l-6 222h95l-2 -69
l-24 -153h-63z" />
    <glyph glyph-name="uni1E0D" unicode="&#x1e0d;" horiz-adv-x="573" 
d="M242 -12c-123 0 -203 98 -203 260s101 260 206 260c55 0 88 -20 122 -52l-6 76v169h147v-701h-120l-10 49h-4c-35 -35 -84 -61 -132 -61zM280 108c32 0 57 12 81 45v203c-26 24 -55 32 -82 32c-47 0 -89 -44 -89 -138c0 -98 33 -142 90 -142zM312 -226
c-48 0 -81 32 -81 77s33 77 81 77s81 -32 81 -77s-33 -77 -81 -77z" />
    <glyph glyph-name="uni1E0F" unicode="&#x1e0f;" horiz-adv-x="573" 
d="M242 -12c-123 0 -203 98 -203 260s101 260 206 260c55 0 88 -20 122 -52l-6 76v169h147v-701h-120l-10 49h-4c-35 -35 -84 -61 -132 -61zM280 108c32 0 57 12 81 45v203c-26 24 -55 32 -82 32c-47 0 -89 -44 -89 -138c0 -98 33 -142 90 -142zM164 -188v93h296v-93h-296z
" />
    <glyph glyph-name="dcroat" unicode="&#x111;" horiz-adv-x="573" 
d="M242 -12c-123 0 -203 94 -203 237c0 141 101 235 206 235c55 0 88 -21 122 -52l-6 75v73h-149v71h149v74h147v-74h68v-65l-68 -5v-557h-123l-9 44h-4c-34 -33 -80 -56 -130 -56zM280 108c32 0 57 12 81 45v155c-26 23 -55 31 -82 31c-47 0 -89 -39 -89 -112
c0 -78 33 -119 90 -119z" />
    <glyph glyph-name="egrave" unicode="&#xe8;" horiz-adv-x="518" 
d="M287 -12c-142 0 -251 96 -251 260c0 161 115 260 234 260c141 0 211 -103 211 -238c0 -26 -3 -53 -6 -65h-297c13 -72 63 -105 129 -105c37 0 71 11 107 33l49 -89c-51 -35 -117 -56 -176 -56zM177 302h179c0 55 -24 94 -83 94c-46 0 -86 -31 -96 -94zM260 572l-181 157
l99 97l154 -182z" />
    <glyph glyph-name="eacute" unicode="&#xe9;" horiz-adv-x="518" 
d="M287 -12c-142 0 -251 96 -251 260c0 161 115 260 234 260c141 0 211 -103 211 -238c0 -26 -3 -53 -6 -65h-297c13 -72 63 -105 129 -105c37 0 71 11 107 33l49 -89c-51 -35 -117 -56 -176 -56zM177 302h179c0 55 -24 94 -83 94c-46 0 -86 -31 -96 -94zM280 572l-72 72
l154 182l99 -97z" />
    <glyph glyph-name="ecircumflex" unicode="&#xea;" horiz-adv-x="518" 
d="M287 -12c-142 0 -251 96 -251 260c0 161 115 260 234 260c141 0 211 -103 211 -238c0 -26 -3 -53 -6 -65h-297c13 -72 63 -105 129 -105c37 0 71 11 107 33l49 -89c-51 -35 -117 -56 -176 -56zM177 302h179c0 55 -24 94 -83 94c-46 0 -86 -31 -96 -94zM87 613l108 131
h150l108 -131l-56 -52l-125 92h-4l-125 -92z" />
    <glyph glyph-name="ecaron" unicode="&#x11b;" horiz-adv-x="518" 
d="M287 -12c-142 0 -251 96 -251 260c0 161 115 260 234 260c141 0 211 -103 211 -238c0 -26 -3 -53 -6 -65h-297c13 -72 63 -105 129 -105c37 0 71 11 107 33l49 -89c-51 -35 -117 -56 -176 -56zM177 302h179c0 55 -24 94 -83 94c-46 0 -86 -31 -96 -94zM195 577l-108 131
l56 52l125 -92h4l125 92l56 -52l-108 -131h-150z" />
    <glyph glyph-name="edieresis" unicode="&#xeb;" horiz-adv-x="518" 
d="M287 -12c-142 0 -251 96 -251 260c0 161 115 260 234 260c141 0 211 -103 211 -238c0 -26 -3 -53 -6 -65h-297c13 -72 63 -105 129 -105c37 0 71 11 107 33l49 -89c-51 -35 -117 -56 -176 -56zM177 302h179c0 55 -24 94 -83 94c-46 0 -86 -31 -96 -94zM161 569
c-42 0 -72 31 -72 72c0 40 30 71 72 71s71 -31 71 -71c0 -41 -29 -72 -71 -72zM379 569c-42 0 -71 31 -71 72c0 40 29 71 71 71s72 -31 72 -71c0 -41 -30 -72 -72 -72z" />
    <glyph glyph-name="emacron" unicode="&#x113;" horiz-adv-x="518" 
d="M287 -12c-142 0 -251 96 -251 260c0 161 115 260 234 260c141 0 211 -103 211 -238c0 -26 -3 -53 -6 -65h-297c13 -72 63 -105 129 -105c37 0 71 11 107 33l49 -89c-51 -35 -117 -56 -176 -56zM177 302h179c0 55 -24 94 -83 94c-46 0 -86 -31 -96 -94zM122 592v93h296
v-93h-296z" />
    <glyph glyph-name="ebreve" unicode="&#x115;" horiz-adv-x="518" 
d="M287 -12c-142 0 -251 96 -251 260c0 161 115 260 234 260c141 0 211 -103 211 -238c0 -26 -3 -53 -6 -65h-297c13 -72 63 -105 129 -105c37 0 71 11 107 33l49 -89c-51 -35 -117 -56 -176 -56zM177 302h179c0 55 -24 94 -83 94c-46 0 -86 -31 -96 -94zM270 572
c-114 0 -166 69 -169 157l84 14c6 -43 32 -79 85 -79s79 36 85 79l84 -14c-3 -88 -54 -157 -169 -157z" />
    <glyph glyph-name="edotaccent" unicode="&#x117;" horiz-adv-x="518" 
d="M287 -12c-142 0 -251 96 -251 260c0 161 115 260 234 260c141 0 211 -103 211 -238c0 -26 -3 -53 -6 -65h-297c13 -72 63 -105 129 -105c37 0 71 11 107 33l49 -89c-51 -35 -117 -56 -176 -56zM177 302h179c0 55 -24 94 -83 94c-46 0 -86 -31 -96 -94zM270 569
c-48 0 -81 32 -81 77s33 77 81 77s81 -32 81 -77s-33 -77 -81 -77z" />
    <glyph glyph-name="uni1EB9" unicode="&#x1eb9;" horiz-adv-x="518" 
d="M287 -12c-142 0 -251 96 -251 260c0 161 115 260 234 260c141 0 211 -103 211 -238c0 -26 -3 -53 -6 -65h-297c13 -72 63 -105 129 -105c37 0 71 11 107 33l49 -89c-51 -35 -117 -56 -176 -56zM177 302h179c0 55 -24 94 -83 94c-46 0 -86 -31 -96 -94zM269 -226
c-48 0 -81 32 -81 77s33 77 81 77s81 -32 81 -77s-33 -77 -81 -77z" />
    <glyph glyph-name="uni1EBB" unicode="&#x1ebb;" horiz-adv-x="518" 
d="M287 -12c-142 0 -251 96 -251 260c0 161 115 260 234 260c141 0 211 -103 211 -238c0 -26 -3 -53 -6 -65h-297c13 -72 63 -105 129 -105c37 0 71 11 107 33l49 -89c-51 -35 -117 -56 -176 -56zM177 302h179c0 55 -24 94 -83 94c-46 0 -86 -31 -96 -94zM227 568l-12 58
c25 5 45 14 45 35c0 24 -22 38 -80 42l9 90c131 -3 178 -51 178 -121c0 -68 -65 -98 -140 -104z" />
    <glyph glyph-name="uni1EBD" unicode="&#x1ebd;" horiz-adv-x="518" 
d="M287 -12c-142 0 -251 96 -251 260c0 161 115 260 234 260c141 0 211 -103 211 -238c0 -26 -3 -53 -6 -65h-297c13 -72 63 -105 129 -105c37 0 71 11 107 33l49 -89c-51 -35 -117 -56 -176 -56zM177 302h179c0 55 -24 94 -83 94c-46 0 -86 -31 -96 -94zM336 573
c-63 0 -98 64 -129 64c-20 0 -31 -16 -35 -55l-92 5c3 103 47 152 124 152c63 0 98 -64 129 -64c20 0 31 17 35 55l92 -5c-3 -103 -47 -152 -124 -152z" />
    <glyph glyph-name="uni1EBF" unicode="&#x1ebf;" horiz-adv-x="518" 
d="M287 -12c-142 0 -251 96 -251 260c0 161 115 260 234 260c141 0 211 -103 211 -238c0 -26 -3 -53 -6 -65h-297c13 -72 63 -105 129 -105c37 0 71 11 107 33l49 -89c-51 -35 -117 -56 -176 -56zM177 302h179c0 55 -24 94 -83 94c-46 0 -86 -31 -96 -94zM166 566l-47 52
l93 92h116l93 -92l-47 -52l-102 65h-4zM390 682l79 127l78 -51l-101 -120z" />
    <glyph glyph-name="uni1EC1" unicode="&#x1ec1;" horiz-adv-x="518" 
d="M287 -12c-142 0 -251 96 -251 260c0 161 115 260 234 260c141 0 211 -103 211 -238c0 -26 -3 -53 -6 -65h-297c13 -72 63 -105 129 -105c37 0 71 11 107 33l49 -89c-51 -35 -117 -56 -176 -56zM177 302h179c0 55 -24 94 -83 94c-46 0 -86 -31 -96 -94zM166 566l-47 52
l93 92h116l93 -92l-47 -52l-102 65h-4zM150 682l-56 -44l-105 119l78 52z" />
    <glyph glyph-name="uni1EC3" unicode="&#x1ec3;" horiz-adv-x="518" 
d="M287 -12c-142 0 -251 96 -251 260c0 161 115 260 234 260c141 0 211 -103 211 -238c0 -26 -3 -53 -6 -65h-297c13 -72 63 -105 129 -105c37 0 71 11 107 33l49 -89c-51 -35 -117 -56 -176 -56zM177 302h179c0 55 -24 94 -83 94c-46 0 -86 -31 -96 -94zM166 566l-47 52
l93 92h116l93 -92l-47 -52l-102 65h-4zM408 644l-10 50c18 5 30 11 30 29c0 19 -14 29 -65 33l14 62c109 -4 147 -33 147 -80c0 -65 -53 -85 -116 -94z" />
    <glyph glyph-name="uni1EC5" unicode="&#x1ec5;" horiz-adv-x="518" 
d="M287 -12c-142 0 -251 96 -251 260c0 161 115 260 234 260c141 0 211 -103 211 -238c0 -26 -3 -53 -6 -65h-297c13 -72 63 -105 129 -105c37 0 71 11 107 33l49 -89c-51 -35 -117 -56 -176 -56zM177 302h179c0 55 -24 94 -83 94c-46 0 -86 -31 -96 -94zM166 566l-47 52
l93 84h116l93 -84l-47 -52l-102 56h-4zM122 727c8 76 39 111 90 111c55 0 79 -42 108 -42c16 0 25 11 31 38l67 -7c-8 -76 -39 -111 -90 -111c-55 0 -79 42 -108 42c-16 0 -25 -11 -31 -38z" />
    <glyph glyph-name="uni1EC7" unicode="&#x1ec7;" horiz-adv-x="518" 
d="M287 -12c-142 0 -251 96 -251 260c0 161 115 260 234 260c141 0 211 -103 211 -238c0 -26 -3 -53 -6 -65h-297c13 -72 63 -105 129 -105c37 0 71 11 107 33l49 -89c-51 -35 -117 -56 -176 -56zM177 302h179c0 55 -24 94 -83 94c-46 0 -86 -31 -96 -94zM87 613l108 131
h150l108 -131l-56 -52l-125 92h-4l-125 -92zM269 -226c-48 0 -81 32 -81 77s33 77 81 77s81 -32 81 -77s-33 -77 -81 -77z" />
    <glyph glyph-name="eogonek" unicode="&#x119;" horiz-adv-x="518" 
d="M362 -210c-59 0 -104 31 -104 91c0 49 31 88 56 110c-12 -3 -20 -3 -27 -3c-142 0 -251 96 -251 260c0 161 115 260 234 260c141 0 211 -103 211 -238c0 -26 -3 -53 -6 -65h-297c13 -72 63 -105 129 -105c37 0 71 11 107 33l49 -89c-88 -61 -108 -90 -108 -129
c0 -26 19 -38 43 -38c13 0 25 6 35 12l30 -66c-25 -20 -69 -33 -101 -33zM177 302h179c0 55 -24 94 -83 94c-46 0 -86 -31 -96 -94z" />
    <glyph glyph-name="uni1E17" unicode="&#x1e17;" horiz-adv-x="518" 
d="M287 -12c-142 0 -251 96 -251 260c0 161 115 260 234 260c141 0 211 -103 211 -238c0 -26 -3 -53 -6 -65h-297c13 -72 63 -105 129 -105c37 0 71 11 107 33l49 -89c-51 -35 -117 -56 -176 -56zM177 302h179c0 55 -24 94 -83 94c-46 0 -86 -31 -96 -94zM242 713l-49 60
l144 105l60 -74zM122 592v93h296v-93h-296z" />
    <glyph glyph-name="uni01F5" unicode="&#x1f5;" horiz-adv-x="534" 
d="M242 -211c-116 0 -208 38 -208 126c0 41 25 74 71 100v4c-26 17 -46 43 -46 84c0 36 24 71 56 93v4c-35 24 -67 71 -67 129c0 119 98 179 205 179c28 0 55 -4 77 -12h181v-107h-79c9 -15 16 -39 16 -65c0 -114 -86 -167 -195 -167c-18 0 -38 3 -60 10
c-13 -11 -18 -20 -18 -37c0 -25 20 -37 75 -37h80c122 0 189 -37 189 -126c0 -103 -107 -178 -277 -178zM253 246c39 0 68 28 68 83c0 52 -29 80 -68 80s-68 -27 -68 -80c0 -55 29 -83 68 -83zM265 -119c66 0 114 27 114 61c0 31 -27 39 -76 39h-51c-34 0 -54 2 -70 6
c-18 -16 -27 -31 -27 -49c0 -37 44 -57 110 -57zM289 572l-72 72l154 182l99 -97z" />
    <glyph glyph-name="gcircumflex" unicode="&#x11d;" horiz-adv-x="534" 
d="M242 -211c-116 0 -208 38 -208 126c0 41 25 74 71 100v4c-26 17 -46 43 -46 84c0 36 24 71 56 93v4c-35 24 -67 71 -67 129c0 119 98 179 205 179c28 0 55 -4 77 -12h181v-107h-79c9 -15 16 -39 16 -65c0 -114 -86 -167 -195 -167c-18 0 -38 3 -60 10
c-13 -11 -18 -20 -18 -37c0 -25 20 -37 75 -37h80c122 0 189 -37 189 -126c0 -103 -107 -178 -277 -178zM253 246c39 0 68 28 68 83c0 52 -29 80 -68 80s-68 -27 -68 -80c0 -55 29 -83 68 -83zM265 -119c66 0 114 27 114 61c0 31 -27 39 -76 39h-51c-34 0 -54 2 -70 6
c-18 -16 -27 -31 -27 -49c0 -37 44 -57 110 -57zM96 613l108 131h150l108 -131l-56 -52l-125 92h-4l-125 -92z" />
    <glyph glyph-name="gbreve" unicode="&#x11f;" horiz-adv-x="534" 
d="M242 -211c-116 0 -208 38 -208 126c0 41 25 74 71 100v4c-26 17 -46 43 -46 84c0 36 24 71 56 93v4c-35 24 -67 71 -67 129c0 119 98 179 205 179c28 0 55 -4 77 -12h181v-107h-79c9 -15 16 -39 16 -65c0 -114 -86 -167 -195 -167c-18 0 -38 3 -60 10
c-13 -11 -18 -20 -18 -37c0 -25 20 -37 75 -37h80c122 0 189 -37 189 -126c0 -103 -107 -178 -277 -178zM253 246c39 0 68 28 68 83c0 52 -29 80 -68 80s-68 -27 -68 -80c0 -55 29 -83 68 -83zM265 -119c66 0 114 27 114 61c0 31 -27 39 -76 39h-51c-34 0 -54 2 -70 6
c-18 -16 -27 -31 -27 -49c0 -37 44 -57 110 -57zM279 572c-114 0 -166 69 -169 157l84 14c6 -43 32 -79 85 -79s79 36 85 79l84 -14c-3 -88 -54 -157 -169 -157z" />
    <glyph glyph-name="gdotaccent" unicode="&#x121;" horiz-adv-x="534" 
d="M242 -211c-116 0 -208 38 -208 126c0 41 25 74 71 100v4c-26 17 -46 43 -46 84c0 36 24 71 56 93v4c-35 24 -67 71 -67 129c0 119 98 179 205 179c28 0 55 -4 77 -12h181v-107h-79c9 -15 16 -39 16 -65c0 -114 -86 -167 -195 -167c-18 0 -38 3 -60 10
c-13 -11 -18 -20 -18 -37c0 -25 20 -37 75 -37h80c122 0 189 -37 189 -126c0 -103 -107 -178 -277 -178zM253 246c39 0 68 28 68 83c0 52 -29 80 -68 80s-68 -27 -68 -80c0 -55 29 -83 68 -83zM265 -119c66 0 114 27 114 61c0 31 -27 39 -76 39h-51c-34 0 -54 2 -70 6
c-18 -16 -27 -31 -27 -49c0 -37 44 -57 110 -57zM279 569c-48 0 -81 32 -81 77s33 77 81 77s81 -32 81 -77s-33 -77 -81 -77z" />
    <glyph glyph-name="uni0123" unicode="&#x123;" horiz-adv-x="534" 
d="M242 -211c-116 0 -208 38 -208 126c0 41 25 74 71 100v4c-26 17 -46 43 -46 84c0 36 24 71 56 93v4c-35 24 -67 71 -67 129c0 119 98 179 205 179c28 0 55 -4 77 -12h181v-107h-79c9 -15 16 -39 16 -65c0 -114 -86 -167 -195 -167c-18 0 -38 3 -60 10
c-13 -11 -18 -20 -18 -37c0 -25 20 -37 75 -37h80c122 0 189 -37 189 -126c0 -103 -107 -178 -277 -178zM253 246c39 0 68 28 68 83c0 52 -29 80 -68 80s-68 -27 -68 -80c0 -55 29 -83 68 -83zM265 -119c66 0 114 27 114 61c0 31 -27 39 -76 39h-51c-34 0 -54 2 -70 6
c-18 -16 -27 -31 -27 -49c0 -37 44 -57 110 -57zM325 568c-107 9 -141 35 -141 84c0 68 72 99 197 103l11 -59c-78 -4 -103 -15 -103 -39c0 -19 19 -31 64 -35z" />
    <glyph glyph-name="gcaron" unicode="&#x1e7;" horiz-adv-x="534" 
d="M242 -211c-116 0 -208 38 -208 126c0 41 25 74 71 100v4c-26 17 -46 43 -46 84c0 36 24 71 56 93v4c-35 24 -67 71 -67 129c0 119 98 179 205 179c28 0 55 -4 77 -12h181v-107h-79c9 -15 16 -39 16 -65c0 -114 -86 -167 -195 -167c-18 0 -38 3 -60 10
c-13 -11 -18 -20 -18 -37c0 -25 20 -37 75 -37h80c122 0 189 -37 189 -126c0 -103 -107 -178 -277 -178zM253 246c39 0 68 28 68 83c0 52 -29 80 -68 80s-68 -27 -68 -80c0 -55 29 -83 68 -83zM265 -119c66 0 114 27 114 61c0 31 -27 39 -76 39h-51c-34 0 -54 2 -70 6
c-18 -16 -27 -31 -27 -49c0 -37 44 -57 110 -57zM204 577l-108 131l56 52l125 -92h4l125 92l56 -52l-108 -131h-150z" />
    <glyph glyph-name="uni1E21" unicode="&#x1e21;" horiz-adv-x="534" 
d="M242 -211c-116 0 -208 38 -208 126c0 41 25 74 71 100v4c-26 17 -46 43 -46 84c0 36 24 71 56 93v4c-35 24 -67 71 -67 129c0 119 98 179 205 179c28 0 55 -4 77 -12h181v-107h-79c9 -15 16 -39 16 -65c0 -114 -86 -167 -195 -167c-18 0 -38 3 -60 10
c-13 -11 -18 -20 -18 -37c0 -25 20 -37 75 -37h80c122 0 189 -37 189 -126c0 -103 -107 -178 -277 -178zM253 246c39 0 68 28 68 83c0 52 -29 80 -68 80s-68 -27 -68 -80c0 -55 29 -83 68 -83zM265 -119c66 0 114 27 114 61c0 31 -27 39 -76 39h-51c-34 0 -54 2 -70 6
c-18 -16 -27 -31 -27 -49c0 -37 44 -57 110 -57zM131 592v93h296v-93h-296z" />
    <glyph glyph-name="uni00670303" horiz-adv-x="534" 
d="M242 -211c-116 0 -208 38 -208 126c0 41 25 74 71 100v4c-26 17 -46 43 -46 84c0 36 24 71 56 93v4c-35 24 -67 71 -67 129c0 119 98 179 205 179c28 0 55 -4 77 -12h181v-107h-79c9 -15 16 -39 16 -65c0 -114 -86 -167 -195 -167c-18 0 -38 3 -60 10
c-13 -11 -18 -20 -18 -37c0 -25 20 -37 75 -37h80c122 0 189 -37 189 -126c0 -103 -107 -178 -277 -178zM253 246c39 0 68 28 68 83c0 52 -29 80 -68 80s-68 -27 -68 -80c0 -55 29 -83 68 -83zM265 -119c66 0 114 27 114 61c0 31 -27 39 -76 39h-51c-34 0 -54 2 -70 6
c-18 -16 -27 -31 -27 -49c0 -37 44 -57 110 -57zM345 573c-63 0 -98 64 -129 64c-20 0 -31 -16 -35 -55l-92 5c3 103 47 152 124 152c63 0 98 -64 129 -64c20 0 31 17 35 55l92 -5c-3 -103 -47 -152 -124 -152z" />
    <glyph glyph-name="hcircumflex" unicode="&#x125;" horiz-adv-x="571" 
d="M65 0v701h147v-172l-7 -89c37 33 86 68 153 68c108 0 154 -76 154 -200v-308h-147v289c0 72 -19 94 -61 94c-37 0 -60 -17 -92 -48v-335h-147zM-33 772l90 111h160l90 -111l-64 -39l-104 84h-4l-104 -84z" />
    <glyph glyph-name="uni1E25" unicode="&#x1e25;" horiz-adv-x="571" 
d="M65 0v701h147v-172l-7 -89c37 33 86 68 153 68c108 0 154 -76 154 -200v-308h-147v289c0 72 -19 94 -61 94c-37 0 -60 -17 -92 -48v-335h-147zM293 -226c-48 0 -81 32 -81 77s33 77 81 77s81 -32 81 -77s-33 -77 -81 -77z" />
    <glyph glyph-name="uni1E96" unicode="&#x1e96;" horiz-adv-x="571" 
d="M65 0v701h147v-172l-7 -89c37 33 86 68 153 68c108 0 154 -76 154 -200v-308h-147v289c0 72 -19 94 -61 94c-37 0 -60 -17 -92 -48v-335h-147zM145 -188v93h296v-93h-296z" />
    <glyph glyph-name="uni1E2B" unicode="&#x1e2b;" horiz-adv-x="571" 
d="M65 0v701h147v-172l-7 -89c37 33 86 68 153 68c108 0 154 -76 154 -200v-308h-147v289c0 72 -19 94 -61 94c-37 0 -60 -17 -92 -48v-335h-147zM293 -233c-114 0 -166 69 -169 157l84 14c6 -43 32 -79 85 -79s79 36 85 79l84 -14c-3 -88 -54 -157 -169 -157z" />
    <glyph glyph-name="hbar" unicode="&#x127;" horiz-adv-x="571" 
d="M65 0v556h-68v65l68 5v75h147v-74h169v-71h-169v-75l-7 -90c37 34 86 69 153 69c108 0 154 -76 154 -200v-260h-147v241c0 71 -19 93 -61 93c-37 0 -60 -17 -92 -48v-286h-147z" />
    <glyph glyph-name="igrave" unicode="&#xec;" horiz-adv-x="276" 
d="M65 0v496h147v-496h-147zM128 572l-181 157l99 97l154 -182z" />
    <glyph glyph-name="iacute" unicode="&#xed;" horiz-adv-x="276" 
d="M65 0v496h147v-496h-147zM148 572l-72 72l154 182l99 -97z" />
    <glyph glyph-name="icircumflex" unicode="&#xee;" horiz-adv-x="276" 
d="M65 0v496h147v-496h-147zM-45 613l108 131h150l108 -131l-56 -52l-125 92h-4l-125 -92z" />
    <glyph glyph-name="itilde" unicode="&#x129;" horiz-adv-x="276" 
d="M65 0v496h147v-496h-147zM204 573c-63 0 -98 64 -129 64c-20 0 -31 -16 -35 -55l-92 5c3 103 47 152 124 152c63 0 98 -64 129 -64c20 0 31 17 35 55l92 -5c-3 -103 -47 -152 -124 -152z" />
    <glyph glyph-name="idieresis" unicode="&#xef;" horiz-adv-x="276" 
d="M65 0v496h147v-496h-147zM29 569c-42 0 -72 31 -72 72c0 40 30 71 72 71s71 -31 71 -71c0 -41 -29 -72 -71 -72zM247 569c-42 0 -71 31 -71 72c0 40 29 71 71 71s72 -31 72 -71c0 -41 -30 -72 -72 -72z" />
    <glyph glyph-name="imacron" unicode="&#x12b;" horiz-adv-x="276" 
d="M65 0v496h147v-496h-147zM-10 592v93h296v-93h-296z" />
    <glyph glyph-name="uni01D0" unicode="&#x1d0;" horiz-adv-x="276" 
d="M65 0v496h147v-496h-147zM63 577l-108 131l56 52l125 -92h4l125 92l56 -52l-108 -131h-150z" />
    <glyph glyph-name="uni1EC9" unicode="&#x1ec9;" horiz-adv-x="276" 
d="M65 0v496h147v-496h-147zM95 568l-12 58c25 5 45 14 45 35c0 24 -22 38 -80 42l9 90c131 -3 178 -51 178 -121c0 -68 -65 -98 -140 -104z" />
    <glyph glyph-name="uni1ECB" unicode="&#x1ecb;" horiz-adv-x="276" 
d="M65 0v496h147v-496h-147zM138 569c-49 0 -85 32 -85 77s36 76 85 76c50 0 85 -31 85 -76s-35 -77 -85 -77zM138 -226c-48 0 -81 32 -81 77s33 77 81 77s81 -32 81 -77s-33 -77 -81 -77z" />
    <glyph glyph-name="iogonek" unicode="&#x12f;" horiz-adv-x="276" 
d="M147 -210c-59 0 -106 31 -106 91c0 58 40 99 65 119h-41v496h147v-496c-53 -20 -72 -55 -72 -85c0 -26 20 -38 43 -38c12 0 23 6 35 12l30 -66c-25 -20 -70 -33 -101 -33zM138 569c-49 0 -85 32 -85 77s36 76 85 76s85 -31 85 -76s-36 -77 -85 -77z" />
    <glyph glyph-name="iogonek.d" horiz-adv-x="276" 
d="M147 -210c-59 0 -106 31 -106 91c0 58 40 99 65 119h-41v496h147v-496c-53 -20 -72 -55 -72 -85c0 -26 20 -38 43 -38c12 0 23 6 35 12l30 -66c-25 -20 -70 -33 -101 -33z" />
    <glyph glyph-name="uni012D" unicode="&#x12d;" horiz-adv-x="276" 
d="M65 0v496h147v-496h-147zM138 572c-114 0 -166 69 -169 157l84 14c6 -43 32 -79 85 -79s79 36 85 79l84 -14c-3 -88 -54 -157 -169 -157z" />
    <glyph glyph-name="dotlessi" unicode="&#x131;" horiz-adv-x="276" 
d="M65 0v496h147v-496h-147z" />
    <glyph glyph-name="jcircumflex" unicode="&#x135;" horiz-adv-x="278" 
d="M36 -196c-41 0 -67 6 -87 14l26 108c13 -4 25 -7 39 -7c39 0 52 25 52 80v497h147v-493c0 -108 -42 -199 -177 -199zM-43 613l108 131h150l108 -131l-56 -52l-125 92h-4l-125 -92z" />
    <glyph glyph-name="uni0137" unicode="&#x137;" horiz-adv-x="548" 
d="M65 0v701h143v-402h4l157 197h160l-174 -204l187 -292h-159l-112 193l-63 -71v-122h-143zM193 -239l-11 59c78 4 103 16 103 39c0 19 -19 31 -64 35l28 54c107 -9 141 -35 141 -84c0 -68 -72 -99 -197 -103z" />
    <glyph glyph-name="uni1E33" unicode="&#x1e33;" horiz-adv-x="548" 
d="M65 0v701h143v-402h4l157 197h160l-174 -204l187 -292h-159l-112 193l-63 -71v-122h-143zM295 -226c-48 0 -81 32 -81 77s33 77 81 77s81 -32 81 -77s-33 -77 -81 -77z" />
    <glyph glyph-name="uni1E35" unicode="&#x1e35;" horiz-adv-x="548" 
d="M65 0v701h143v-402h4l157 197h160l-174 -204l187 -292h-159l-112 193l-63 -71v-122h-143zM147 -188v93h296v-93h-296z" />
    <glyph glyph-name="kgreenlandic" unicode="&#x138;" horiz-adv-x="548" 
d="M65 0v496h147v-200h3l154 200h160l-170 -204l183 -292h-159l-112 189l-59 -72v-117h-147z" />
    <glyph glyph-name="lacute" unicode="&#x13a;" horiz-adv-x="286" 
d="M200 -12c-101 0 -135 66 -135 166v547h147v-553c0 -31 14 -41 26 -41c6 0 10 0 18 2l18 -109c-16 -7 -41 -12 -74 -12zM131 735l-66 74l171 140l78 -95z" />
    <glyph glyph-name="lcaron" unicode="&#x13e;" horiz-adv-x="319" 
d="M200 -12c-101 0 -135 66 -135 166v547h147v-553c0 -31 14 -41 26 -41c6 0 10 0 18 2l18 -109c-16 -7 -41 -12 -74 -12zM255 548l-6 222h95l-2 -69l-24 -153h-63z" />
    <glyph glyph-name="ldot" unicode="&#x140;" horiz-adv-x="453" 
d="M200 -12c-101 0 -135 66 -135 166v547h147v-553c0 -31 14 -41 26 -41c6 0 10 0 18 2l18 -109c-16 -7 -41 -12 -74 -12zM364 236c-51 0 -89 40 -89 92c0 53 38 93 89 93s89 -40 89 -93c0 -52 -38 -92 -89 -92z" />
    <glyph glyph-name="uni013C" unicode="&#x13c;" horiz-adv-x="286" 
d="M200 -12c-101 0 -135 66 -135 166v547h147v-553c0 -31 14 -41 26 -41c6 0 10 0 18 2l18 -109c-16 -7 -41 -12 -74 -12zM85 -239l-11 59c78 4 103 16 103 39c0 19 -19 31 -64 35l28 54c107 -9 141 -35 141 -84c0 -68 -72 -99 -197 -103z" />
    <glyph glyph-name="uni1E37" unicode="&#x1e37;" horiz-adv-x="286" 
d="M200 -12c-101 0 -135 66 -135 166v547h147v-553c0 -31 14 -41 26 -41c6 0 10 0 18 2l18 -109c-16 -7 -41 -12 -74 -12zM187 -226c-48 0 -81 32 -81 77s33 77 81 77s81 -32 81 -77s-33 -77 -81 -77z" />
    <glyph glyph-name="uni1E39" unicode="&#x1e39;" horiz-adv-x="286" 
d="M200 -12c-101 0 -135 66 -135 166v547h147v-553c0 -31 14 -41 26 -41c6 0 10 0 18 2l18 -109c-16 -7 -41 -12 -74 -12zM-11 804v93h296v-93h-296zM187 -226c-48 0 -81 32 -81 77s33 77 81 77s81 -32 81 -77s-33 -77 -81 -77z" />
    <glyph glyph-name="uni1E3B" unicode="&#x1e3b;" horiz-adv-x="286" 
d="M200 -12c-101 0 -135 66 -135 166v547h147v-553c0 -31 14 -41 26 -41c6 0 10 0 18 2l18 -109c-16 -7 -41 -12 -74 -12zM39 -188v93h296v-93h-296z" />
    <glyph glyph-name="lslash" unicode="&#x142;" horiz-adv-x="303" 
d="M210 -12c-101 0 -135 66 -135 166v122l-45 -26l-51 91l96 54v306h147v-234l48 27l50 -91l-98 -55v-200c0 -31 14 -41 26 -41c6 0 10 0 18 2l18 -109c-16 -7 -41 -12 -74 -12z" />
    <glyph glyph-name="uni1E3F" unicode="&#x1e3f;" horiz-adv-x="857" 
d="M65 0v496h120l10 -64h4c41 41 85 76 150 76c70 0 112 -30 137 -83c44 45 90 83 156 83c107 0 155 -76 155 -200v-308h-147v289c0 72 -19 94 -61 94c-25 0 -53 -16 -85 -48v-335h-147v289c0 72 -19 94 -61 94c-24 0 -53 -16 -84 -48v-335h-147zM449 572l-72 72l154 182
l99 -97z" />
    <glyph glyph-name="uni1E41" unicode="&#x1e41;" horiz-adv-x="857" 
d="M65 0v496h120l10 -64h4c41 41 85 76 150 76c70 0 112 -30 137 -83c44 45 90 83 156 83c107 0 155 -76 155 -200v-308h-147v289c0 72 -19 94 -61 94c-25 0 -53 -16 -85 -48v-335h-147v289c0 72 -19 94 -61 94c-24 0 -53 -16 -84 -48v-335h-147zM439 569
c-48 0 -81 32 -81 77s33 77 81 77s81 -32 81 -77s-33 -77 -81 -77z" />
    <glyph glyph-name="uni1E43" unicode="&#x1e43;" horiz-adv-x="857" 
d="M65 0v496h120l10 -64h4c41 41 85 76 150 76c70 0 112 -30 137 -83c44 45 90 83 156 83c107 0 155 -76 155 -200v-308h-147v289c0 72 -19 94 -61 94c-25 0 -53 -16 -85 -48v-335h-147v289c0 72 -19 94 -61 94c-24 0 -53 -16 -84 -48v-335h-147zM439 -226
c-48 0 -81 32 -81 77s33 77 81 77s81 -32 81 -77s-33 -77 -81 -77z" />
    <glyph glyph-name="nacute" unicode="&#x144;" horiz-adv-x="572" 
d="M65 0v496h120l10 -63h4c42 40 92 75 159 75c108 0 154 -76 154 -200v-308h-147v289c0 72 -19 94 -61 94c-37 0 -60 -17 -92 -48v-335h-147zM318 572l-72 72l154 182l99 -97z" />
    <glyph glyph-name="uni01F9" unicode="&#x1f9;" horiz-adv-x="572" 
d="M65 0v496h120l10 -63h4c42 40 92 75 159 75c108 0 154 -76 154 -200v-308h-147v289c0 72 -19 94 -61 94c-37 0 -60 -17 -92 -48v-335h-147zM298 572l-181 157l99 97l154 -182z" />
    <glyph glyph-name="ncaron" unicode="&#x148;" horiz-adv-x="572" 
d="M65 0v496h120l10 -63h4c42 40 92 75 159 75c108 0 154 -76 154 -200v-308h-147v289c0 72 -19 94 -61 94c-37 0 -60 -17 -92 -48v-335h-147zM233 577l-108 131l56 52l125 -92h4l125 92l56 -52l-108 -131h-150z" />
    <glyph glyph-name="ntilde" unicode="&#xf1;" horiz-adv-x="572" 
d="M65 0v496h120l10 -63h4c42 40 92 75 159 75c108 0 154 -76 154 -200v-308h-147v289c0 72 -19 94 -61 94c-37 0 -60 -17 -92 -48v-335h-147zM374 573c-63 0 -98 64 -129 64c-20 0 -31 -16 -35 -55l-92 5c3 103 47 152 124 152c63 0 98 -64 129 -64c20 0 31 17 35 55l92 -5
c-3 -103 -47 -152 -124 -152z" />
    <glyph glyph-name="uni0146" unicode="&#x146;" horiz-adv-x="572" 
d="M65 0v496h120l10 -63h4c42 40 92 75 159 75c108 0 154 -76 154 -200v-308h-147v289c0 72 -19 94 -61 94c-37 0 -60 -17 -92 -48v-335h-147zM189 -239l-11 59c78 4 103 16 103 39c0 19 -19 31 -64 35l28 54c107 -9 141 -35 141 -84c0 -68 -72 -99 -197 -103z" />
    <glyph glyph-name="uni1E45" unicode="&#x1e45;" horiz-adv-x="572" 
d="M65 0v496h120l10 -63h4c42 40 92 75 159 75c108 0 154 -76 154 -200v-308h-147v289c0 72 -19 94 -61 94c-37 0 -60 -17 -92 -48v-335h-147zM308 569c-48 0 -81 32 -81 77s33 77 81 77s81 -32 81 -77s-33 -77 -81 -77z" />
    <glyph glyph-name="uni1E47" unicode="&#x1e47;" horiz-adv-x="572" 
d="M65 0v496h120l10 -63h4c42 40 92 75 159 75c108 0 154 -76 154 -200v-308h-147v289c0 72 -19 94 -61 94c-37 0 -60 -17 -92 -48v-335h-147zM291 -226c-48 0 -81 32 -81 77s33 77 81 77s81 -32 81 -77s-33 -77 -81 -77z" />
    <glyph glyph-name="uni1E49" unicode="&#x1e49;" horiz-adv-x="572" 
d="M65 0v496h120l10 -63h4c42 40 92 75 159 75c108 0 154 -76 154 -200v-308h-147v289c0 72 -19 94 -61 94c-37 0 -60 -17 -92 -48v-335h-147zM143 -188v93h296v-93h-296z" />
    <glyph glyph-name="napostrophe" unicode="&#x149;" horiz-adv-x="852" 
d="M343 0v496h120l10 -63h4c42 40 92 75 159 75c108 0 154 -76 154 -200v-308h-147v289c0 72 -19 94 -61 94c-37 0 -60 -17 -92 -48v-335h-147zM103 352l-32 64c60 30 90 68 90 127c-3 -1 -6 -1 -9 -1c-43 0 -77 28 -77 73c0 50 32 82 77 82c61 0 94 -48 94 -131
c0 -94 -47 -167 -143 -214z" />
    <glyph glyph-name="ograve" unicode="&#xf2;" horiz-adv-x="555" 
d="M278 -12c-126 0 -242 95 -242 260s116 260 242 260c125 0 241 -95 241 -260s-116 -260 -241 -260zM278 107c60 0 91 55 91 141s-31 141 -91 141c-61 0 -91 -55 -91 -141s30 -141 91 -141zM268 572l-181 157l99 97l154 -182z" />
    <glyph glyph-name="oacute" unicode="&#xf3;" horiz-adv-x="555" 
d="M278 -12c-126 0 -242 95 -242 260s116 260 242 260c125 0 241 -95 241 -260s-116 -260 -241 -260zM278 107c60 0 91 55 91 141s-31 141 -91 141c-61 0 -91 -55 -91 -141s30 -141 91 -141zM288 572l-72 72l154 182l99 -97z" />
    <glyph glyph-name="ocircumflex" unicode="&#xf4;" horiz-adv-x="555" 
d="M278 -12c-126 0 -242 95 -242 260s116 260 242 260c125 0 241 -95 241 -260s-116 -260 -241 -260zM278 107c60 0 91 55 91 141s-31 141 -91 141c-61 0 -91 -55 -91 -141s30 -141 91 -141zM95 613l108 131h150l108 -131l-56 -52l-125 92h-4l-125 -92z" />
    <glyph glyph-name="otilde" unicode="&#xf5;" horiz-adv-x="555" 
d="M278 -12c-126 0 -242 95 -242 260s116 260 242 260c125 0 241 -95 241 -260s-116 -260 -241 -260zM278 107c60 0 91 55 91 141s-31 141 -91 141c-61 0 -91 -55 -91 -141s30 -141 91 -141zM344 573c-63 0 -98 64 -129 64c-20 0 -31 -16 -35 -55l-92 5
c3 103 47 152 124 152c63 0 98 -64 129 -64c20 0 31 17 35 55l92 -5c-3 -103 -47 -152 -124 -152z" />
    <glyph glyph-name="odieresis" unicode="&#xf6;" horiz-adv-x="555" 
d="M278 -12c-126 0 -242 95 -242 260s116 260 242 260c125 0 241 -95 241 -260s-116 -260 -241 -260zM278 107c60 0 91 55 91 141s-31 141 -91 141c-61 0 -91 -55 -91 -141s30 -141 91 -141zM169 569c-42 0 -72 31 -72 72c0 40 30 71 72 71s71 -31 71 -71
c0 -41 -29 -72 -71 -72zM387 569c-42 0 -71 31 -71 72c0 40 29 71 71 71s72 -31 72 -71c0 -41 -30 -72 -72 -72z" />
    <glyph glyph-name="omacron" unicode="&#x14d;" horiz-adv-x="555" 
d="M278 -12c-126 0 -242 95 -242 260s116 260 242 260c125 0 241 -95 241 -260s-116 -260 -241 -260zM278 107c60 0 91 55 91 141s-31 141 -91 141c-61 0 -91 -55 -91 -141s30 -141 91 -141zM130 592v93h296v-93h-296z" />
    <glyph glyph-name="ohungarumlaut" unicode="&#x151;" horiz-adv-x="555" 
d="M278 -12c-126 0 -242 95 -242 260s116 260 242 260c125 0 241 -95 241 -260s-116 -260 -241 -260zM278 107c60 0 91 55 91 141s-31 141 -91 141c-61 0 -91 -55 -91 -141s30 -141 91 -141zM226 565l-77 35l87 181l99 -44zM405 565l-77 35l87 181l99 -44z" />
    <glyph glyph-name="uni01D2" unicode="&#x1d2;" horiz-adv-x="555" 
d="M278 -12c-126 0 -242 95 -242 260s116 260 242 260c125 0 241 -95 241 -260s-116 -260 -241 -260zM278 107c60 0 91 55 91 141s-31 141 -91 141c-61 0 -91 -55 -91 -141s30 -141 91 -141zM203 577l-108 131l56 52l125 -92h4l125 92l56 -52l-108 -131h-150z" />
    <glyph glyph-name="uni1ECD" unicode="&#x1ecd;" horiz-adv-x="555" 
d="M278 -12c-126 0 -242 95 -242 260s116 260 242 260c125 0 241 -95 241 -260s-116 -260 -241 -260zM278 107c60 0 91 55 91 141s-31 141 -91 141c-61 0 -91 -55 -91 -141s30 -141 91 -141zM278 -226c-48 0 -81 32 -81 77s33 77 81 77s81 -32 81 -77s-33 -77 -81 -77z" />
    <glyph glyph-name="uni1ECF" unicode="&#x1ecf;" horiz-adv-x="555" 
d="M278 -12c-126 0 -242 95 -242 260s116 260 242 260c125 0 241 -95 241 -260s-116 -260 -241 -260zM278 107c60 0 91 55 91 141s-31 141 -91 141c-61 0 -91 -55 -91 -141s30 -141 91 -141zM235 568l-12 58c25 5 45 14 45 35c0 24 -22 38 -80 42l9 90
c131 -3 178 -51 178 -121c0 -68 -65 -98 -140 -104z" />
    <glyph glyph-name="uni1ED1" unicode="&#x1ed1;" horiz-adv-x="555" 
d="M278 -12c-126 0 -242 95 -242 260s116 260 242 260c125 0 241 -95 241 -260s-116 -260 -241 -260zM278 107c60 0 91 55 91 141s-31 141 -91 141c-61 0 -91 -55 -91 -141s30 -141 91 -141zM174 566l-47 52l93 92h116l93 -92l-47 -52l-102 65h-4zM398 682l79 127l78 -51
l-101 -120z" />
    <glyph glyph-name="uni1ED3" unicode="&#x1ed3;" horiz-adv-x="555" 
d="M278 -12c-126 0 -242 95 -242 260s116 260 242 260c125 0 241 -95 241 -260s-116 -260 -241 -260zM278 107c60 0 91 55 91 141s-31 141 -91 141c-61 0 -91 -55 -91 -141s30 -141 91 -141zM174 566l-47 52l93 92h116l93 -92l-47 -52l-102 65h-4zM158 682l-56 -44l-105 119
l78 52z" />
    <glyph glyph-name="uni1ED5" unicode="&#x1ed5;" horiz-adv-x="555" 
d="M278 -12c-126 0 -242 95 -242 260s116 260 242 260c125 0 241 -95 241 -260s-116 -260 -241 -260zM278 107c60 0 91 55 91 141s-31 141 -91 141c-61 0 -91 -55 -91 -141s30 -141 91 -141zM174 566l-47 52l93 92h116l93 -92l-47 -52l-102 65h-4zM416 644l-10 50
c18 5 30 11 30 29c0 19 -14 29 -65 33l14 62c109 -4 147 -33 147 -80c0 -65 -53 -85 -116 -94z" />
    <glyph glyph-name="uni1ED7" unicode="&#x1ed7;" horiz-adv-x="555" 
d="M278 -12c-126 0 -242 95 -242 260s116 260 242 260c125 0 241 -95 241 -260s-116 -260 -241 -260zM278 107c60 0 91 55 91 141s-31 141 -91 141c-61 0 -91 -55 -91 -141s30 -141 91 -141zM174 566l-47 52l93 84h116l93 -84l-47 -52l-102 56h-4zM130 727
c8 76 39 111 90 111c55 0 79 -42 108 -42c16 0 25 11 31 38l67 -7c-8 -76 -39 -111 -90 -111c-55 0 -79 42 -108 42c-16 0 -25 -11 -31 -38z" />
    <glyph glyph-name="uni1ED9" unicode="&#x1ed9;" horiz-adv-x="555" 
d="M278 -12c-126 0 -242 95 -242 260s116 260 242 260c125 0 241 -95 241 -260s-116 -260 -241 -260zM278 107c60 0 91 55 91 141s-31 141 -91 141c-61 0 -91 -55 -91 -141s30 -141 91 -141zM95 613l108 131h150l108 -131l-56 -52l-125 92h-4l-125 -92zM278 -226
c-48 0 -81 32 -81 77s33 77 81 77s81 -32 81 -77s-33 -77 -81 -77z" />
    <glyph glyph-name="uni014F" unicode="&#x14f;" horiz-adv-x="555" 
d="M278 -12c-126 0 -242 95 -242 260s116 260 242 260c125 0 241 -95 241 -260s-116 -260 -241 -260zM278 107c60 0 91 55 91 141s-31 141 -91 141c-61 0 -91 -55 -91 -141s30 -141 91 -141zM278 572c-114 0 -166 69 -169 157l84 14c6 -43 32 -79 85 -79s79 36 85 79l84 -14
c-3 -88 -54 -157 -169 -157z" />
    <glyph glyph-name="uni1E53" unicode="&#x1e53;" horiz-adv-x="555" 
d="M278 -12c-126 0 -242 95 -242 260s116 260 242 260c125 0 241 -95 241 -260s-116 -260 -241 -260zM278 107c60 0 91 55 91 141s-31 141 -91 141c-61 0 -91 -55 -91 -141s30 -141 91 -141zM250 713l-49 60l144 105l60 -74zM130 592v93h296v-93h-296z" />
    <glyph glyph-name="oslash" unicode="&#xf8;" horiz-adv-x="555" 
d="M278 -12c-48 0 -95 14 -134 40l-43 -53l-55 42l47 58c-35 43 -57 101 -57 173c0 165 116 260 242 260c47 0 93 -14 132 -39l44 54l55 -43l-47 -58c35 -44 57 -102 57 -174c0 -165 -116 -260 -241 -260zM178 256c0 -26 2 -48 7 -67l149 186c-15 13 -34 19 -56 19
c-61 0 -100 -55 -100 -138zM278 102c60 0 99 55 99 138c0 26 -2 49 -7 68l-150 -186c15 -13 35 -20 58 -20z" />
    <glyph glyph-name="oe" unicode="&#x153;" horiz-adv-x="822" 
d="M267 -12c-127 0 -231 95 -231 260s108 260 234 260c70 0 123 -33 161 -87c40 55 97 87 157 87c131 0 198 -106 198 -241c0 -27 -3 -50 -6 -62h-287c11 -69 59 -102 119 -102c37 0 69 15 105 36l51 -95c-51 -35 -118 -56 -176 -56c-60 0 -119 32 -160 87
c-41 -57 -92 -87 -165 -87zM270 107c54 0 87 55 87 141s-33 141 -87 141s-85 -55 -85 -141s31 -141 85 -141zM493 295h167c0 60 -23 101 -77 101c-46 0 -82 -32 -90 -101z" />
    <glyph glyph-name="ohorn" unicode="&#x1a1;" horiz-adv-x="555" 
d="M278 -12c-126 0 -242 95 -242 260s116 260 242 260c33 0 66 -7 96 -20c40 10 68 34 68 90c0 22 -7 43 -16 57l109 47c15 -20 30 -57 30 -94c0 -80 -54 -128 -120 -148c45 -45 74 -110 74 -192c0 -165 -116 -260 -241 -260zM278 107c60 0 91 55 91 141s-31 141 -91 141
c-61 0 -91 -55 -91 -141s30 -141 91 -141z" />
    <glyph glyph-name="uni1EDB" unicode="&#x1edb;" horiz-adv-x="555" 
d="M278 -12c-126 0 -242 95 -242 260s116 260 242 260c33 0 66 -7 96 -20c40 10 68 34 68 90c0 22 -7 43 -16 57l109 47c15 -20 30 -57 30 -94c0 -80 -54 -128 -120 -148c45 -45 74 -110 74 -192c0 -165 -116 -260 -241 -260zM278 107c60 0 91 55 91 141s-31 141 -91 141
c-61 0 -91 -55 -91 -141s30 -141 91 -141zM288 572l-72 72l154 182l99 -97z" />
    <glyph glyph-name="uni1EDD" unicode="&#x1edd;" horiz-adv-x="555" 
d="M278 -12c-126 0 -242 95 -242 260s116 260 242 260c33 0 66 -7 96 -20c40 10 68 34 68 90c0 22 -7 43 -16 57l109 47c15 -20 30 -57 30 -94c0 -80 -54 -128 -120 -148c45 -45 74 -110 74 -192c0 -165 -116 -260 -241 -260zM278 107c60 0 91 55 91 141s-31 141 -91 141
c-61 0 -91 -55 -91 -141s30 -141 91 -141zM268 572l-181 157l99 97l154 -182z" />
    <glyph glyph-name="uni1EDF" unicode="&#x1edf;" horiz-adv-x="555" 
d="M278 -12c-126 0 -242 95 -242 260s116 260 242 260c33 0 66 -7 96 -20c40 10 68 34 68 90c0 22 -7 43 -16 57l109 47c15 -20 30 -57 30 -94c0 -80 -54 -128 -120 -148c45 -45 74 -110 74 -192c0 -165 -116 -260 -241 -260zM278 107c60 0 91 55 91 141s-31 141 -91 141
c-61 0 -91 -55 -91 -141s30 -141 91 -141zM235 568l-12 58c25 5 45 14 45 35c0 24 -22 38 -80 42l9 90c131 -3 178 -51 178 -121c0 -68 -65 -98 -140 -104z" />
    <glyph glyph-name="uni1EE1" unicode="&#x1ee1;" horiz-adv-x="555" 
d="M278 -12c-126 0 -242 95 -242 260s116 260 242 260c33 0 66 -7 96 -20c40 10 68 34 68 90c0 22 -7 43 -16 57l109 47c15 -20 30 -57 30 -94c0 -80 -54 -128 -120 -148c45 -45 74 -110 74 -192c0 -165 -116 -260 -241 -260zM278 107c60 0 91 55 91 141s-31 141 -91 141
c-61 0 -91 -55 -91 -141s30 -141 91 -141zM311 573c-63 0 -98 64 -129 64c-20 0 -31 -16 -35 -55l-92 5c3 103 47 152 124 152c63 0 98 -64 129 -64c20 0 31 17 35 55l92 -5c-3 -103 -47 -152 -124 -152z" />
    <glyph glyph-name="uni1EE3" unicode="&#x1ee3;" horiz-adv-x="555" 
d="M278 -12c-126 0 -242 95 -242 260s116 260 242 260c33 0 66 -7 96 -20c40 10 68 34 68 90c0 22 -7 43 -16 57l109 47c15 -20 30 -57 30 -94c0 -80 -54 -128 -120 -148c45 -45 74 -110 74 -192c0 -165 -116 -260 -241 -260zM278 107c60 0 91 55 91 141s-31 141 -91 141
c-61 0 -91 -55 -91 -141s30 -141 91 -141zM278 -226c-48 0 -81 32 -81 77s33 77 81 77s81 -32 81 -77s-33 -77 -81 -77z" />
    <glyph glyph-name="uni01EB" unicode="&#x1eb;" horiz-adv-x="555" 
d="M297 -210c-59 0 -106 31 -106 91c0 50 32 89 55 109c-113 14 -210 107 -210 258c0 165 116 260 242 260c125 0 241 -95 241 -260c0 -132 -65 -202 -162 -248c-49 -22 -67 -56 -67 -85c0 -27 21 -38 42 -38c13 0 26 6 36 12l30 -66c-25 -20 -69 -33 -101 -33zM278 107
c60 0 91 55 91 141s-31 141 -91 141c-61 0 -91 -55 -91 -141s30 -141 91 -141z" />
    <glyph glyph-name="racute" unicode="&#x155;" horiz-adv-x="398" 
d="M65 0v496h120l10 -87h4c36 67 90 99 141 99c28 0 45 -4 59 -10l-24 -127c-18 5 -33 8 -54 8c-37 0 -83 -24 -109 -91v-288h-147zM257 572l-72 72l154 182l99 -97z" />
    <glyph glyph-name="uni0157" unicode="&#x157;" horiz-adv-x="398" 
d="M65 0v496h120l10 -87h4c36 67 90 99 141 99c28 0 45 -4 59 -10l-24 -127c-18 5 -33 8 -54 8c-37 0 -83 -24 -109 -91v-288h-147zM36 -239l-11 59c78 4 103 16 103 39c0 19 -19 31 -64 35l28 54c107 -9 141 -35 141 -84c0 -68 -72 -99 -197 -103z" />
    <glyph glyph-name="rcaron" unicode="&#x159;" horiz-adv-x="398" 
d="M65 0v496h120l10 -87h4c36 67 90 99 141 99c28 0 45 -4 59 -10l-24 -127c-18 5 -33 8 -54 8c-37 0 -83 -24 -109 -91v-288h-147zM172 577l-108 131l56 52l125 -92h4l125 92l56 -52l-108 -131h-150z" />
    <glyph glyph-name="uni1E59" unicode="&#x1e59;" horiz-adv-x="398" 
d="M65 0v496h120l10 -87h4c36 67 90 99 141 99c28 0 45 -4 59 -10l-24 -127c-18 5 -33 8 -54 8c-37 0 -83 -24 -109 -91v-288h-147zM246 569c-48 0 -81 32 -81 77s33 77 81 77s81 -32 81 -77s-33 -77 -81 -77z" />
    <glyph glyph-name="uni1E5B" unicode="&#x1e5b;" horiz-adv-x="398" 
d="M65 0v496h120l10 -87h4c36 67 90 99 141 99c28 0 45 -4 59 -10l-24 -127c-18 5 -33 8 -54 8c-37 0 -83 -24 -109 -91v-288h-147zM138 -226c-48 0 -81 32 -81 77s33 77 81 77s81 -32 81 -77s-33 -77 -81 -77z" />
    <glyph glyph-name="uni1E5D" unicode="&#x1e5d;" horiz-adv-x="398" 
d="M65 0v496h120l10 -87h4c36 67 90 99 141 99c28 0 45 -4 59 -10l-24 -127c-18 5 -33 8 -54 8c-37 0 -83 -24 -109 -91v-288h-147zM99 592v93h296v-93h-296zM138 -226c-48 0 -81 32 -81 77s33 77 81 77s81 -32 81 -77s-33 -77 -81 -77z" />
    <glyph glyph-name="uni1E5F" unicode="&#x1e5f;" horiz-adv-x="398" 
d="M65 0v496h120l10 -87h4c36 67 90 99 141 99c28 0 45 -4 59 -10l-24 -127c-18 5 -33 8 -54 8c-37 0 -83 -24 -109 -91v-288h-147zM-10 -188v93h296v-93h-296z" />
    <glyph glyph-name="sacute" unicode="&#x15b;" horiz-adv-x="443" 
d="M211 -12c-65 0 -140 28 -190 69l66 92c45 -34 86 -52 128 -52c44 0 63 16 63 42c0 33 -50 48 -101 68c-60 23 -131 64 -131 146c0 92 75 155 190 155c76 0 132 -31 175 -63l-66 -88c-36 26 -70 42 -105 42c-38 0 -56 -14 -56 -39c0 -32 46 -44 97 -63
c63 -23 134 -58 134 -149c0 -90 -71 -160 -204 -160zM246 572l-72 72l154 182l99 -97z" />
    <glyph glyph-name="scircumflex" unicode="&#x15d;" horiz-adv-x="443" 
d="M211 -12c-65 0 -140 28 -190 69l66 92c45 -34 86 -52 128 -52c44 0 63 16 63 42c0 33 -50 48 -101 68c-60 23 -131 64 -131 146c0 92 75 155 190 155c76 0 132 -31 175 -63l-66 -88c-36 26 -70 42 -105 42c-38 0 -56 -14 -56 -39c0 -32 46 -44 97 -63
c63 -23 134 -58 134 -149c0 -90 -71 -160 -204 -160zM53 613l108 131h150l108 -131l-56 -52l-125 92h-4l-125 -92z" />
    <glyph glyph-name="scaron" unicode="&#x161;" horiz-adv-x="443" 
d="M211 -12c-65 0 -140 28 -190 69l66 92c45 -34 86 -52 128 -52c44 0 63 16 63 42c0 33 -50 48 -101 68c-60 23 -131 64 -131 146c0 92 75 155 190 155c76 0 132 -31 175 -63l-66 -88c-36 26 -70 42 -105 42c-38 0 -56 -14 -56 -39c0 -32 46 -44 97 -63
c63 -23 134 -58 134 -149c0 -90 -71 -160 -204 -160zM161 577l-108 131l56 52l125 -92h4l125 92l56 -52l-108 -131h-150z" />
    <glyph glyph-name="uni015F" unicode="&#x15f;" horiz-adv-x="443" 
d="M135 -239l-11 59c78 4 103 16 103 44c0 20 -16 34 -77 42l41 83c-60 5 -125 31 -170 68l66 92c45 -34 86 -52 128 -52c44 0 63 16 63 42c0 33 -50 48 -101 68c-60 23 -131 64 -131 146c0 92 75 155 190 155c76 0 132 -31 175 -63l-66 -88c-36 26 -70 42 -105 42
c-38 0 -56 -14 -56 -39c0 -32 46 -44 97 -63c63 -23 134 -58 134 -149c0 -73 -47 -133 -135 -153l-24 -56c50 -12 76 -33 76 -75c0 -68 -72 -99 -197 -103z" />
    <glyph glyph-name="uni0219" unicode="&#x219;" horiz-adv-x="443" 
d="M211 -12c-65 0 -140 28 -190 69l66 92c45 -34 86 -52 128 -52c44 0 63 16 63 42c0 33 -50 48 -101 68c-60 23 -131 64 -131 146c0 92 75 155 190 155c76 0 132 -31 175 -63l-66 -88c-36 26 -70 42 -105 42c-38 0 -56 -14 -56 -39c0 -32 46 -44 97 -63
c63 -23 134 -58 134 -149c0 -90 -71 -160 -204 -160zM130 -239l-11 59c78 4 103 16 103 39c0 19 -19 31 -64 35l28 54c107 -9 141 -35 141 -84c0 -68 -72 -99 -197 -103z" />
    <glyph glyph-name="uni1E61" unicode="&#x1e61;" horiz-adv-x="443" 
d="M211 -12c-65 0 -140 28 -190 69l66 92c45 -34 86 -52 128 -52c44 0 63 16 63 42c0 33 -50 48 -101 68c-60 23 -131 64 -131 146c0 92 75 155 190 155c76 0 132 -31 175 -63l-66 -88c-36 26 -70 42 -105 42c-38 0 -56 -14 -56 -39c0 -32 46 -44 97 -63
c63 -23 134 -58 134 -149c0 -90 -71 -160 -204 -160zM236 569c-48 0 -81 32 -81 77s33 77 81 77s81 -32 81 -77s-33 -77 -81 -77z" />
    <glyph glyph-name="uni1E63" unicode="&#x1e63;" horiz-adv-x="443" 
d="M211 -12c-65 0 -140 28 -190 69l66 92c45 -34 86 -52 128 -52c44 0 63 16 63 42c0 33 -50 48 -101 68c-60 23 -131 64 -131 146c0 92 75 155 190 155c76 0 132 -31 175 -63l-66 -88c-36 26 -70 42 -105 42c-38 0 -56 -14 -56 -39c0 -32 46 -44 97 -63
c63 -23 134 -58 134 -149c0 -90 -71 -160 -204 -160zM232 -226c-48 0 -81 32 -81 77s33 77 81 77s81 -32 81 -77s-33 -77 -81 -77z" />
    <glyph glyph-name="germandbls" unicode="&#xdf;" horiz-adv-x="632" 
d="M421 -12c-59 0 -103 17 -151 45l51 100c34 -25 64 -36 95 -36c34 0 55 20 55 48c0 76 -176 73 -176 205c0 77 71 104 71 177c0 39 -23 68 -64 68c-61 0 -92 -48 -92 -125v-470h-145v487c0 129 76 224 237 224c137 0 205 -81 205 -167c0 -95 -78 -125 -78 -176
c0 -66 176 -62 176 -216c0 -91 -63 -164 -184 -164z" />
    <glyph glyph-name="tcaron" unicode="&#x165;" horiz-adv-x="383" 
d="M256 -12c-123 0 -171 77 -171 192v201h-68v109l76 6l17 132h122v-132h119v-115h-119v-199c0 -56 25 -79 64 -79c16 0 34 5 47 10l23 -107c-26 -8 -62 -18 -110 -18zM280 548l-6 222h95l-2 -69l-24 -153h-63z" />
    <glyph glyph-name="uni0163" unicode="&#x163;" horiz-adv-x="383" 
d="M139 -239l-11 59c78 4 103 16 103 44c0 20 -16 34 -77 42l44 89c-80 21 -113 90 -113 185v201h-68v109l76 6l17 132h122v-132h119v-115h-119v-199c0 -56 25 -79 64 -79c16 0 34 5 47 10l23 -107c-21 -7 -49 -14 -84 -17l-22 -50c50 -12 76 -33 76 -75
c0 -68 -72 -99 -197 -103z" />
    <glyph glyph-name="uni021B" unicode="&#x21b;" horiz-adv-x="383" 
d="M256 -12c-123 0 -171 77 -171 192v201h-68v109l76 6l17 132h122v-132h119v-115h-119v-199c0 -56 25 -79 64 -79c16 0 34 5 47 10l23 -107c-26 -8 -62 -18 -110 -18zM133 -239l-11 59c78 4 103 16 103 39c0 19 -19 31 -64 35l28 54c107 -9 141 -35 141 -84
c0 -68 -72 -99 -197 -103z" />
    <glyph glyph-name="uni1E6D" unicode="&#x1e6d;" horiz-adv-x="383" 
d="M256 -12c-123 0 -171 77 -171 192v201h-68v109l76 6l17 132h122v-132h119v-115h-119v-199c0 -56 25 -79 64 -79c16 0 34 5 47 10l23 -107c-26 -8 -62 -18 -110 -18zM236 -226c-48 0 -81 32 -81 77s33 77 81 77s81 -32 81 -77s-33 -77 -81 -77z" />
    <glyph glyph-name="uni1E6F" unicode="&#x1e6f;" horiz-adv-x="383" 
d="M256 -12c-123 0 -171 77 -171 192v201h-68v109l76 6l17 132h122v-132h119v-115h-119v-199c0 -56 25 -79 64 -79c16 0 34 5 47 10l23 -107c-26 -8 -62 -18 -110 -18zM87 -188v93h296v-93h-296z" />
    <glyph glyph-name="uni1E97" unicode="&#x1e97;" horiz-adv-x="383" 
d="M256 -12c-123 0 -171 77 -171 192v201h-68v109l76 6l17 132h122v-132h119v-115h-119v-199c0 -56 25 -79 64 -79c16 0 34 5 47 10l23 -107c-26 -8 -62 -18 -110 -18zM58 709c-42 0 -72 31 -72 72c0 40 30 71 72 71s71 -31 71 -71c0 -41 -29 -72 -71 -72zM276 709
c-42 0 -71 31 -71 72c0 40 29 71 71 71s72 -31 72 -71c0 -41 -30 -72 -72 -72z" />
    <glyph glyph-name="uni0167" unicode="&#x167;" horiz-adv-x="383" 
d="M17 223v65l68 5v88h-68v109l76 6l17 132h122v-132h119v-115h-119v-87h119v-71h-119v-41c0 -56 25 -79 64 -79c16 0 34 5 47 10l23 -107c-26 -8 -62 -18 -110 -18c-123 0 -171 77 -171 192v43h-68z" />
    <glyph glyph-name="ugrave" unicode="&#xf9;" horiz-adv-x="568" 
d="M214 -12c-108 0 -154 76 -154 200v308h147v-289c0 -71 19 -94 62 -94c37 0 59 16 88 55v328h147v-496h-120l-11 69h-3c-42 -50 -88 -81 -156 -81zM275 572l-181 157l99 97l154 -182z" />
    <glyph glyph-name="uacute" unicode="&#xfa;" horiz-adv-x="568" 
d="M214 -12c-108 0 -154 76 -154 200v308h147v-289c0 -71 19 -94 62 -94c37 0 59 16 88 55v328h147v-496h-120l-11 69h-3c-42 -50 -88 -81 -156 -81zM295 572l-72 72l154 182l99 -97z" />
    <glyph glyph-name="ucircumflex" unicode="&#xfb;" horiz-adv-x="568" 
d="M214 -12c-108 0 -154 76 -154 200v308h147v-289c0 -71 19 -94 62 -94c37 0 59 16 88 55v328h147v-496h-120l-11 69h-3c-42 -50 -88 -81 -156 -81zM102 613l108 131h150l108 -131l-56 -52l-125 92h-4l-125 -92z" />
    <glyph glyph-name="utilde" unicode="&#x169;" horiz-adv-x="568" 
d="M214 -12c-108 0 -154 76 -154 200v308h147v-289c0 -71 19 -94 62 -94c37 0 59 16 88 55v328h147v-496h-120l-11 69h-3c-42 -50 -88 -81 -156 -81zM351 573c-63 0 -98 64 -129 64c-20 0 -31 -16 -35 -55l-92 5c3 103 47 152 124 152c63 0 98 -64 129 -64c20 0 31 17 35 55
l92 -5c-3 -103 -47 -152 -124 -152z" />
    <glyph glyph-name="udieresis" unicode="&#xfc;" horiz-adv-x="568" 
d="M214 -12c-108 0 -154 76 -154 200v308h147v-289c0 -71 19 -94 62 -94c37 0 59 16 88 55v328h147v-496h-120l-11 69h-3c-42 -50 -88 -81 -156 -81zM176 569c-42 0 -72 31 -72 72c0 40 30 71 72 71s71 -31 71 -71c0 -41 -29 -72 -71 -72zM394 569c-42 0 -71 31 -71 72
c0 40 29 71 71 71s72 -31 72 -71c0 -41 -30 -72 -72 -72z" />
    <glyph glyph-name="umacron" unicode="&#x16b;" horiz-adv-x="568" 
d="M214 -12c-108 0 -154 76 -154 200v308h147v-289c0 -71 19 -94 62 -94c37 0 59 16 88 55v328h147v-496h-120l-11 69h-3c-42 -50 -88 -81 -156 -81zM136 592v93h296v-93h-296z" />
    <glyph glyph-name="ubreve" unicode="&#x16d;" horiz-adv-x="568" 
d="M214 -12c-108 0 -154 76 -154 200v308h147v-289c0 -71 19 -94 62 -94c37 0 59 16 88 55v328h147v-496h-120l-11 69h-3c-42 -50 -88 -81 -156 -81zM285 572c-114 0 -166 69 -169 157l84 14c6 -43 32 -79 85 -79s79 36 85 79l84 -14c-3 -88 -54 -157 -169 -157z" />
    <glyph glyph-name="uring" unicode="&#x16f;" horiz-adv-x="568" 
d="M214 -12c-108 0 -154 76 -154 200v308h147v-289c0 -71 19 -94 62 -94c37 0 59 16 88 55v328h147v-496h-120l-11 69h-3c-42 -50 -88 -81 -156 -81zM285 564c-87 0 -132 46 -132 104s45 104 132 104s132 -46 132 -104s-45 -104 -132 -104zM285 619c24 0 43 20 43 49
s-19 49 -43 49s-43 -20 -43 -49s19 -49 43 -49z" />
    <glyph glyph-name="uhungarumlaut" unicode="&#x171;" horiz-adv-x="568" 
d="M214 -12c-108 0 -154 76 -154 200v308h147v-289c0 -71 19 -94 62 -94c37 0 59 16 88 55v328h147v-496h-120l-11 69h-3c-42 -50 -88 -81 -156 -81zM233 565l-77 35l87 181l99 -44zM412 565l-77 35l87 181l99 -44z" />
    <glyph glyph-name="uni01D4" unicode="&#x1d4;" horiz-adv-x="568" 
d="M214 -12c-108 0 -154 76 -154 200v308h147v-289c0 -71 19 -94 62 -94c37 0 59 16 88 55v328h147v-496h-120l-11 69h-3c-42 -50 -88 -81 -156 -81zM210 577l-108 131l56 52l125 -92h4l125 92l56 -52l-108 -131h-150z" />
    <glyph glyph-name="uni01D6" unicode="&#x1d6;" horiz-adv-x="568" 
d="M214 -12c-108 0 -154 76 -154 200v308h147v-289c0 -71 19 -94 62 -94c37 0 59 16 88 55v328h147v-496h-120l-11 69h-3c-42 -50 -88 -81 -156 -81zM176 571c-36 0 -62 27 -62 61c0 35 26 62 62 62s62 -27 62 -62c0 -34 -26 -61 -62 -61zM137 756v69h296v-69h-296zM394 571
c-36 0 -62 27 -62 61c0 35 26 62 62 62s62 -27 62 -62c0 -34 -26 -61 -62 -61z" />
    <glyph glyph-name="uni01D8" unicode="&#x1d8;" horiz-adv-x="568" 
d="M214 -12c-108 0 -154 76 -154 200v308h147v-289c0 -71 19 -94 62 -94c37 0 59 16 88 55v328h147v-496h-120l-11 69h-3c-42 -50 -88 -81 -156 -81zM292 713l-56 36l78 133l78 -52zM176 571c-36 0 -62 27 -62 61c0 35 26 62 62 62s62 -27 62 -62c0 -34 -26 -61 -62 -61z
M394 571c-36 0 -62 27 -62 61c0 35 26 62 62 62s62 -27 62 -62c0 -34 -26 -61 -62 -61z" />
    <glyph glyph-name="uni01DA" unicode="&#x1da;" horiz-adv-x="568" 
d="M214 -12c-108 0 -154 76 -154 200v308h147v-289c0 -71 19 -94 62 -94c37 0 59 16 88 55v328h147v-496h-120l-11 69h-3c-42 -50 -88 -81 -156 -81zM183 873l100 -65h4l100 65l48 -44l-92 -92h-116l-92 92zM176 571c-36 0 -62 27 -62 61c0 35 26 62 62 62s62 -27 62 -62
c0 -34 -26 -61 -62 -61zM394 571c-36 0 -62 27 -62 61c0 35 26 62 62 62s62 -27 62 -62c0 -34 -26 -61 -62 -61z" />
    <glyph glyph-name="uni01DC" unicode="&#x1dc;" horiz-adv-x="568" 
d="M214 -12c-108 0 -154 76 -154 200v308h147v-289c0 -71 19 -94 62 -94c37 0 59 16 88 55v328h147v-496h-120l-11 69h-3c-42 -50 -88 -81 -156 -81zM278 713l-100 117l78 52l78 -133zM176 571c-36 0 -62 27 -62 61c0 35 26 62 62 62s62 -27 62 -62c0 -34 -26 -61 -62 -61z
M394 571c-36 0 -62 27 -62 61c0 35 26 62 62 62s62 -27 62 -62c0 -34 -26 -61 -62 -61z" />
    <glyph glyph-name="uni1EE5" unicode="&#x1ee5;" horiz-adv-x="568" 
d="M214 -12c-108 0 -154 76 -154 200v308h147v-289c0 -71 19 -94 62 -94c37 0 59 16 88 55v328h147v-496h-120l-11 69h-3c-42 -50 -88 -81 -156 -81zM303 -226c-48 0 -81 32 -81 77s33 77 81 77s81 -32 81 -77s-33 -77 -81 -77z" />
    <glyph glyph-name="uni1EE7" unicode="&#x1ee7;" horiz-adv-x="568" 
d="M214 -12c-108 0 -154 76 -154 200v308h147v-289c0 -71 19 -94 62 -94c37 0 59 16 88 55v328h147v-496h-120l-11 69h-3c-42 -50 -88 -81 -156 -81zM242 568l-12 58c25 5 45 14 45 35c0 24 -22 38 -80 42l9 90c131 -3 178 -51 178 -121c0 -68 -65 -98 -140 -104z" />
    <glyph glyph-name="uogonek" unicode="&#x173;" horiz-adv-x="568" 
d="M423 -210c-59 0 -106 31 -106 91c0 59 42 99 69 117l-13 71h-3c-42 -50 -88 -81 -156 -81c-108 0 -154 76 -154 200v308h147v-289c0 -71 19 -94 62 -94c37 0 59 16 88 55v328h147v-496c-66 -20 -88 -55 -88 -85c0 -26 21 -38 42 -38c13 0 27 6 36 12l30 -66
c-25 -20 -70 -33 -101 -33z" />
    <glyph glyph-name="uhorn" unicode="&#x1b0;" horiz-adv-x="568" 
d="M214 -12c-108 0 -154 76 -154 200v308h147v-289c0 -71 19 -94 62 -94c37 0 59 16 88 55v328h46c38 2 81 15 81 92c0 22 -8 43 -15 57l108 47c16 -20 30 -57 30 -94c0 -81 -47 -129 -103 -147v-451h-120l-11 69h-3c-42 -50 -88 -81 -156 -81z" />
    <glyph glyph-name="uni1EE9" unicode="&#x1ee9;" horiz-adv-x="568" 
d="M214 -12c-108 0 -154 76 -154 200v308h147v-289c0 -71 19 -94 62 -94c37 0 59 16 88 55v328h46c38 2 81 15 81 92c0 22 -8 43 -15 57l108 47c16 -20 30 -57 30 -94c0 -81 -47 -129 -103 -147v-451h-120l-11 69h-3c-42 -50 -88 -81 -156 -81zM284 572l-72 72l154 182
l99 -97z" />
    <glyph glyph-name="uni1EEB" unicode="&#x1eeb;" horiz-adv-x="568" 
d="M214 -12c-108 0 -154 76 -154 200v308h147v-289c0 -71 19 -94 62 -94c37 0 59 16 88 55v328h46c38 2 81 15 81 92c0 22 -8 43 -15 57l108 47c16 -20 30 -57 30 -94c0 -81 -47 -129 -103 -147v-451h-120l-11 69h-3c-42 -50 -88 -81 -156 -81zM264 572l-181 157l99 97
l154 -182z" />
    <glyph glyph-name="uni1EED" unicode="&#x1eed;" horiz-adv-x="568" 
d="M214 -12c-108 0 -154 76 -154 200v308h147v-289c0 -71 19 -94 62 -94c37 0 59 16 88 55v328h46c38 2 81 15 81 92c0 22 -8 43 -15 57l108 47c16 -20 30 -57 30 -94c0 -81 -47 -129 -103 -147v-451h-120l-11 69h-3c-42 -50 -88 -81 -156 -81zM231 568l-12 58
c25 5 45 14 45 35c0 24 -22 38 -80 42l9 90c131 -3 178 -51 178 -121c0 -68 -65 -98 -140 -104z" />
    <glyph glyph-name="uni1EEF" unicode="&#x1eef;" horiz-adv-x="568" 
d="M214 -12c-108 0 -154 76 -154 200v308h147v-289c0 -71 19 -94 62 -94c37 0 59 16 88 55v328h46c38 2 81 15 81 92c0 22 -8 43 -15 57l108 47c16 -20 30 -57 30 -94c0 -81 -47 -129 -103 -147v-451h-120l-11 69h-3c-42 -50 -88 -81 -156 -81zM340 573
c-63 0 -98 64 -129 64c-20 0 -31 -16 -35 -55l-92 5c3 103 47 152 124 152c63 0 98 -64 129 -64c20 0 31 17 35 55l92 -5c-3 -103 -47 -152 -124 -152z" />
    <glyph glyph-name="uni1EF1" unicode="&#x1ef1;" horiz-adv-x="568" 
d="M214 -12c-108 0 -154 76 -154 200v308h147v-289c0 -71 19 -94 62 -94c37 0 59 16 88 55v328h46c38 2 81 15 81 92c0 22 -8 43 -15 57l108 47c16 -20 30 -57 30 -94c0 -81 -47 -129 -103 -147v-451h-120l-11 69h-3c-42 -50 -88 -81 -156 -81zM292 -226
c-48 0 -81 32 -81 77s33 77 81 77s81 -32 81 -77s-33 -77 -81 -77z" />
    <glyph glyph-name="wgrave" unicode="&#x1e81;" horiz-adv-x="776" 
d="M148 0l-124 496h146l48 -230c8 -49 14 -97 22 -147h4c9 50 17 100 29 147l55 230h127l56 -230c12 -49 21 -97 31 -147h4c9 50 14 98 23 147l47 230h136l-119 -496h-172l-45 198c-10 46 -18 92 -27 145h-4c-9 -53 -16 -99 -25 -145l-44 -198h-168zM379 572l-181 157l99 97
l154 -182z" />
    <glyph glyph-name="wacute" unicode="&#x1e83;" horiz-adv-x="776" 
d="M148 0l-124 496h146l48 -230c8 -49 14 -97 22 -147h4c9 50 17 100 29 147l55 230h127l56 -230c12 -49 21 -97 31 -147h4c9 50 14 98 23 147l47 230h136l-119 -496h-172l-45 198c-10 46 -18 92 -27 145h-4c-9 -53 -16 -99 -25 -145l-44 -198h-168zM399 572l-72 72l154 182
l99 -97z" />
    <glyph glyph-name="wcircumflex" unicode="&#x175;" horiz-adv-x="776" 
d="M148 0l-124 496h146l48 -230c8 -49 14 -97 22 -147h4c9 50 17 100 29 147l55 230h127l56 -230c12 -49 21 -97 31 -147h4c9 50 14 98 23 147l47 230h136l-119 -496h-172l-45 198c-10 46 -18 92 -27 145h-4c-9 -53 -16 -99 -25 -145l-44 -198h-168zM206 613l108 131h150
l108 -131l-56 -52l-125 92h-4l-125 -92z" />
    <glyph glyph-name="wdieresis" unicode="&#x1e85;" horiz-adv-x="776" 
d="M148 0l-124 496h146l48 -230c8 -49 14 -97 22 -147h4c9 50 17 100 29 147l55 230h127l56 -230c12 -49 21 -97 31 -147h4c9 50 14 98 23 147l47 230h136l-119 -496h-172l-45 198c-10 46 -18 92 -27 145h-4c-9 -53 -16 -99 -25 -145l-44 -198h-168zM280 569
c-42 0 -72 31 -72 72c0 40 30 71 72 71s71 -31 71 -71c0 -41 -29 -72 -71 -72zM498 569c-42 0 -71 31 -71 72c0 40 29 71 71 71s72 -31 72 -71c0 -41 -30 -72 -72 -72z" />
    <glyph glyph-name="ygrave" unicode="&#x1ef3;" horiz-adv-x="521" 
d="M120 -194c-30 0 -50 4 -70 10l26 112c9 -2 22 -6 33 -6c49 0 74 26 87 65l7 26l-191 483h148l71 -213c14 -45 26 -92 39 -141h4c11 47 22 94 34 141l60 213h141l-172 -501c-47 -125 -100 -189 -217 -189zM257 572l-181 157l99 97l154 -182z" />
    <glyph glyph-name="yacute" unicode="&#xfd;" horiz-adv-x="521" 
d="M120 -194c-30 0 -50 4 -70 10l26 112c9 -2 22 -6 33 -6c49 0 74 26 87 65l7 26l-191 483h148l71 -213c14 -45 26 -92 39 -141h4c11 47 22 94 34 141l60 213h141l-172 -501c-47 -125 -100 -189 -217 -189zM277 572l-72 72l154 182l99 -97z" />
    <glyph glyph-name="ycircumflex" unicode="&#x177;" horiz-adv-x="521" 
d="M120 -194c-30 0 -50 4 -70 10l26 112c9 -2 22 -6 33 -6c49 0 74 26 87 65l7 26l-191 483h148l71 -213c14 -45 26 -92 39 -141h4c11 47 22 94 34 141l60 213h141l-172 -501c-47 -125 -100 -189 -217 -189zM84 613l108 131h150l108 -131l-56 -52l-125 92h-4l-125 -92z" />
    <glyph glyph-name="ydieresis" unicode="&#xff;" horiz-adv-x="521" 
d="M120 -194c-30 0 -50 4 -70 10l26 112c9 -2 22 -6 33 -6c49 0 74 26 87 65l7 26l-191 483h148l71 -213c14 -45 26 -92 39 -141h4c11 47 22 94 34 141l60 213h141l-172 -501c-47 -125 -100 -189 -217 -189zM158 569c-42 0 -72 31 -72 72c0 40 30 71 72 71s71 -31 71 -71
c0 -41 -29 -72 -71 -72zM376 569c-42 0 -71 31 -71 72c0 40 29 71 71 71s72 -31 72 -71c0 -41 -30 -72 -72 -72z" />
    <glyph glyph-name="uni1E8F" unicode="&#x1e8f;" horiz-adv-x="521" 
d="M120 -194c-30 0 -50 4 -70 10l26 112c9 -2 22 -6 33 -6c49 0 74 26 87 65l7 26l-191 483h148l71 -213c14 -45 26 -92 39 -141h4c11 47 22 94 34 141l60 213h141l-172 -501c-47 -125 -100 -189 -217 -189zM267 569c-48 0 -81 32 -81 77s33 77 81 77s81 -32 81 -77
s-33 -77 -81 -77z" />
    <glyph glyph-name="uni1EF5" unicode="&#x1ef5;" horiz-adv-x="521" 
d="M120 -194c-30 0 -50 4 -70 10l26 112c9 -2 22 -6 33 -6c49 0 74 26 87 65l7 26l-191 483h148l71 -213c14 -45 26 -92 39 -141h4c11 47 22 94 34 141l60 213h141l-172 -501c-47 -125 -100 -189 -217 -189zM447 -218c-48 0 -81 32 -81 77s33 77 81 77s81 -32 81 -77
s-33 -77 -81 -77z" />
    <glyph glyph-name="uni1EF7" unicode="&#x1ef7;" horiz-adv-x="521" 
d="M120 -194c-30 0 -50 4 -70 10l26 112c9 -2 22 -6 33 -6c49 0 74 26 87 65l7 26l-191 483h148l71 -213c14 -45 26 -92 39 -141h4c11 47 22 94 34 141l60 213h141l-172 -501c-47 -125 -100 -189 -217 -189zM224 568l-12 58c25 5 45 14 45 35c0 24 -22 38 -80 42l9 90
c131 -3 178 -51 178 -121c0 -68 -65 -98 -140 -104z" />
    <glyph glyph-name="uni1EF9" unicode="&#x1ef9;" horiz-adv-x="521" 
d="M120 -194c-30 0 -50 4 -70 10l26 112c9 -2 22 -6 33 -6c49 0 74 26 87 65l7 26l-191 483h148l71 -213c14 -45 26 -92 39 -141h4c11 47 22 94 34 141l60 213h141l-172 -501c-47 -125 -100 -189 -217 -189zM333 573c-63 0 -98 64 -129 64c-20 0 -31 -16 -35 -55l-92 5
c3 103 47 152 124 152c63 0 98 -64 129 -64c20 0 31 17 35 55l92 -5c-3 -103 -47 -152 -124 -152z" />
    <glyph glyph-name="zacute" unicode="&#x17a;" horiz-adv-x="460" 
d="M38 0v79l208 302h-185v115h368v-78l-208 -303h215v-115h-398zM255 572l-72 72l154 182l99 -97z" />
    <glyph glyph-name="zcaron" unicode="&#x17e;" horiz-adv-x="460" 
d="M38 0v79l208 302h-185v115h368v-78l-208 -303h215v-115h-398zM170 577l-108 131l56 52l125 -92h4l125 92l56 -52l-108 -131h-150z" />
    <glyph glyph-name="zdotaccent" unicode="&#x17c;" horiz-adv-x="460" 
d="M38 0v79l208 302h-185v115h368v-78l-208 -303h215v-115h-398zM245 569c-48 0 -81 32 -81 77s33 77 81 77s81 -32 81 -77s-33 -77 -81 -77z" />
    <glyph glyph-name="uni1E93" unicode="&#x1e93;" horiz-adv-x="460" 
d="M38 0v79l208 302h-185v115h368v-78l-208 -303h215v-115h-398zM245 -226c-48 0 -81 32 -81 77s33 77 81 77s81 -32 81 -77s-33 -77 -81 -77z" />
    <glyph glyph-name="uni1E95" unicode="&#x1e95;" horiz-adv-x="460" 
d="M38 0v79l208 302h-185v115h368v-78l-208 -303h215v-115h-398zM97 -188v93h296v-93h-296z" />
    <glyph glyph-name="eth" unicode="&#xf0;" horiz-adv-x="560" 
d="M273 -12c-124 0 -231 93 -231 240c0 143 99 227 203 227c39 0 78 -12 106 -42c-18 53 -46 96 -85 133l-142 -71l-38 65l116 58c-27 19 -57 36 -90 53l64 89c47 -24 94 -52 138 -85l143 72l38 -65l-120 -61c79 -80 135 -186 135 -335c0 -161 -90 -278 -237 -278zM278 107
c56 0 95 48 95 151c0 16 0 30 -1 45c-30 33 -63 43 -97 43c-58 0 -99 -38 -99 -118c0 -79 47 -121 102 -121z" />
    <glyph glyph-name="thorn" unicode="&#xfe;" horiz-adv-x="573" 
d="M65 -184v885h147v-172l-4 -70c35 30 79 49 124 49c125 0 202 -99 202 -252c0 -170 -102 -268 -209 -268c-48 0 -83 17 -117 47l4 -74v-145h-147zM291 108c51 0 92 44 92 146c0 89 -27 134 -86 134c-30 0 -56 -14 -85 -45v-203c26 -24 54 -32 79 -32z" />
    <glyph glyph-name="uni014B" unicode="&#x14b;" horiz-adv-x="572" 
d="M335 -187c-41 0 -67 6 -88 14l27 108c13 -4 25 -6 38 -6c40 0 53 24 53 80v280c0 72 -19 94 -61 94c-37 0 -60 -17 -92 -48v-335h-147v496h120l10 -63h4c42 40 92 75 159 75c108 0 154 -76 154 -200v-295c0 -109 -42 -200 -177 -200z" />
    <glyph glyph-name="uni0237" unicode="&#x237;" horiz-adv-x="278" 
d="M36 -196c-41 0 -67 6 -87 14l26 108c13 -4 25 -7 39 -7c39 0 52 25 52 80v497h147v-493c0 -108 -42 -199 -177 -199z" />
    <glyph glyph-name="uni0133" unicode="&#x133;" horiz-adv-x="554" 
d="M65 0v496h147v-496h-147zM138 569c-49 0 -85 32 -85 77s36 76 85 76c50 0 85 -31 85 -76s-35 -77 -85 -77zM312 -196c-41 0 -67 6 -87 14l26 108c13 -4 25 -7 39 -7c39 0 52 25 52 80v497h147v-493c0 -108 -42 -199 -177 -199zM416 569c-49 0 -85 32 -85 77s36 76 85 76
s85 -31 85 -76s-36 -77 -85 -77z" />
    <glyph glyph-name="uni0250" unicode="&#x250;" horiz-adv-x="534" 
d="M277 -12c-141 0 -219 77 -219 230v278h120l11 -61h4c39 44 91 73 157 73c85 0 135 -58 135 -136c0 -107 -83 -175 -280 -197c4 -42 31 -70 94 -70c42 0 80 18 128 45l52 -97c-60 -38 -129 -65 -202 -65zM205 265c105 15 139 45 139 84c0 30 -21 45 -50 45
c-33 0 -61 -19 -89 -52v-77z" />
    <glyph glyph-name="uni0252" unicode="&#x252;" horiz-adv-x="573" 
d="M325 -12c-43 0 -89 19 -129 61h-4l-12 -49h-115v496h120l10 -49h4c39 35 89 61 141 61c120 0 194 -99 194 -252c0 -170 -102 -268 -209 -268zM291 108c51 0 92 44 92 146c0 89 -27 134 -86 134c-30 0 -56 -14 -85 -45v-203c26 -24 54 -32 79 -32z" />
    <glyph glyph-name="uni0253" unicode="&#x253;" horiz-adv-x="573" 
d="M325 -12c-44 0 -90 22 -129 64h-4l-12 -52h-115v500c0 115 55 213 204 213c41 0 77 -10 99 -18l-27 -108c-16 6 -35 10 -51 10c-50 0 -75 -27 -80 -93l-2 -67c38 33 85 55 131 55c120 0 195 -96 195 -244c0 -166 -102 -260 -209 -260zM291 108c51 0 92 41 92 138
c0 83 -27 125 -86 125c-30 0 -57 -13 -85 -44v-187c26 -24 54 -32 79 -32z" />
    <glyph glyph-name="uni0254" unicode="&#x254;" horiz-adv-x="467" 
d="M186 -12c-54 0 -115 16 -163 59l57 96c26 -20 57 -36 90 -36c63 0 111 55 111 141s-45 141 -106 141c-33 0 -53 -8 -77 -29l-70 95c38 30 94 53 164 53c129 0 240 -93 240 -260c0 -165 -109 -260 -246 -260z" />
    <glyph glyph-name="uni0255" unicode="&#x255;" horiz-adv-x="467" 
d="M294 100c34 0 55 19 55 41c0 16 -12 34 -38 34c-25 0 -53 -19 -80 -53c18 -14 40 -22 63 -22zM137 -73l-114 50c17 43 35 82 56 116c-27 41 -43 93 -43 155c0 165 121 260 258 260c61 0 108 -22 145 -53l-64 -88c-24 20 -49 29 -72 29c-76 0 -125 -57 -125 -148
c0 -12 1 -23 3 -33c46 38 95 57 142 57c84 0 135 -50 135 -131c0 -85 -63 -153 -169 -153c-44 0 -85 9 -120 26c-12 -26 -22 -55 -32 -87z" />
    <glyph glyph-name="uni0256" unicode="&#x256;" horiz-adv-x="573" 
d="M528 -187c-111 0 -162 71 -162 151l1 79c-35 -32 -79 -55 -125 -55c-123 0 -203 98 -203 260s101 260 206 260c55 0 88 -20 122 -52l-6 76v181h147v-714c0 -49 11 -70 43 -70c10 0 19 2 29 6l26 -108c-18 -8 -41 -14 -78 -14zM280 108c32 0 57 12 81 45v203
c-26 24 -55 32 -82 32c-47 0 -89 -44 -89 -138c0 -98 33 -142 90 -142z" />
    <glyph glyph-name="uni0257" unicode="&#x257;" horiz-adv-x="573" 
d="M242 -12c-123 0 -203 98 -203 260s101 260 206 260c55 0 88 -20 122 -52l-1 82c0 96 46 175 172 175c32 0 52 -4 69 -10l-26 -108c-7 2 -13 3 -20 3c-38 0 -53 -23 -53 -72v-526h-120l-10 49h-4c-35 -35 -84 -61 -132 -61zM280 108c32 0 57 12 81 45v203
c-26 24 -55 32 -82 32c-47 0 -89 -44 -89 -138c0 -98 33 -142 90 -142z" />
    <glyph glyph-name="uni0258" unicode="&#x258;" horiz-adv-x="518" 
d="M235 -12c-59 0 -129 21 -180 56l48 89c36 -22 74 -33 112 -33c67 0 111 33 124 105h-297c-2 12 -6 39 -6 65c0 135 80 238 222 238c120 0 224 -99 224 -260c0 -164 -105 -260 -247 -260zM162 302h179c-8 63 -40 94 -88 94c-59 0 -91 -39 -91 -94z" />
    <glyph glyph-name="uni0251" unicode="&#x251;" horiz-adv-x="573" 
d="M242 -12c-123 0 -203 98 -203 260s105 260 209 260c50 0 90 -19 129 -61h4l12 49h115v-496h-120l-10 49h-4c-35 -35 -84 -61 -132 -61zM280 108c32 0 57 12 81 45v203c-26 24 -55 32 -82 32c-47 0 -89 -44 -89 -138c0 -98 33 -142 90 -142z" />
    <glyph glyph-name="uni0299" unicode="&#x299;" horiz-adv-x="528" 
d="M65 0v496h211c111 0 199 -32 199 -131c0 -42 -24 -86 -83 -102v-4c62 -15 102 -49 102 -116c0 -102 -93 -143 -206 -143h-223zM208 302h58c49 0 69 18 69 48s-19 49 -68 49h-59v-97zM208 97h71c53 0 73 23 73 56c0 29 -22 52 -74 52h-70v-108z" />
    <glyph glyph-name="uni0259" unicode="&#x259;" horiz-adv-x="518" 
d="M249 -12c-141 0 -213 103 -213 240c0 26 4 53 6 65h297c-11 70 -52 103 -114 103c-38 0 -74 -12 -108 -33l-49 95c54 36 120 50 182 50c131 0 232 -98 232 -260c0 -161 -109 -260 -233 -260zM246 100c48 0 85 29 95 96h-179c0 -57 25 -96 84 -96z" />
    <glyph glyph-name="uni025A" unicode="&#x25a;" horiz-adv-x="707" 
d="M260 -12c-151 0 -217 109 -224 229l289 123c-19 39 -53 56 -101 56c-38 0 -72 -12 -107 -33l-49 95c55 36 120 50 176 50c96 0 165 -44 204 -116l93 40l70 -26c2 -75 15 -96 46 -96c16 0 29 5 40 11l30 -70c-20 -13 -46 -25 -76 -25c-47 0 -99 18 -121 97l-53 -23
c3 -19 5 -40 5 -61c0 -139 -90 -251 -222 -251zM255 98c53 0 91 53 91 128v17l-179 -77c10 -43 44 -68 88 -68z" />
    <glyph glyph-name="uni025B" unicode="&#x25b;" horiz-adv-x="462" 
d="M269 -12c-113 0 -223 53 -223 153c0 67 43 104 104 119v4c-56 17 -81 62 -81 102c0 99 95 142 202 142c58 0 110 -15 159 -45l-54 -95c-33 18 -61 28 -97 28c-41 0 -66 -20 -66 -50c0 -29 23 -44 69 -44h68v-97h-84c-52 0 -76 -14 -76 -49s39 -56 93 -56
c30 0 66 9 102 31l58 -93c-60 -39 -112 -50 -174 -50z" />
    <glyph glyph-name="uni025C" unicode="&#x25c;" horiz-adv-x="476" 
d="M216 -12c-65 0 -119 11 -183 50l58 93c36 -22 72 -31 102 -31c55 0 93 21 93 56s-24 49 -76 49h-83v97h67c47 0 69 15 69 44c0 30 -23 50 -65 50c-36 0 -65 -10 -98 -28l-54 95c52 30 107 45 169 45c103 0 192 -43 192 -142c0 -40 -25 -85 -81 -102v-4
c61 -15 104 -52 104 -119c0 -100 -105 -153 -214 -153z" />
    <glyph glyph-name="uni025E" unicode="&#x25e;" horiz-adv-x="566" 
d="M270 -12c-115 0 -224 53 -224 153c0 67 43 104 104 119v4c-56 17 -81 62 -81 102c0 99 93 142 201 142c137 0 262 -86 262 -260s-118 -260 -262 -260zM270 100c72 0 111 44 111 148c0 103 -38 148 -107 148c-35 0 -61 -20 -61 -50c0 -29 20 -44 61 -44h31v-97h-47
c-46 0 -68 -14 -68 -49s33 -56 80 -56z" />
    <glyph glyph-name="uni025F" unicode="&#x25f;" horiz-adv-x="321" 
d="M56 -196c-41 0 -67 6 -87 14l26 108c13 -4 25 -7 39 -7c39 0 52 25 52 80v224h-74v65l74 6v202h147v-202h71v-71h-71v-220c0 -108 -42 -199 -177 -199z" />
    <glyph glyph-name="uni0260" unicode="&#x260;" horiz-adv-x="583" 
d="M261 -194c-54 0 -128 18 -185 55l48 97c47 -26 97 -37 137 -37c73 0 100 33 105 80l4 62c-33 -30 -77 -50 -123 -50c-123 0 -203 101 -203 244c0 152 105 251 209 251c50 0 83 -20 117 -52v34c0 80 45 163 173 163c32 0 52 -4 69 -10l-26 -109c-6 3 -13 4 -20 4
c-38 0 -53 -25 -53 -72v-461c0 -129 -91 -199 -252 -199zM285 131c32 0 55 12 81 47v178c-26 24 -55 32 -82 32c-49 0 -91 -46 -91 -129c0 -82 35 -128 92 -128z" />
    <glyph glyph-name="uni0261" unicode="&#x261;" horiz-adv-x="583" 
d="M261 -194c-54 0 -128 18 -185 55l48 97c47 -26 97 -37 137 -37c73 0 100 33 105 80l4 62c-33 -30 -77 -50 -123 -50c-123 0 -203 101 -203 244c0 152 105 251 209 251c50 0 90 -17 127 -58h4l11 46h118v-491c0 -129 -91 -199 -252 -199zM285 131c32 0 55 12 81 47v178
c-26 24 -55 32 -82 32c-49 0 -91 -46 -91 -129c0 -82 35 -128 92 -128z" />
    <glyph glyph-name="uni0262" unicode="&#x262;" horiz-adv-x="517" 
d="M288 -12c-131 0 -252 82 -252 258c0 168 125 262 255 262c83 0 129 -26 172 -60l-66 -88c-30 21 -51 36 -96 36c-59 0 -116 -46 -116 -150c0 -93 46 -146 114 -146c20 0 38 5 51 14v85h-84v98h209v-244c-41 -37 -110 -65 -187 -65z" />
    <glyph glyph-name="uni0263" unicode="&#x263;" horiz-adv-x="523" 
d="M265 -211c-93 0 -154 58 -154 145c0 50 21 88 58 153l-157 409h148l64 -208c13 -42 26 -73 39 -118h4c12 45 25 76 38 118l65 208h141l-151 -408c37 -65 58 -104 58 -154c0 -87 -60 -145 -153 -145zM265 -119c20 0 34 17 34 43c0 28 -10 58 -33 101h-5
c-21 -43 -30 -74 -30 -101c0 -26 13 -43 34 -43z" />
    <glyph glyph-name="uni0264" unicode="&#x264;" horiz-adv-x="569" 
d="M285 -12c-120 0 -197 64 -197 182c0 58 38 123 97 178c-24 29 -53 41 -81 41c-18 0 -35 -5 -46 -14l-42 107c23 17 69 26 108 26c54 0 113 -24 161 -79c47 55 106 79 160 79c40 0 86 -9 108 -26l-41 -107c-12 9 -30 14 -47 14c-28 0 -57 -12 -81 -41
c59 -55 98 -120 98 -178c0 -118 -78 -182 -197 -182zM285 107c38 0 59 27 59 67c0 34 -24 75 -59 108c-36 -33 -60 -74 -60 -108c0 -40 21 -67 60 -67z" />
    <glyph glyph-name="uni0265" unicode="&#x265;" horiz-adv-x="572" 
d="M360 -184v151l7 94c-37 -40 -85 -73 -153 -73c-108 0 -154 76 -154 200v308h147v-289c0 -71 19 -94 62 -94c37 0 62 15 91 55v328h147v-680h-147z" />
    <glyph glyph-name="uni0266" unicode="&#x266;" horiz-adv-x="571" 
d="M65 0v500c0 115 55 213 204 213c41 0 77 -10 99 -18l-27 -108c-16 6 -35 10 -51 10c-50 0 -75 -27 -80 -93l-5 -81c37 34 86 69 153 69c108 0 154 -76 154 -200v-292h-147v273c0 71 -19 93 -61 93c-37 0 -60 -17 -92 -48v-318h-147z" />
    <glyph glyph-name="uni0267" unicode="&#x267;" horiz-adv-x="571" 
d="M335 -187c-41 0 -67 6 -88 14l27 108c13 -4 25 -6 38 -6c40 0 53 24 53 80v264c0 71 -19 93 -61 93c-37 0 -60 -17 -92 -48v-318h-147v500c0 115 55 213 204 213c41 0 77 -10 99 -18l-27 -108c-16 6 -35 10 -51 10c-50 0 -75 -27 -80 -93l-5 -81c37 34 86 69 153 69
c108 0 154 -76 154 -200v-279c0 -109 -42 -200 -177 -200z" />
    <glyph glyph-name="uni029C" unicode="&#x29c;" horiz-adv-x="582" 
d="M67 0v496h147v-179h159v179h147v-496h-147v189h-159v-189h-147z" />
    <glyph glyph-name="uni0268" unicode="&#x268;" horiz-adv-x="321" 
d="M12 223v65l75 6v202h147v-202h70v-71h-70v-223h-147v223h-75zM160 569c-49 0 -85 32 -85 77s36 76 85 76c50 0 85 -31 85 -76s-35 -77 -85 -77z" />
    <glyph glyph-name="uni026A" unicode="&#x26a;" horiz-adv-x="395" 
d="M52 0v115h72v266h-72v115h291v-115h-72v-266h72v-115h-291z" />
    <glyph glyph-name="uni029D" unicode="&#x29d;" horiz-adv-x="360" 
d="M304 -257c-18 45 -39 84 -61 118c-32 -35 -79 -57 -140 -57c-96 0 -154 65 -154 148c0 80 56 133 151 133c15 0 32 -3 49 -8v419h147v-484c0 -10 -1 -21 -2 -31c46 -47 89 -109 123 -187zM99 -84c29 0 44 20 49 52c-19 13 -36 20 -50 20c-24 0 -39 -14 -39 -33
c0 -20 13 -39 40 -39zM222 569c-49 0 -85 32 -85 77s36 76 85 76c50 0 86 -31 86 -76s-36 -77 -86 -77z" />
    <glyph glyph-name="uni026C" unicode="&#x26c;" horiz-adv-x="377" 
d="M137 292c-103 0 -147 46 -147 104c0 56 42 98 102 98c22 0 39 -6 53 -15v222h147v-338h70v-71h-70v-144c0 -31 14 -41 26 -41c6 0 10 0 18 2l18 -109c-16 -7 -41 -12 -74 -12c-101 0 -135 66 -135 166v138h-8zM123 363h22v2c0 21 -10 60 -47 60c-21 0 -30 -12 -30 -29
c0 -18 17 -33 55 -33z" />
    <glyph glyph-name="uni026D" unicode="&#x26d;" horiz-adv-x="286" 
d="M232 -187c-128 0 -167 87 -167 191v697h147v-702c0 -49 11 -70 43 -70c10 0 18 2 28 6l26 -108c-18 -8 -41 -14 -77 -14z" />
    <glyph glyph-name="uni026E" unicode="&#x26e;" horiz-adv-x="640" 
d="M390 -196c-95 0 -159 37 -206 81l66 91c33 -29 73 -53 123 -53c57 0 98 39 98 106c0 59 -38 93 -96 93c-27 0 -36 -3 -59 -12l-48 71l152 200h-208v-381h-147v701h147v-205h383v-78l-149 -196c110 -8 172 -86 172 -190c0 -146 -105 -228 -228 -228z" />
    <glyph glyph-name="uni029F" unicode="&#x29f;" horiz-adv-x="432" 
d="M65 0v496h147v-381h194v-115h-341z" />
    <glyph glyph-name="uni026F" unicode="&#x26f;" horiz-adv-x="857" 
d="M218 -12c-107 0 -155 76 -155 200v308h147v-289c0 -71 20 -94 62 -94c24 0 53 16 84 48v335h147v-289c0 -71 20 -94 61 -94c25 0 53 16 85 48v335h147v-496h-120l-11 64h-3c-41 -41 -86 -76 -151 -76c-70 0 -112 30 -137 84c-43 -46 -90 -84 -156 -84z" />
    <glyph glyph-name="uni0270" unicode="&#x270;" horiz-adv-x="857" 
d="M649 -184v151l7 93c-45 -46 -86 -72 -145 -72c-70 0 -112 30 -137 84c-43 -46 -90 -84 -156 -84c-107 0 -155 76 -155 200v308h147v-289c0 -71 20 -94 62 -94c24 0 53 16 84 48v335h147v-289c0 -71 20 -94 61 -94c25 0 53 16 85 48v335h147v-680h-147z" />
    <glyph glyph-name="uni0271" unicode="&#x271;" horiz-adv-x="857" 
d="M628 -187c-36 0 -60 6 -79 14l26 108c10 -4 20 -6 31 -6c34 0 44 24 44 80v280c0 72 -19 94 -61 94c-25 0 -53 -16 -85 -48v-335h-147v289c0 72 -19 94 -61 94c-24 0 -53 -16 -84 -48v-335h-147v496h120l10 -64h4c41 41 85 76 150 76c70 0 112 -30 137 -83
c44 45 90 83 156 83c107 0 155 -76 155 -200v-295c0 -109 -40 -200 -169 -200z" />
    <glyph glyph-name="uni0272" unicode="&#x272;" horiz-adv-x="572" 
d="M45 -187c-37 0 -60 6 -78 14l26 108c10 -4 19 -6 29 -6c32 0 43 21 43 70v497h120l10 -63h4c42 40 92 75 159 75c108 0 154 -76 154 -200v-308h-147v289c0 72 -19 94 -61 94c-37 0 -60 -17 -92 -48v-331c0 -104 -40 -191 -167 -191z" />
    <glyph glyph-name="uni0273" unicode="&#x273;" horiz-adv-x="572" 
d="M532 -187c-127 0 -167 87 -167 191v285c0 72 -19 94 -61 94c-37 0 -60 -17 -92 -48v-335h-147v496h120l10 -63h4c42 40 92 75 159 75c108 0 154 -76 154 -200v-309c0 -49 11 -70 43 -70c10 0 19 2 29 6l26 -108c-18 -8 -41 -14 -78 -14z" />
    <glyph glyph-name="uni0274" unicode="&#x274;" horiz-adv-x="561" 
d="M65 0v496h135l118 -209c15 -29 36 -75 50 -104h3c-5 60 -12 126 -12 175v138h137v-496h-135l-119 209c-15 29 -35 74 -49 104h-4c6 -61 13 -125 13 -175v-138h-137z" />
    <glyph glyph-name="uni0275" unicode="&#x275;" horiz-adv-x="555" 
d="M278 -12c-128 0 -242 89 -242 260s114 260 242 260c127 0 241 -89 241 -260s-114 -260 -241 -260zM278 399c-53 0 -88 -34 -100 -97h199c-12 63 -46 97 -99 97zM278 98c55 0 91 37 101 107h-203c10 -70 46 -107 102 -107z" />
    <glyph glyph-name="uni0276" unicode="&#x276;" horiz-adv-x="726" 
d="M291 -12c-129 0 -255 82 -255 259c0 174 126 261 255 261c39 0 66 -2 115 -12h284v-107h-205v-87h174v-97h-174v-100h215v-105h-294c-46 -10 -76 -12 -115 -12zM298 104c13 0 28 2 43 6v274c-15 4 -30 6 -43 6c-57 0 -111 -40 -111 -143c0 -109 54 -143 111 -143z" />
    <glyph glyph-name="uni0278" unicode="&#x278;" horiz-adv-x="738" 
d="M187 248c0 -92 45 -142 115 -146v292c-70 -4 -115 -54 -115 -146zM551 248c0 92 -44 142 -115 146v-292c70 4 115 54 115 146zM302 -184v176c-139 7 -266 96 -266 256s127 249 266 256v197h134v-197c139 -7 266 -96 266 -256s-128 -249 -266 -256v-176h-134z" />
    <glyph glyph-name="uni0279" unicode="&#x279;" horiz-adv-x="398" 
d="M58 -12c-28 0 -44 4 -59 10l25 127c17 -4 32 -8 53 -8c38 0 83 24 110 92v287h147v-496h-120l-11 87h-4c-36 -67 -90 -99 -141 -99z" />
    <glyph glyph-name="uni027A" unicode="&#x27a;" horiz-adv-x="398" 
d="M58 -12c-28 0 -44 4 -59 10l25 127c17 -4 32 -8 53 -8c38 0 83 24 110 92v492h147v-701h-120l-11 87h-4c-36 -67 -90 -99 -141 -99z" />
    <glyph glyph-name="uni027B" unicode="&#x27b;" horiz-adv-x="398" 
d="M354 -187c-115 0 -151 78 -151 169v105h-4c-36 -67 -90 -99 -141 -99c-28 0 -44 4 -59 10l25 127c17 -4 32 -8 53 -8c38 0 83 24 110 92v287h147v-497c0 -49 11 -70 42 -70c11 0 19 2 29 6l26 -108c-18 -8 -41 -14 -77 -14z" />
    <glyph glyph-name="uni027D" unicode="&#x27d;" horiz-adv-x="398" 
d="M232 -187c-128 0 -167 87 -167 191v492h120l10 -87h4c36 67 90 99 141 99c28 0 45 -4 59 -10l-24 -127c-18 5 -33 8 -54 8c-37 0 -83 -24 -109 -91v-289c0 -49 11 -70 43 -70c10 0 18 2 28 6l26 -108c-18 -8 -41 -14 -77 -14z" />
    <glyph glyph-name="uni027E" unicode="&#x27e;" horiz-adv-x="380" 
d="M65 0v304c0 112 60 204 204 204c49 0 87 -6 112 -14l-23 -123c-28 8 -39 10 -68 10c-34 0 -78 -28 -78 -109v-272h-147z" />
    <glyph glyph-name="uni0280" unicode="&#x280;" horiz-adv-x="532" 
d="M65 0v496h204c114 0 205 -40 205 -164c0 -68 -34 -113 -80 -139l123 -193h-163l-89 162h-53v-162h-147zM212 261h39c52 0 78 27 78 67s-26 60 -78 60h-39v-127z" />
    <glyph glyph-name="uni0281" unicode="&#x281;" horiz-adv-x="532" 
d="M263 0c-114 0 -205 41 -205 165c0 68 34 113 80 139l-123 192h163l89 -161h53v161h147v-496h-204zM281 108h39v128h-39c-52 0 -78 -28 -78 -67c0 -41 26 -61 78 -61z" />
    <glyph glyph-name="uni0282" unicode="&#x282;" horiz-adv-x="443" 
d="M211 -12c-20 0 -40 2 -61 6c3 -46 19 -69 54 -69c14 0 25 3 39 7l26 -105c-20 -8 -46 -14 -88 -14c-122 0 -160 91 -160 200v39l66 92c45 -33 86 -47 128 -47c44 0 63 16 63 42c0 33 -50 48 -101 68c-60 23 -131 64 -131 146c0 92 75 155 190 155c76 0 132 -31 175 -63
l-66 -88c-36 26 -70 42 -105 42c-38 0 -56 -14 -56 -39c0 -32 46 -44 97 -63c63 -23 134 -58 134 -149c0 -90 -71 -160 -204 -160z" />
    <glyph glyph-name="uni0283" unicode="&#x283;" horiz-adv-x="278" 
d="M36 -196c-41 0 -67 6 -87 14l26 108c13 -4 25 -7 39 -7c39 0 52 25 52 80v514c0 109 44 200 187 200c37 0 60 -6 78 -14l-26 -108c-10 4 -19 7 -29 7c-47 0 -63 -25 -63 -80v-515c0 -108 -42 -199 -177 -199z" />
    <glyph glyph-name="uni0284" unicode="&#x284;" horiz-adv-x="321" 
d="M56 -196c-41 0 -67 6 -87 14l26 108c13 -4 25 -7 39 -7c39 0 52 25 52 80v224h-74v65l74 6v219c0 109 44 200 187 200c37 0 60 -6 78 -14l-26 -108c-10 4 -19 7 -29 7c-47 0 -63 -25 -63 -80v-224h71v-71h-71v-220c0 -108 -42 -199 -177 -199z" />
    <glyph glyph-name="uni0288" unicode="&#x288;" horiz-adv-x="383" 
d="M256 -187c-123 0 -171 77 -171 192v376h-68v109l76 6l17 132h122v-132h119v-115h-119v-374c0 -56 25 -79 64 -79c16 0 34 5 47 10l23 -107c-26 -8 -62 -18 -110 -18z" />
    <glyph glyph-name="uni0289" unicode="&#x289;" horiz-adv-x="617" 
d="M12 268v65l75 6v157h147v-157h150v157h147v-157h70v-71h-70v-268h-120l-11 69h-3c-42 -50 -88 -81 -156 -81c-108 0 -154 76 -154 200v80h-75zM296 113c37 0 59 16 88 55v100h-150v-61c0 -71 19 -94 62 -94z" />
    <glyph glyph-name="uni028A" unicode="&#x28a;" horiz-adv-x="558" 
d="M279 -12c-153 0 -239 107 -239 213c0 80 35 141 71 177v3h-82v115h214v-95c-37 -46 -56 -92 -56 -168c0 -71 29 -126 92 -126s92 55 92 126c0 76 -19 122 -56 168v95h213v-115h-81v-3c36 -36 71 -97 71 -177c0 -106 -87 -213 -239 -213z" />
    <glyph glyph-name="uni028B" unicode="&#x28b;" horiz-adv-x="552" 
d="M273 -12c-130 0 -213 77 -213 229v279h147v-277c0 -78 27 -112 73 -112c54 0 84 65 84 170c0 80 -16 117 -52 117c-7 0 -13 -1 -20 -3l-16 109c18 6 37 8 68 8c97 0 171 -63 171 -209c0 -186 -82 -311 -242 -311z" />
    <glyph glyph-name="uni028C" unicode="&#x28c;" horiz-adv-x="523" 
d="M12 0l162 496h169l168 -496h-148l-65 234c-12 49 -26 101 -38 153h-4c-13 -52 -26 -104 -39 -153l-64 -234h-141z" />
    <glyph glyph-name="uni028D" unicode="&#x28d;" horiz-adv-x="776" 
d="M24 0l119 496h172l45 -198c9 -46 18 -92 27 -145h4c8 53 15 99 25 145l43 198h169l124 -496h-146l-48 230c-8 49 -14 97 -22 147h-4c-9 -50 -18 -100 -30 -147l-54 -230h-127l-56 230c-12 49 -21 97 -31 147h-4c-9 -50 -14 -98 -23 -147l-47 -230h-136z" />
    <glyph glyph-name="uni028E" unicode="&#x28e;" horiz-adv-x="521" 
d="M12 0l181 524c47 124 100 189 217 189c30 0 50 -4 70 -10l-26 -112c-9 2 -23 6 -33 6c-49 0 -74 -27 -87 -65l-16 -49l191 -483h-147l-71 213c-15 45 -27 92 -40 141h-4c-11 -47 -22 -94 -34 -141l-60 -213h-141z" />
    <glyph glyph-name="uni028F" unicode="&#x28f;" horiz-adv-x="466" 
d="M160 0v150l-168 346h155l43 -107c13 -41 28 -76 42 -118h4c15 42 29 77 44 118l41 107h153l-167 -346v-150h-147z" />
    <glyph glyph-name="uni0290" unicode="&#x290;" horiz-adv-x="460" 
d="M446 -187c-124 0 -167 87 -167 174v13h-241v79l208 302h-185v115h368v-78l-208 -303h205v-116c0 -49 11 -70 43 -70c10 0 19 2 29 6l26 -108c-19 -8 -41 -14 -78 -14z" />
    <glyph glyph-name="uni0291" unicode="&#x291;" horiz-adv-x="503" 
d="M287 -82l-70 15c5 23 10 46 16 67h-195v79l208 302h-185v115h358v-78l-208 -303c20 -2 39 -3 58 -4c37 87 85 143 144 143c64 0 104 -37 104 -110c0 -78 -53 -144 -176 -144h-35c-7 -24 -13 -52 -19 -82zM379 107c41 0 60 20 60 42c0 18 -10 27 -30 27s-43 -21 -66 -69
h36z" />
    <glyph glyph-name="uni0292" unicode="&#x292;" horiz-adv-x="460" 
d="M211 -196c-95 0 -159 37 -206 81l66 91c33 -29 73 -53 123 -53c57 0 98 39 98 106c0 59 -38 93 -96 93c-27 0 -36 -3 -59 -12l-48 71l152 200h-203v115h378v-78l-149 -196c110 -8 172 -86 172 -190c0 -146 -105 -228 -228 -228z" />
    <glyph glyph-name="uni0294" unicode="&#x294;" horiz-adv-x="448" 
d="M129 0v317c114 73 155 119 155 184c0 60 -36 93 -93 93c-51 0 -92 -29 -125 -64l-72 93c47 50 115 90 213 90c121 0 224 -69 224 -205c0 -110 -64 -175 -155 -246v-262h-147z" />
    <glyph glyph-name="uni0295" unicode="&#x295;" horiz-adv-x="506" 
d="M197 0v262c-91 71 -155 136 -155 246c0 136 108 205 234 205c92 0 157 -40 203 -90l-73 -93c-29 35 -68 64 -114 64c-63 0 -103 -33 -103 -93c0 -65 41 -111 155 -184v-317h-147z" />
    <glyph glyph-name="uni02A1" unicode="&#x2a1;" horiz-adv-x="476" 
d="M144 0v201h-133v110l76 6h75c101 73 137 129 137 184c0 60 -36 93 -92 93c-51 0 -93 -29 -125 -64l-73 93c48 50 116 90 214 90c121 0 224 -69 224 -205c0 -74 -52 -134 -117 -191h130v-116h-169v-201h-147z" />
    <glyph glyph-name="uni02A2" unicode="&#x2a2;" horiz-adv-x="476" 
d="M186 0v201h-169v116h129c-64 57 -116 117 -116 191c0 136 108 205 234 205c92 0 157 -40 203 -90l-73 -93c-29 35 -68 64 -114 64c-63 0 -103 -33 -103 -93c0 -55 36 -111 137 -184h76l76 -6v-110h-133v-201h-147z" />
    <glyph glyph-name="uni01C2" unicode="&#x1c2;" horiz-adv-x="330" 
d="M6 330v66l76 5h38v349h96v-349h106v-71h-106v-125h106v-71h-106v-384h-96v384h-114v65l76 6h38v125h-114z" />
    <glyph glyph-name="uni0298" unicode="&#x298;" horiz-adv-x="556" 
d="M278 -12c-136 0 -230 120 -230 364s94 361 230 361s230 -117 230 -361s-94 -364 -230 -364zM278 107c48 0 96 56 96 245c0 183 -48 242 -96 242s-96 -59 -96 -242c0 -189 48 -245 96 -245zM278 290c-34 0 -64 28 -64 63s30 63 64 63s64 -28 64 -63s-30 -63 -64 -63z" />
    <glyph glyph-name="f_f_i" unicode="&#xfb03;" horiz-adv-x="933" 
d="M406 0v381h-169v-381h-147v381h-66v109l66 5v23c0 102 53 185 188 185c42 0 80 -9 103 -18l-27 -109c-16 7 -31 11 -58 11c-34 0 -59 -21 -59 -68v-23h169v26c0 105 49 191 183 191c41 0 77 -10 99 -18l-27 -108c-17 6 -35 10 -51 10c-36 0 -57 -20 -57 -71v-30h89v-115
h-89v-381h-147zM722 0v496h147v-496h-147zM795 569c-49 0 -85 32 -85 77s36 76 85 76c50 0 85 -31 85 -76s-35 -77 -85 -77z" />
    <glyph glyph-name="f_f_l" unicode="&#xfb04;" horiz-adv-x="943" 
d="M406 0v381h-169v-381h-147v381h-66v109l66 5v23c0 102 53 185 188 185c42 0 80 -9 103 -18l-27 -109c-16 7 -31 11 -58 11c-34 0 -59 -21 -59 -68v-23h169v26c0 105 49 191 183 191c41 0 77 -10 99 -18l-27 -108c-17 6 -35 10 -51 10c-36 0 -57 -20 -57 -71v-30h89v-115
h-89v-381h-147zM857 -12c-101 0 -135 66 -135 166v547h147v-553c0 -31 14 -41 26 -41c6 0 10 0 18 2l18 -109c-16 -7 -41 -12 -74 -12z" />
    <glyph glyph-name="I.a" horiz-adv-x="396" 
d="M52 0v124h72v404h-72v124h292v-124h-73v-404h73v-124h-292z" />
    <glyph glyph-name="Igrave.a" horiz-adv-x="396" 
d="M52 0v124h72v404h-72v124h292v-124h-73v-404h73v-124h-292zM208 680l-183 119l78 95l171 -140z" />
    <glyph glyph-name="Iacute.a" horiz-adv-x="396" 
d="M52 0v124h72v404h-72v124h292v-124h-73v-404h73v-124h-292zM188 680l-66 74l171 140l78 -95z" />
    <glyph glyph-name="Icircumflex.a" horiz-adv-x="396" 
d="M52 0v124h72v404h-72v124h292v-124h-73v-404h73v-124h-292zM28 724l90 111h160l90 -111l-64 -39l-104 84h-4l-104 -84z" />
    <glyph glyph-name="Itilde.a" horiz-adv-x="396" 
d="M52 0v124h72v404h-72v124h292v-124h-73v-404h73v-124h-292zM269 692c-71 0 -104 58 -137 58c-19 0 -33 -13 -37 -49l-95 7c5 101 57 144 127 144c71 0 104 -58 137 -58c19 0 33 13 37 49l95 -7c-5 -100 -57 -144 -127 -144z" />
    <glyph glyph-name="Idieresis.a" horiz-adv-x="396" 
d="M52 0v124h72v404h-72v124h292v-124h-73v-404h73v-124h-292zM87 700c-41 0 -70 30 -70 70s29 70 70 70s70 -30 70 -70s-29 -70 -70 -70zM309 700c-41 0 -70 30 -70 70s29 70 70 70s70 -30 70 -70s-29 -70 -70 -70z" />
    <glyph glyph-name="Imacron.a" horiz-adv-x="396" 
d="M52 0v124h72v404h-72v124h292v-124h-73v-404h73v-124h-292zM47 721v94h302v-94h-302z" />
    <glyph glyph-name="Idotaccent.a" horiz-adv-x="396" 
d="M52 0v124h72v404h-72v124h292v-124h-73v-404h73v-124h-292zM198 701c-49 0 -85 32 -85 77s36 77 85 77s85 -32 85 -77s-36 -77 -85 -77z" />
    <glyph glyph-name="uni01CF.a" horiz-adv-x="396" 
d="M52 0v124h72v404h-72v124h292v-124h-73v-404h73v-124h-292zM118 702l-90 110l64 40l104 -84h4l104 84l64 -40l-90 -110h-160z" />
    <glyph glyph-name="uni1EC8.a" horiz-adv-x="396" 
d="M52 0v124h72v404h-72v124h292v-124h-73v-404h73v-124h-292zM155 691l-12 58c25 5 45 12 45 30c0 19 -22 30 -80 34l17 73c124 -3 169 -38 169 -91c0 -69 -64 -98 -139 -104z" />
    <glyph glyph-name="uni1ECA.a" horiz-adv-x="396" 
d="M52 0v124h72v404h-72v124h292v-124h-73v-404h73v-124h-292zM198 -226c-48 0 -81 32 -81 77s33 77 81 77s81 -32 81 -77s-33 -77 -81 -77z" />
    <glyph glyph-name="Iogonek.a" horiz-adv-x="396" 
d="M204 -223c-64 0 -115 34 -115 94c0 61 45 109 72 129h-109v124h72v404h-72v124h292v-124h-73v-404h73v-124h-93c-34 -28 -54 -60 -54 -90c0 -26 21 -38 42 -38c13 0 26 7 36 14l33 -74c-25 -20 -69 -35 -104 -35z" />
    <glyph glyph-name="uni012C.a" horiz-adv-x="396" 
d="M52 0v124h72v404h-72v124h292v-124h-73v-404h73v-124h-292zM198 697c-99 0 -154 48 -163 137l80 14c9 -41 38 -66 83 -66s74 25 83 66l80 -14c-9 -89 -64 -137 -163 -137z" />
    <glyph glyph-name="uni014A.a" horiz-adv-x="665" 
d="M414 -182c-41 0 -67 6 -87 14l26 109c13 -4 25 -7 39 -7c39 0 52 30 52 66h-7l-170 325l-64 142h-4c6 -72 18 -159 18 -236v-231h-140v652h151l170 -324l64 -144h4c-6 69 -18 161 -18 238v230h140v-634c0 -109 -45 -200 -174 -200z" />
    <glyph glyph-name="a.a" horiz-adv-x="573" 
d="M242 -12c-123 0 -203 98 -203 260s105 260 209 260c50 0 90 -19 129 -61h4l12 49h115v-496h-120l-10 49h-4c-35 -35 -84 -61 -132 -61zM280 108c32 0 57 12 81 45v203c-26 24 -55 32 -82 32c-47 0 -89 -44 -89 -138c0 -98 33 -142 90 -142z" />
    <glyph glyph-name="agrave.a" horiz-adv-x="573" 
d="M242 -12c-123 0 -203 98 -203 260s105 260 209 260c50 0 90 -19 129 -61h4l12 49h115v-496h-120l-10 49h-4c-35 -35 -84 -61 -132 -61zM280 108c32 0 57 12 81 45v203c-26 24 -55 32 -82 32c-47 0 -89 -44 -89 -138c0 -98 33 -142 90 -142zM289 572l-181 157l99 97
l154 -182z" />
    <glyph glyph-name="aacute.a" horiz-adv-x="573" 
d="M242 -12c-123 0 -203 98 -203 260s105 260 209 260c50 0 90 -19 129 -61h4l12 49h115v-496h-120l-10 49h-4c-35 -35 -84 -61 -132 -61zM280 108c32 0 57 12 81 45v203c-26 24 -55 32 -82 32c-47 0 -89 -44 -89 -138c0 -98 33 -142 90 -142zM309 572l-72 72l154 182
l99 -97z" />
    <glyph glyph-name="acircumflex.a" horiz-adv-x="573" 
d="M242 -12c-123 0 -203 98 -203 260s105 260 209 260c50 0 90 -19 129 -61h4l12 49h115v-496h-120l-10 49h-4c-35 -35 -84 -61 -132 -61zM280 108c32 0 57 12 81 45v203c-26 24 -55 32 -82 32c-47 0 -89 -44 -89 -138c0 -98 33 -142 90 -142zM116 613l108 131h150l108 -131
l-56 -52l-125 92h-4l-125 -92z" />
    <glyph glyph-name="atilde.a" horiz-adv-x="573" 
d="M242 -12c-123 0 -203 98 -203 260s105 260 209 260c50 0 90 -19 129 -61h4l12 49h115v-496h-120l-10 49h-4c-35 -35 -84 -61 -132 -61zM280 108c32 0 57 12 81 45v203c-26 24 -55 32 -82 32c-47 0 -89 -44 -89 -138c0 -98 33 -142 90 -142zM365 573c-63 0 -98 64 -129 64
c-20 0 -31 -16 -35 -55l-92 5c3 103 47 152 124 152c63 0 98 -64 129 -64c20 0 31 17 35 55l92 -5c-3 -103 -47 -152 -124 -152z" />
    <glyph glyph-name="adieresis.a" horiz-adv-x="573" 
d="M242 -12c-123 0 -203 98 -203 260s105 260 209 260c50 0 90 -19 129 -61h4l12 49h115v-496h-120l-10 49h-4c-35 -35 -84 -61 -132 -61zM280 108c32 0 57 12 81 45v203c-26 24 -55 32 -82 32c-47 0 -89 -44 -89 -138c0 -98 33 -142 90 -142zM190 569c-42 0 -72 31 -72 72
c0 40 30 71 72 71s71 -31 71 -71c0 -41 -29 -72 -71 -72zM408 569c-42 0 -71 31 -71 72c0 40 29 71 71 71s72 -31 72 -71c0 -41 -30 -72 -72 -72z" />
    <glyph glyph-name="amacron.a" horiz-adv-x="573" 
d="M242 -12c-123 0 -203 98 -203 260s105 260 209 260c50 0 90 -19 129 -61h4l12 49h115v-496h-120l-10 49h-4c-35 -35 -84 -61 -132 -61zM280 108c32 0 57 12 81 45v203c-26 24 -55 32 -82 32c-47 0 -89 -44 -89 -138c0 -98 33 -142 90 -142zM151 592v93h296v-93h-296z" />
    <glyph glyph-name="abreve.a" horiz-adv-x="573" 
d="M242 -12c-123 0 -203 98 -203 260s105 260 209 260c50 0 90 -19 129 -61h4l12 49h115v-496h-120l-10 49h-4c-35 -35 -84 -61 -132 -61zM280 108c32 0 57 12 81 45v203c-26 24 -55 32 -82 32c-47 0 -89 -44 -89 -138c0 -98 33 -142 90 -142zM299 572
c-114 0 -166 69 -169 157l84 14c6 -43 32 -79 85 -79s79 36 85 79l84 -14c-3 -88 -54 -157 -169 -157z" />
    <glyph glyph-name="aring.a" horiz-adv-x="573" 
d="M242 -12c-123 0 -203 98 -203 260s105 260 209 260c50 0 90 -19 129 -61h4l12 49h115v-496h-120l-10 49h-4c-35 -35 -84 -61 -132 -61zM280 108c32 0 57 12 81 45v203c-26 24 -55 32 -82 32c-47 0 -89 -44 -89 -138c0 -98 33 -142 90 -142zM299 564
c-87 0 -132 46 -132 104s45 104 132 104s132 -46 132 -104s-45 -104 -132 -104zM299 619c24 0 43 20 43 49s-19 49 -43 49s-43 -20 -43 -49s19 -49 43 -49z" />
    <glyph glyph-name="uni01CE.a" horiz-adv-x="573" 
d="M242 -12c-123 0 -203 98 -203 260s105 260 209 260c50 0 90 -19 129 -61h4l12 49h115v-496h-120l-10 49h-4c-35 -35 -84 -61 -132 -61zM280 108c32 0 57 12 81 45v203c-26 24 -55 32 -82 32c-47 0 -89 -44 -89 -138c0 -98 33 -142 90 -142zM224 577l-108 131l56 52
l125 -92h4l125 92l56 -52l-108 -131h-150z" />
    <glyph glyph-name="uni1EA1.a" horiz-adv-x="573" 
d="M242 -12c-123 0 -203 98 -203 260s105 260 209 260c50 0 90 -19 129 -61h4l12 49h115v-496h-120l-10 49h-4c-35 -35 -84 -61 -132 -61zM280 108c32 0 57 12 81 45v203c-26 24 -55 32 -82 32c-47 0 -89 -44 -89 -138c0 -98 33 -142 90 -142zM301 -226c-48 0 -81 32 -81 77
s33 77 81 77s81 -32 81 -77s-33 -77 -81 -77z" />
    <glyph glyph-name="uni1EA3.a" horiz-adv-x="573" 
d="M242 -12c-123 0 -203 98 -203 260s105 260 209 260c50 0 90 -19 129 -61h4l12 49h115v-496h-120l-10 49h-4c-35 -35 -84 -61 -132 -61zM280 108c32 0 57 12 81 45v203c-26 24 -55 32 -82 32c-47 0 -89 -44 -89 -138c0 -98 33 -142 90 -142zM256 568l-12 58
c25 5 45 14 45 35c0 24 -22 38 -80 42l9 90c131 -3 178 -51 178 -121c0 -68 -65 -98 -140 -104z" />
    <glyph glyph-name="uni1EA5.a" horiz-adv-x="573" 
d="M242 -12c-123 0 -203 98 -203 260s105 260 209 260c50 0 90 -19 129 -61h4l12 49h115v-496h-120l-10 49h-4c-35 -35 -84 -61 -132 -61zM280 108c32 0 57 12 81 45v203c-26 24 -55 32 -82 32c-47 0 -89 -44 -89 -138c0 -98 33 -142 90 -142zM195 566l-47 52l93 92h116
l93 -92l-47 -52l-102 65h-4zM419 682l79 127l78 -51l-101 -120z" />
    <glyph glyph-name="uni1EA7.a" horiz-adv-x="573" 
d="M242 -12c-123 0 -203 98 -203 260s105 260 209 260c50 0 90 -19 129 -61h4l12 49h115v-496h-120l-10 49h-4c-35 -35 -84 -61 -132 -61zM280 108c32 0 57 12 81 45v203c-26 24 -55 32 -82 32c-47 0 -89 -44 -89 -138c0 -98 33 -142 90 -142zM195 566l-47 52l93 92h116
l93 -92l-47 -52l-102 65h-4zM179 682l-56 -44l-105 119l78 52z" />
    <glyph glyph-name="uni1EA9.a" horiz-adv-x="573" 
d="M242 -12c-123 0 -203 98 -203 260s105 260 209 260c50 0 90 -19 129 -61h4l12 49h115v-496h-120l-10 49h-4c-35 -35 -84 -61 -132 -61zM280 108c32 0 57 12 81 45v203c-26 24 -55 32 -82 32c-47 0 -89 -44 -89 -138c0 -98 33 -142 90 -142zM195 566l-47 52l93 92h116
l93 -92l-47 -52l-102 65h-4zM437 644l-10 50c18 5 30 11 30 29c0 19 -14 29 -65 33l14 62c109 -4 147 -33 147 -80c0 -65 -53 -85 -116 -94z" />
    <glyph glyph-name="uni1EAB.a" horiz-adv-x="573" 
d="M242 -12c-123 0 -203 98 -203 260s105 260 209 260c50 0 90 -19 129 -61h4l12 49h115v-496h-120l-10 49h-4c-35 -35 -84 -61 -132 -61zM280 108c32 0 57 12 81 45v203c-26 24 -55 32 -82 32c-47 0 -89 -44 -89 -138c0 -98 33 -142 90 -142zM195 566l-47 52l93 84h116
l93 -84l-47 -52l-102 56h-4zM151 727c8 76 39 111 90 111c55 0 79 -42 108 -42c16 0 25 11 31 38l67 -7c-8 -76 -39 -111 -90 -111c-55 0 -79 42 -108 42c-16 0 -25 -11 -31 -38z" />
    <glyph glyph-name="uni1EAD.a" horiz-adv-x="573" 
d="M242 -12c-123 0 -203 98 -203 260s105 260 209 260c50 0 90 -19 129 -61h4l12 49h115v-496h-120l-10 49h-4c-35 -35 -84 -61 -132 -61zM280 108c32 0 57 12 81 45v203c-26 24 -55 32 -82 32c-47 0 -89 -44 -89 -138c0 -98 33 -142 90 -142zM116 613l108 131h150l108 -131
l-56 -52l-125 92h-4l-125 -92zM301 -226c-48 0 -81 32 -81 77s33 77 81 77s81 -32 81 -77s-33 -77 -81 -77z" />
    <glyph glyph-name="uni1EAF.a" horiz-adv-x="573" 
d="M242 -12c-123 0 -203 98 -203 260s105 260 209 260c50 0 90 -19 129 -61h4l12 49h115v-496h-120l-10 49h-4c-35 -35 -84 -61 -132 -61zM280 108c32 0 57 12 81 45v203c-26 24 -55 32 -82 32c-47 0 -89 -44 -89 -138c0 -98 33 -142 90 -142zM308 699l-64 44l93 141l87 -65
zM299 572c-114 0 -166 69 -169 157l75 14c8 -48 36 -88 94 -88s86 40 94 88l75 -14c-3 -88 -54 -157 -169 -157z" />
    <glyph glyph-name="uni1EB1.a" horiz-adv-x="573" 
d="M242 -12c-123 0 -203 98 -203 260s105 260 209 260c50 0 90 -19 129 -61h4l12 49h115v-496h-120l-10 49h-4c-35 -35 -84 -61 -132 -61zM280 108c32 0 57 12 81 45v203c-26 24 -55 32 -82 32c-47 0 -89 -44 -89 -138c0 -98 33 -142 90 -142zM290 699l-116 120l87 65
l93 -141zM299 572c-114 0 -166 69 -169 157l75 14c8 -48 36 -88 94 -88s86 40 94 88l75 -14c-3 -88 -54 -157 -169 -157z" />
    <glyph glyph-name="uni1EB3.a" horiz-adv-x="573" 
d="M242 -12c-123 0 -203 98 -203 260s105 260 209 260c50 0 90 -19 129 -61h4l12 49h115v-496h-120l-10 49h-4c-35 -35 -84 -61 -132 -61zM280 108c32 0 57 12 81 45v203c-26 24 -55 32 -82 32c-47 0 -89 -44 -89 -138c0 -98 33 -142 90 -142zM264 697l-9 51
c19 3 32 10 32 28c0 19 -16 29 -68 33l14 80c111 -4 150 -41 150 -98c0 -65 -54 -86 -119 -94zM299 572c-114 0 -166 69 -169 157l75 14c8 -48 36 -88 94 -88s86 40 94 88l75 -14c-3 -88 -54 -157 -169 -157z" />
    <glyph glyph-name="uni1EB5.a" horiz-adv-x="573" 
d="M242 -12c-123 0 -203 98 -203 260s105 260 209 260c50 0 90 -19 129 -61h4l12 49h115v-496h-120l-10 49h-4c-35 -35 -84 -61 -132 -61zM280 108c32 0 57 12 81 45v203c-26 24 -55 32 -82 32c-47 0 -89 -44 -89 -138c0 -98 33 -142 90 -142zM299 572
c-104 0 -148 53 -154 113l72 12c7 -26 29 -52 82 -52s75 26 82 52l72 -12c-6 -60 -50 -113 -154 -113zM143 725c8 77 43 112 98 112s79 -42 108 -42c16 0 25 11 31 37l75 -7c-8 -76 -43 -111 -98 -111s-79 42 -108 42c-16 0 -25 -11 -31 -38z" />
    <glyph glyph-name="uni1EB7.a" horiz-adv-x="573" 
d="M242 -12c-123 0 -203 98 -203 260s105 260 209 260c50 0 90 -19 129 -61h4l12 49h115v-496h-120l-10 49h-4c-35 -35 -84 -61 -132 -61zM280 108c32 0 57 12 81 45v203c-26 24 -55 32 -82 32c-47 0 -89 -44 -89 -138c0 -98 33 -142 90 -142zM299 572
c-114 0 -166 69 -169 157l84 14c6 -43 32 -79 85 -79s79 36 85 79l84 -14c-3 -88 -54 -157 -169 -157zM301 -226c-48 0 -81 32 -81 77s33 77 81 77s81 -32 81 -77s-33 -77 -81 -77z" />
    <glyph glyph-name="aogonek.a" horiz-adv-x="573" 
d="M427 -210c-58 0 -106 31 -106 91c0 59 43 99 69 117l-12 51h-4c-35 -35 -84 -61 -132 -61c-123 0 -203 98 -203 260s105 260 209 260c50 0 90 -19 129 -61h4l12 49h115v-496c-65 -20 -87 -55 -87 -85c0 -26 20 -38 41 -38c13 0 27 6 36 12l31 -66
c-26 -20 -70 -33 -102 -33zM280 108c32 0 57 12 81 45v203c-26 24 -55 32 -82 32c-47 0 -89 -44 -89 -138c0 -98 33 -142 90 -142z" />
    <glyph glyph-name="g.a" horiz-adv-x="583" 
d="M261 -194c-54 0 -128 18 -185 55l48 97c47 -26 97 -37 137 -37c73 0 100 33 105 80l4 62c-33 -30 -77 -50 -123 -50c-123 0 -203 101 -203 244c0 152 105 251 209 251c50 0 90 -17 127 -58h4l11 46h118v-491c0 -129 -91 -199 -252 -199zM285 131c32 0 55 12 81 47v178
c-26 24 -55 32 -82 32c-49 0 -91 -46 -91 -129c0 -82 35 -128 92 -128z" />
    <glyph glyph-name="uni01F5.a" horiz-adv-x="583" 
d="M261 -194c-54 0 -128 18 -185 55l48 97c47 -26 97 -37 137 -37c73 0 100 33 105 80l4 62c-33 -30 -77 -50 -123 -50c-123 0 -203 101 -203 244c0 152 105 251 209 251c50 0 90 -17 127 -58h4l11 46h118v-491c0 -129 -91 -199 -252 -199zM285 131c32 0 55 12 81 47v178
c-26 24 -55 32 -82 32c-49 0 -91 -46 -91 -129c0 -82 35 -128 92 -128zM311 572l-72 72l154 182l99 -97z" />
    <glyph glyph-name="gcircumflex.a" horiz-adv-x="583" 
d="M261 -194c-54 0 -128 18 -185 55l48 97c47 -26 97 -37 137 -37c73 0 100 33 105 80l4 62c-33 -30 -77 -50 -123 -50c-123 0 -203 101 -203 244c0 152 105 251 209 251c50 0 90 -17 127 -58h4l11 46h118v-491c0 -129 -91 -199 -252 -199zM285 131c32 0 55 12 81 47v178
c-26 24 -55 32 -82 32c-49 0 -91 -46 -91 -129c0 -82 35 -128 92 -128zM118 613l108 131h150l108 -131l-56 -52l-125 92h-4l-125 -92z" />
    <glyph glyph-name="gbreve.a" horiz-adv-x="583" 
d="M261 -194c-54 0 -128 18 -185 55l48 97c47 -26 97 -37 137 -37c73 0 100 33 105 80l4 62c-33 -30 -77 -50 -123 -50c-123 0 -203 101 -203 244c0 152 105 251 209 251c50 0 90 -17 127 -58h4l11 46h118v-491c0 -129 -91 -199 -252 -199zM285 131c32 0 55 12 81 47v178
c-26 24 -55 32 -82 32c-49 0 -91 -46 -91 -129c0 -82 35 -128 92 -128zM301 572c-114 0 -166 69 -169 157l84 14c6 -43 32 -79 85 -79s79 36 85 79l84 -14c-3 -88 -54 -157 -169 -157z" />
    <glyph glyph-name="gdotaccent.a" horiz-adv-x="583" 
d="M261 -194c-54 0 -128 18 -185 55l48 97c47 -26 97 -37 137 -37c73 0 100 33 105 80l4 62c-33 -30 -77 -50 -123 -50c-123 0 -203 101 -203 244c0 152 105 251 209 251c50 0 90 -17 127 -58h4l11 46h118v-491c0 -129 -91 -199 -252 -199zM285 131c32 0 55 12 81 47v178
c-26 24 -55 32 -82 32c-49 0 -91 -46 -91 -129c0 -82 35 -128 92 -128zM301 569c-48 0 -81 32 -81 77s33 77 81 77s81 -32 81 -77s-33 -77 -81 -77z" />
    <glyph glyph-name="uni0123.a" horiz-adv-x="583" 
d="M261 -194c-54 0 -128 18 -185 55l48 97c47 -26 97 -37 137 -37c73 0 100 33 105 80l4 62c-33 -30 -77 -50 -123 -50c-123 0 -203 101 -203 244c0 152 105 251 209 251c50 0 90 -17 127 -58h4l11 46h118v-491c0 -129 -91 -199 -252 -199zM285 131c32 0 55 12 81 47v178
c-26 24 -55 32 -82 32c-49 0 -91 -46 -91 -129c0 -82 35 -128 92 -128zM347 568c-107 9 -141 35 -141 84c0 68 72 99 197 103l11 -59c-78 -4 -103 -15 -103 -39c0 -19 19 -31 64 -35z" />
    <glyph glyph-name="gcaron.a" horiz-adv-x="583" 
d="M261 -194c-54 0 -128 18 -185 55l48 97c47 -26 97 -37 137 -37c73 0 100 33 105 80l4 62c-33 -30 -77 -50 -123 -50c-123 0 -203 101 -203 244c0 152 105 251 209 251c50 0 90 -17 127 -58h4l11 46h118v-491c0 -129 -91 -199 -252 -199zM285 131c32 0 55 12 81 47v178
c-26 24 -55 32 -82 32c-49 0 -91 -46 -91 -129c0 -82 35 -128 92 -128zM226 577l-108 131l56 52l125 -92h4l125 92l56 -52l-108 -131h-150z" />
    <glyph glyph-name="uni1E21.a" horiz-adv-x="583" 
d="M261 -194c-54 0 -128 18 -185 55l48 97c47 -26 97 -37 137 -37c73 0 100 33 105 80l4 62c-33 -30 -77 -50 -123 -50c-123 0 -203 101 -203 244c0 152 105 251 209 251c50 0 90 -17 127 -58h4l11 46h118v-491c0 -129 -91 -199 -252 -199zM285 131c32 0 55 12 81 47v178
c-26 24 -55 32 -82 32c-49 0 -91 -46 -91 -129c0 -82 35 -128 92 -128zM153 592v93h296v-93h-296z" />
    <glyph glyph-name="uni00670303.a" horiz-adv-x="583" 
d="M261 -194c-54 0 -128 18 -185 55l48 97c47 -26 97 -37 137 -37c73 0 100 33 105 80l4 62c-33 -30 -77 -50 -123 -50c-123 0 -203 101 -203 244c0 152 105 251 209 251c50 0 90 -17 127 -58h4l11 46h118v-491c0 -129 -91 -199 -252 -199zM285 131c32 0 55 12 81 47v178
c-26 24 -55 32 -82 32c-49 0 -91 -46 -91 -129c0 -82 35 -128 92 -128zM367 573c-63 0 -98 64 -129 64c-20 0 -31 -16 -35 -55l-92 5c3 103 47 152 124 152c63 0 98 -64 129 -64c20 0 31 17 35 55l92 -5c-3 -103 -47 -152 -124 -152z" />
    <glyph glyph-name="l.a" horiz-adv-x="276" 
d="M65 0v701h147v-701h-147z" />
    <glyph glyph-name="lacute.a" horiz-adv-x="276" 
d="M65 0v701h147v-701h-147zM131 735l-66 74l171 140l78 -95z" />
    <glyph glyph-name="lcaron.a" horiz-adv-x="318" 
d="M65 0v701h147v-701h-147zM255 548l-6 222h95l-2 -69l-24 -153h-63z" />
    <glyph glyph-name="ldot.a" horiz-adv-x="453" 
d="M65 0v701h147v-701h-147zM364 236c-51 0 -89 40 -89 92c0 53 38 93 89 93s89 -40 89 -93c0 -52 -38 -92 -89 -92z" />
    <glyph glyph-name="uni013C.a" horiz-adv-x="276" 
d="M65 0v701h147v-701h-147zM35 -239l-11 59c78 4 103 16 103 39c0 19 -19 31 -64 35l28 54c107 -9 141 -35 141 -84c0 -68 -72 -99 -197 -103z" />
    <glyph glyph-name="uni1E37.a" horiz-adv-x="276" 
d="M65 0v701h147v-701h-147zM138 -226c-48 0 -81 32 -81 77s33 77 81 77s81 -32 81 -77s-33 -77 -81 -77z" />
    <glyph glyph-name="uni1E39.a" horiz-adv-x="276" 
d="M65 0v701h147v-701h-147zM-11 804v93h296v-93h-296zM138 -226c-48 0 -81 32 -81 77s33 77 81 77s81 -32 81 -77s-33 -77 -81 -77z" />
    <glyph glyph-name="uni1E3B.a" horiz-adv-x="276" 
d="M65 0v701h147v-701h-147zM-11 -188v93h296v-93h-296z" />
    <glyph glyph-name="lslash.a" horiz-adv-x="299" 
d="M30 250l-51 91l96 54v306h147v-234l48 27l50 -91l-98 -55v-348h-147v276z" />
    <glyph glyph-name="fl.a" horiz-adv-x="635" 
d="M90 0v381h-66v109l66 5v27c0 105 49 191 183 191c41 0 77 -10 99 -18l-27 -108c-17 6 -35 10 -51 10c-36 0 -57 -20 -57 -71v-30h89v-115h-89v-381h-147zM424 0v701h147v-701h-147z" />
    <glyph glyph-name="Alpha" unicode="&#x391;" horiz-adv-x="573" 
d="M230 330l-16 -60h139l-15 60c-18 65 -36 142 -53 210h-4c-16 -69 -33 -145 -51 -210zM-6 0l204 652h177l204 -652h-156l-40 155h-199l-40 -155h-150z" />
    <glyph glyph-name="Beta" unicode="&#x392;" horiz-adv-x="605" 
d="M77 0v652h223c135 0 240 -37 240 -162c0 -58 -32 -121 -85 -141v-4c66 -17 117 -66 117 -153c0 -133 -112 -192 -253 -192h-242zM224 391h69c72 0 103 30 103 77c0 51 -33 70 -102 70h-70v-147zM224 114h83c80 0 121 28 121 88c0 57 -40 80 -121 80h-83v-168z" />
    <glyph glyph-name="Gamma" unicode="&#x393;" horiz-adv-x="521" 
d="M77 0v652h411v-124h-264v-528h-147z" />
    <glyph glyph-name="uni0394" unicode="&#x394;" horiz-adv-x="640" 
d="M34 0v89l198 563h176l198 -563v-89h-572zM192 124h252l-69 220l-56 195h-4l-55 -195z" />
    <glyph glyph-name="Epsilon" unicode="&#x395;" horiz-adv-x="548" 
d="M77 0v652h408v-124h-261v-131h222v-123h-222v-150h271v-124h-418z" />
    <glyph glyph-name="Zeta" unicode="&#x396;" horiz-adv-x="541" 
d="M36 0v89l288 439h-261v124h442v-89l-288 -439h291v-124h-472z" />
    <glyph glyph-name="Eta" unicode="&#x397;" horiz-adv-x="674" 
d="M77 0v652h147v-251h225v251h148v-652h-148v272h-225v-272h-147z" />
    <glyph glyph-name="Theta" unicode="&#x398;" horiz-adv-x="684" 
d="M244 272v129h196v-129h-196zM342 -12c-176 0 -296 128 -296 341s120 335 296 335s296 -123 296 -335c0 -213 -120 -341 -296 -341zM342 115c89 0 145 83 145 214c0 130 -56 208 -145 208s-145 -78 -145 -208c0 -131 56 -214 145 -214z" />
    <glyph glyph-name="Iota" unicode="&#x399;" horiz-adv-x="301" 
d="M77 0v652h147v-652h-147z" />
    <glyph glyph-name="Kappa" unicode="&#x39a;" horiz-adv-x="614" 
d="M77 0v652h147v-267h4l194 267h162l-197 -260l233 -392h-161l-159 275l-76 -100v-175h-147z" />
    <glyph glyph-name="Lambda" unicode="&#x39b;" horiz-adv-x="556" 
d="M-7 0l196 652h177l197 -652h-156l-78 304c-20 71 -33 137 -52 209h-4c-20 -72 -34 -138 -53 -209l-77 -304h-150z" />
    <glyph glyph-name="Mu" unicode="&#x39c;" horiz-adv-x="762" 
d="M77 0v652h161l105 -290c13 -38 25 -80 38 -120h4c13 40 24 82 37 120l103 290h160v-652h-134v239c0 64 12 159 19 222h-4l-53 -155l-93 -249h-81l-93 249l-52 155h-4c7 -63 19 -158 19 -222v-239h-132z" />
    <glyph glyph-name="Nu" unicode="&#x39d;" horiz-adv-x="665" 
d="M77 0v652h151l170 -324l64 -144h4c-6 69 -18 161 -18 238v230h140v-652h-151l-170 325l-64 142h-4c6 -72 18 -159 18 -236v-231h-140z" />
    <glyph glyph-name="Xi" unicode="&#x39e;" horiz-adv-x="571" 
d="M53 0v124h466v-124h-466zM121 274v123h329v-123h-329zM63 528v124h446v-124h-446z" />
    <glyph glyph-name="Omicron" unicode="&#x39f;" horiz-adv-x="684" 
d="M342 -12c-176 0 -296 128 -296 341s120 335 296 335s296 -123 296 -335c0 -213 -120 -341 -296 -341zM342 115c89 0 145 83 145 214c0 130 -56 208 -145 208s-145 -78 -145 -208c0 -131 56 -214 145 -214z" />
    <glyph glyph-name="Pi" unicode="&#x3a0;" horiz-adv-x="663" 
d="M77 0v652h509v-652h-147v528h-215v-528h-147z" />
    <glyph glyph-name="Rho" unicode="&#x3a1;" horiz-adv-x="596" 
d="M77 0v652h224c143 0 259 -52 259 -210c0 -153 -117 -221 -255 -221h-81v-221h-147zM224 338h72c81 0 120 36 120 104s-44 93 -124 93h-68v-197z" />
    <glyph glyph-name="Sigma" unicode="&#x3a3;" horiz-adv-x="549" 
d="M38 0v89l202 240l-199 234v89h447v-124h-263l162 -195l-165 -209h293v-124h-477z" />
    <glyph glyph-name="Tau" unicode="&#x3a4;" horiz-adv-x="556" 
d="M204 0v528h-179v124h506v-124h-179v-528h-148z" />
    <glyph glyph-name="Upsilon" unicode="&#x3a5;" horiz-adv-x="525" 
d="M189 0v232l-197 420h158l58 -150c18 -49 35 -94 53 -144h4c19 50 37 95 55 144l59 150h154l-197 -420v-232h-147z" />
    <glyph glyph-name="Phi" unicode="&#x3a6;" horiz-adv-x="760" 
d="M187 329c0 -84 50 -140 128 -152v301c-78 -12 -128 -66 -128 -149zM573 329c0 83 -50 137 -128 149v-301c78 12 128 68 128 152zM315 -22v87c-161 13 -267 106 -267 264c0 157 106 246 267 259v86h130v-86c161 -13 267 -102 267 -259c0 -158 -106 -251 -267 -264v-87
h-130z" />
    <glyph glyph-name="Chi" unicode="&#x3a7;" horiz-adv-x="567" 
d="M11 0l181 335l-170 317h164l57 -123c15 -30 29 -64 47 -105h4c15 41 29 75 42 105l52 123h157l-169 -324l180 -328h-164l-65 133c-16 34 -31 67 -49 107h-4c-15 -40 -30 -73 -44 -107l-61 -133h-158z" />
    <glyph glyph-name="Psi" unicode="&#x3a8;" horiz-adv-x="752" 
d="M307 0v219c-159 12 -255 93 -255 272v161h144v-152c0 -112 39 -155 111 -164v316h138v-316c72 9 110 52 110 164v152h144v-161c0 -179 -96 -260 -254 -272v-219h-138z" />
    <glyph glyph-name="uni03A9" unicode="&#x3a9;" horiz-adv-x="711" 
d="M44 0v119h110v4c-43 44 -94 127 -94 235c0 181 118 306 296 306c177 0 296 -125 296 -306c0 -108 -52 -191 -95 -235v-4h110v-119h-267v106c67 63 101 135 101 237c0 113 -55 194 -145 194c-91 0 -145 -81 -145 -194c0 -102 33 -174 100 -237v-106h-267z" />
    <glyph glyph-name="Alphatonos" unicode="&#x386;" horiz-adv-x="622" 
d="M279 330l-16 -60h139l-15 60c-18 65 -36 142 -53 210h-4c-16 -69 -33 -145 -51 -210zM43 0l204 652h177l204 -652h-156l-40 155h-199l-40 -155h-150zM-5 457l28 213l125 -18l-60 -212z" />
    <glyph glyph-name="Epsilontonos" unicode="&#x388;" horiz-adv-x="667" 
d="M196 0v652h408v-124h-261v-131h222v-123h-222v-150h271v-124h-418zM-12 457l28 213l125 -18l-60 -212z" />
    <glyph glyph-name="Etatonos" unicode="&#x389;" horiz-adv-x="792" 
d="M196 0v652h147v-251h225v251h148v-652h-148v272h-225v-272h-147zM-12 457l28 213l125 -18l-60 -212z" />
    <glyph glyph-name="Iotatonos" unicode="&#x38a;" horiz-adv-x="420" 
d="M196 0v652h147v-652h-147zM-12 457l28 213l125 -18l-60 -212z" />
    <glyph glyph-name="Iotadieresis" unicode="&#x3aa;" horiz-adv-x="301" 
d="M77 0v652h147v-652h-147zM40 700c-41 0 -70 30 -70 70s29 70 70 70s70 -30 70 -70s-29 -70 -70 -70zM262 700c-41 0 -70 30 -70 70s29 70 70 70s70 -30 70 -70s-29 -70 -70 -70z" />
    <glyph glyph-name="Omicrontonos" unicode="&#x38c;" horiz-adv-x="777" 
d="M434 -12c-176 0 -296 128 -296 341s120 335 296 335s296 -123 296 -335c0 -213 -120 -341 -296 -341zM434 115c89 0 145 83 145 214c0 130 -56 208 -145 208s-145 -78 -145 -208c0 -131 56 -214 145 -214zM-12 457l28 213l125 -18l-60 -212z" />
    <glyph glyph-name="Upsilontonos" unicode="&#x38e;" horiz-adv-x="704" 
d="M368 0v232l-197 420h158l58 -150c18 -49 35 -94 53 -144h4c19 50 37 95 55 144l59 150h154l-197 -420v-232h-147zM-12 457l28 213l125 -18l-60 -212z" />
    <glyph glyph-name="Upsilondieresis" unicode="&#x3ab;" horiz-adv-x="525" 
d="M189 0v232l-197 420h158l58 -150c18 -49 35 -94 53 -144h4c19 50 37 95 55 144l59 150h154l-197 -420v-232h-147zM151 700c-41 0 -70 30 -70 70s29 70 70 70s70 -30 70 -70s-29 -70 -70 -70zM373 700c-41 0 -70 30 -70 70s29 70 70 70s70 -30 70 -70s-29 -70 -70 -70z
" />
    <glyph glyph-name="Omegatonos" unicode="&#x38f;" horiz-adv-x="803" 
d="M136 0v119h110v4c-43 44 -94 127 -94 235c0 181 118 306 296 306c177 0 296 -125 296 -306c0 -108 -52 -191 -95 -235v-4h110v-119h-267v106c67 63 101 135 101 237c0 113 -55 194 -145 194c-91 0 -145 -81 -145 -194c0 -102 33 -174 100 -237v-106h-267zM-20 457l28 213
l125 -18l-60 -212z" />
    <glyph glyph-name="alpha" unicode="&#x3b1;" horiz-adv-x="595" 
d="M235 -12c-120 0 -199 96 -199 258c0 164 104 262 219 262c56 0 105 -28 137 -99h4l16 87h145c-26 -115 -64 -268 -64 -344c0 -33 20 -45 48 -45c9 0 21 2 32 6l18 -108c-18 -9 -47 -17 -87 -17c-70 0 -110 22 -128 82h-3c-34 -56 -80 -82 -138 -82zM270 108
c44 0 87 48 90 107l7 86c-21 59 -49 87 -89 87c-45 0 -91 -42 -91 -141c0 -96 32 -139 83 -139z" />
    <glyph glyph-name="beta" unicode="&#x3b2;" horiz-adv-x="600" 
d="M64 -177v643c0 139 73 247 232 247c110 0 217 -57 217 -182c0 -67 -30 -116 -84 -150v-4c76 -15 136 -84 136 -177c0 -146 -103 -212 -199 -212c-54 0 -114 14 -164 67c4 -79 7 -156 11 -232h-149zM323 108c53 0 98 33 98 101c0 52 -31 95 -93 95c-15 0 -28 -2 -40 -6
l-18 107c77 11 102 56 102 112c0 54 -36 80 -76 80c-58 0 -87 -55 -90 -140c-3 -97 -5 -191 -5 -288c38 -50 84 -61 122 -61z" />
    <glyph glyph-name="gamma" unicode="&#x3b3;" horiz-adv-x="533" 
d="M185 -177c5 41 7 68 7 136c0 126 -87 367 -193 517l150 32c44 -67 97 -201 133 -342h4c50 103 77 210 84 330h146c-29 -168 -64 -283 -192 -483c11 -62 13 -134 13 -190h-152z" />
    <glyph glyph-name="delta" unicode="&#x3b4;" horiz-adv-x="548" 
d="M273 -12c-127 0 -232 85 -232 228c0 104 70 171 151 206c-55 41 -104 93 -104 169c0 65 58 122 182 122c72 0 151 -17 220 -40l-33 -109c-70 24 -136 40 -187 40c-32 0 -46 -11 -46 -27c0 -35 66 -70 140 -124c89 -65 144 -123 144 -230c0 -140 -88 -235 -235 -235z
M276 107c53 0 90 35 90 117c0 57 -33 96 -77 131c-67 -18 -109 -62 -109 -137c0 -72 44 -111 96 -111z" />
    <glyph glyph-name="epsilon" unicode="&#x3b5;" horiz-adv-x="471" 
d="M268 -12c-128 0 -232 51 -232 153c0 67 37 102 96 118v4c-50 16 -75 63 -75 103c0 99 101 142 213 142c59 0 122 -19 171 -51l-54 -94c-33 22 -71 33 -109 33c-47 0 -77 -20 -77 -50c0 -29 24 -44 70 -44c21 0 46 2 69 4v-105c-28 2 -58 4 -85 4c-52 0 -75 -14 -75 -49
s35 -56 102 -56c32 0 73 9 112 38l57 -93c-64 -46 -120 -57 -183 -57z" />
    <glyph glyph-name="zeta" unicode="&#x3b6;" horiz-adv-x="466" 
d="M389 -187l-115 38c28 38 46 61 46 87c0 27 -20 37 -96 54c-92 20 -183 72 -183 236c0 117 98 259 238 366c-42 -2 -146 -3 -207 -9v116h368v-116h-6c-131 -79 -243 -249 -243 -349c0 -81 29 -111 119 -129c100 -20 139 -53 139 -130c0 -34 -17 -99 -60 -164z" />
    <glyph glyph-name="eta" unicode="&#x3b7;" horiz-adv-x="562" 
d="M353 -177c6 156 11 352 11 466c0 72 -15 94 -59 94c-35 0 -61 -24 -93 -72v-311h-147v344c0 39 -2 98 -11 152h131l10 -86h4c43 56 89 98 158 98c105 0 145 -76 145 -200v-485h-149z" />
    <glyph glyph-name="theta" unicode="&#x3b8;" horiz-adv-x="549" 
d="M275 -12c-136 0 -227 120 -227 364s91 361 227 361c135 0 226 -117 226 -361s-91 -364 -226 -364zM275 594c-43 0 -77 -36 -83 -193h166c-6 157 -40 193 -83 193zM275 107c43 0 77 40 83 197h-166c6 -157 40 -197 83 -197z" />
    <glyph glyph-name="iota" unicode="&#x3b9;" horiz-adv-x="301" 
d="M206 -12c-110 0 -141 66 -141 167v341h148c-3 -116 -10 -264 -10 -347c0 -32 14 -42 41 -42c8 0 21 2 32 6l17 -109c-21 -9 -45 -16 -87 -16z" />
    <glyph glyph-name="kappa" unicode="&#x3ba;" horiz-adv-x="546" 
d="M386 -11c-39 49 -81 119 -126 209c-2 -3 -4 -5 -7 -8c-36 -38 -50 -86 -50 -161v-29h-138v344c0 39 -2 100 -12 152h146c7 -32 9 -76 9 -122v-93h4c74 115 163 211 279 227l12 -137c-51 -12 -93 -34 -147 -81c49 -97 130 -217 195 -290z" />
    <glyph glyph-name="lambda" unicode="&#x3bb;" horiz-adv-x="552" 
d="M172 -11l-159 11l213 498l-3 14c-12 51 -48 77 -90 77c-30 0 -48 -6 -70 -16l-32 119c32 13 60 21 119 21c115 0 179 -64 222 -209l176 -504h-158l-97 334h-4z" />
    <glyph glyph-name="uni03BC" unicode="&#x3bc;" horiz-adv-x="594" 
d="M65 -177v673h147v-289c0 -70 19 -94 61 -94c33 0 59 17 85 65v318h148c-3 -116 -10 -264 -10 -347c0 -32 17 -42 44 -42c9 0 21 2 32 6l17 -109c-21 -9 -45 -16 -87 -16c-69 0 -112 28 -128 83h-4c-24 -51 -61 -78 -105 -78c-24 0 -46 4 -62 23c1 -74 3 -124 10 -193
h-148z" />
    <glyph glyph-name="nu" unicode="&#x3bd;" horiz-adv-x="523" 
d="M182 0c-29 184 -104 355 -183 476l150 32c53 -90 107 -253 127 -358h4c49 112 71 232 80 346h146c-30 -175 -75 -313 -184 -496h-140z" />
    <glyph glyph-name="xi" unicode="&#x3be;" horiz-adv-x="469" 
d="M392 -187l-115 38c29 38 47 61 47 87c0 27 -21 38 -96 54c-102 22 -186 67 -186 192c0 86 63 156 137 181v4c-58 23 -91 73 -91 133c0 34 16 71 46 92c-38 -2 -63 -3 -117 -9v116h426v-116h-117c-54 0 -91 -34 -91 -88c0 -46 34 -90 86 -90c28 0 46 1 73 9v-115
c-30 7 -54 9 -81 9c-67 0 -120 -42 -120 -103c0 -68 40 -83 129 -100c106 -21 131 -53 131 -130c0 -34 -18 -99 -61 -164z" />
    <glyph glyph-name="omicron" unicode="&#x3bf;" horiz-adv-x="553" 
d="M276 -12c-126 0 -240 95 -240 260s114 260 240 260c127 0 241 -95 241 -260s-114 -260 -241 -260zM276 107c62 0 90 55 90 141s-28 141 -90 141c-61 0 -89 -55 -89 -141s28 -141 89 -141z" />
    <glyph glyph-name="pi" unicode="&#x3c0;" horiz-adv-x="635" 
d="M522 -12c-111 0 -148 67 -148 170c0 29 4 139 4 222h-115c0 -118 -13 -258 -26 -389l-147 9c24 133 36 270 36 380h-108v110l74 6h520v-116h-93c-6 -87 -7 -205 -7 -228c0 -34 16 -45 45 -45c9 0 22 2 37 4l17 -108c-19 -8 -52 -15 -89 -15z" />
    <glyph glyph-name="rho" unicode="&#x3c1;" horiz-adv-x="569" 
d="M61 -177v414c0 188 102 271 237 271c144 0 231 -93 231 -252c0 -170 -101 -268 -205 -268c-42 0 -89 13 -125 55c4 -76 7 -147 10 -220h-148zM289 108c49 0 90 44 90 146c0 89 -28 134 -86 134c-55 0 -94 -53 -94 -137v-103c30 -32 61 -40 90 -40z" />
    <glyph glyph-name="sigma" unicode="&#x3c3;" horiz-adv-x="573" 
d="M271 -12c-129 0 -235 90 -235 254c0 172 118 254 242 254h283v-121c-54 6 -89 10 -140 11v-4c49 -28 77 -88 77 -163c0 -143 -94 -231 -227 -231zM273 107c53 0 85 46 85 127c0 78 -30 143 -85 143c-53 0 -86 -39 -86 -135c0 -86 33 -135 86 -135z" />
    <glyph glyph-name="tau" unicode="&#x3c4;" horiz-adv-x="492" 
d="M311 -12c-104 0 -139 67 -139 170v223h-146v109l74 6h366v-115h-150c-4 -86 -5 -170 -5 -229c0 -34 15 -45 38 -45c18 0 34 2 56 8l19 -110c-32 -9 -70 -17 -113 -17z" />
    <glyph glyph-name="upsilon" unicode="&#x3c5;" horiz-adv-x="532" 
d="M260 -12c-148 0 -210 87 -210 212c0 47 4 96 4 144c0 39 -2 98 -11 152h142c7 -34 9 -76 9 -122c0 -42 -6 -121 -6 -187c0 -53 31 -80 72 -80c53 0 82 45 82 146c0 64 -9 134 -33 224l142 31c22 -80 38 -165 38 -248c0 -169 -80 -272 -229 -272z" />
    <glyph glyph-name="phi" unicode="&#x3c6;" horiz-adv-x="738" 
d="M187 248c0 -92 45 -142 115 -146v292c-70 -4 -115 -54 -115 -146zM551 248c0 92 -44 142 -115 146v-292c70 4 115 54 115 146zM302 -177v169c-139 7 -266 96 -266 256s127 249 266 256v124h134v-124c139 -7 266 -96 266 -256s-128 -249 -266 -256v-169h-134z" />
    <glyph glyph-name="chi" unicode="&#x3c7;" horiz-adv-x="526" 
d="M160 -189l-152 12l189 342l-189 311l145 32l115 -214h4l88 202h153l-171 -327l198 -326l-145 -32l-123 237h-4z" />
    <glyph glyph-name="psi" unicode="&#x3c8;" horiz-adv-x="752" 
d="M307 -177v165c-189 4 -252 117 -252 249v107c0 39 -2 98 -11 152h142c8 -34 9 -76 9 -122c0 -41 -2 -111 -2 -149c0 -63 28 -122 114 -122v525h134v-525c77 3 117 47 117 171c0 61 -8 121 -32 203l142 31c24 -73 38 -149 38 -227c0 -187 -92 -290 -265 -293v-165h-134z
" />
    <glyph glyph-name="omega" unicode="&#x3c9;" horiz-adv-x="746" 
d="M234 -12c-119 0 -194 93 -194 265c0 82 33 184 77 255l138 -52c-49 -80 -76 -150 -76 -232c0 -70 20 -117 62 -117s65 30 65 93c0 45 -5 73 -12 131h155c-7 -58 -12 -86 -12 -131c0 -70 20 -93 60 -93c37 0 62 49 62 140c0 80 -15 133 -64 212l135 49
c45 -72 76 -149 76 -252c0 -171 -67 -268 -189 -268c-59 0 -117 25 -143 94h-4c-27 -69 -77 -94 -136 -94z" />
    <glyph glyph-name="uni03C2" unicode="&#x3c2;" horiz-adv-x="446" 
d="M349 -186l-116 38c28 38 49 65 49 91c0 32 -15 50 -56 64c-92 31 -190 84 -190 250c0 159 114 251 247 251c61 0 111 -22 147 -53l-70 -95c-23 20 -44 29 -68 29c-66 0 -105 -52 -105 -132c0 -82 36 -109 100 -132c93 -33 124 -62 124 -144c0 -35 -19 -102 -62 -167z" />
    <glyph glyph-name="uni03D0" unicode="&#x3d0;" horiz-adv-x="592" 
d="M319 -12c-127 0 -255 70 -255 255v223c0 139 70 245 223 245c109 0 217 -55 217 -180c0 -67 -32 -119 -102 -150v-4c91 -13 155 -86 155 -179c0 -143 -109 -210 -238 -210zM206 457c-1 -25 -2 -49 -3 -72c132 31 160 75 160 130c0 56 -31 80 -69 80
c-57 0 -84 -53 -88 -138zM314 115c54 0 98 32 98 93c0 53 -30 99 -102 99c-25 0 -52 -8 -109 -27v-24c0 -105 61 -141 113 -141z" />
    <glyph glyph-name="uni03D1" unicode="&#x3d1;" horiz-adv-x="549" 
d="M185 513c0 -59 29 -120 173 -105c-8 145 -50 188 -103 186c-45 -1 -70 -39 -70 -81zM274 -12c-143 0 -199 77 -199 187c0 46 0 77 -9 108h138c8 -15 9 -57 9 -87c0 -68 23 -89 66 -89c47 0 76 34 80 212c-253 -29 -309 115 -309 200c0 107 85 194 198 194
c162 0 253 -129 253 -358c0 -248 -74 -367 -227 -367z" />
    <glyph glyph-name="uni03D5" unicode="&#x3d5;" horiz-adv-x="738" 
d="M304 -177v169c-145 6 -268 97 -268 266c0 87 43 188 103 258l122 -85c-50 -62 -75 -119 -75 -187c0 -81 35 -136 118 -143v157c0 179 81 250 189 250c129 0 209 -89 209 -244c0 -169 -127 -265 -264 -272c1 -57 3 -113 6 -169h-140zM434 279c0 -58 0 -118 1 -178
c71 8 116 51 116 153c0 96 -24 134 -63 134c-33 0 -54 -33 -54 -109z" />
    <glyph glyph-name="alphatonos" unicode="&#x3ac;" horiz-adv-x="595" 
d="M235 -12c-120 0 -199 96 -199 258c0 164 104 262 219 262c56 0 105 -28 137 -99h4l16 87h145c-26 -115 -64 -268 -64 -344c0 -33 20 -45 48 -45c9 0 21 2 32 6l18 -108c-18 -9 -47 -17 -87 -17c-70 0 -110 22 -128 82h-3c-34 -56 -80 -82 -138 -82zM270 108
c44 0 87 48 90 107l7 86c-21 59 -49 87 -89 87c-45 0 -91 -42 -91 -141c0 -96 32 -139 83 -139zM239 573l34 220l143 -24l-79 -214z" />
    <glyph glyph-name="epsilontonos" unicode="&#x3ad;" horiz-adv-x="471" 
d="M268 -12c-128 0 -232 51 -232 153c0 67 37 102 96 118v4c-50 16 -75 63 -75 103c0 99 101 142 213 142c59 0 122 -19 171 -51l-54 -94c-33 22 -71 33 -109 33c-47 0 -77 -20 -77 -50c0 -29 24 -44 70 -44c21 0 46 2 69 4v-105c-28 2 -58 4 -85 4c-52 0 -75 -14 -75 -49
s35 -56 102 -56c32 0 73 9 112 38l57 -93c-64 -46 -120 -57 -183 -57zM207 573l34 220l143 -24l-79 -214z" />
    <glyph glyph-name="etatonos" unicode="&#x3ae;" horiz-adv-x="562" 
d="M353 -177c6 156 11 352 11 466c0 72 -15 94 -59 94c-35 0 -61 -24 -93 -72v-311h-147v344c0 39 -2 98 -11 152h131l10 -86h4c43 56 89 98 158 98c105 0 145 -76 145 -200v-485h-149zM252 573l34 220l143 -24l-79 -214z" />
    <glyph glyph-name="iotatonos" unicode="&#x3af;" horiz-adv-x="301" 
d="M206 -12c-110 0 -141 66 -141 167v341h148c-3 -116 -10 -264 -10 -347c0 -32 14 -42 41 -42c8 0 21 2 32 6l17 -109c-21 -9 -45 -16 -87 -16zM84 573l34 220l143 -24l-79 -214z" />
    <glyph glyph-name="iotadieresis" unicode="&#x3ca;" horiz-adv-x="301" 
d="M206 -12c-110 0 -141 66 -141 167v341h148c-3 -116 -10 -264 -10 -347c0 -32 14 -42 41 -42c8 0 21 2 32 6l17 -109c-21 -9 -45 -16 -87 -16zM29 569c-42 0 -72 31 -72 72c0 40 30 71 72 71s71 -31 71 -71c0 -41 -29 -72 -71 -72zM247 569c-42 0 -71 31 -71 72
c0 40 29 71 71 71s72 -31 72 -71c0 -41 -30 -72 -72 -72z" />
    <glyph glyph-name="omicrontonos" unicode="&#x3cc;" horiz-adv-x="553" 
d="M276 -12c-126 0 -240 95 -240 260s114 260 240 260c127 0 241 -95 241 -260s-114 -260 -241 -260zM276 107c62 0 90 55 90 141s-28 141 -90 141c-61 0 -89 -55 -89 -141s28 -141 89 -141zM226 573l34 220l143 -24l-79 -214z" />
    <glyph glyph-name="upsilontonos" unicode="&#x3cd;" horiz-adv-x="532" 
d="M260 -12c-148 0 -210 87 -210 212c0 47 4 96 4 144c0 39 -2 98 -11 152h142c7 -34 9 -76 9 -122c0 -42 -6 -121 -6 -187c0 -53 31 -80 72 -80c53 0 82 45 82 146c0 64 -9 134 -33 224l142 31c22 -80 38 -165 38 -248c0 -169 -80 -272 -229 -272zM209 573l34 220l143 -24
l-79 -214z" />
    <glyph glyph-name="upsilondieresis" unicode="&#x3cb;" horiz-adv-x="532" 
d="M260 -12c-148 0 -210 87 -210 212c0 47 4 96 4 144c0 39 -2 98 -11 152h142c7 -34 9 -76 9 -122c0 -42 -6 -121 -6 -187c0 -53 31 -80 72 -80c53 0 82 45 82 146c0 64 -9 134 -33 224l142 31c22 -80 38 -165 38 -248c0 -169 -80 -272 -229 -272zM154 569
c-42 0 -72 31 -72 72c0 40 30 71 72 71s71 -31 71 -71c0 -41 -29 -72 -71 -72zM372 569c-42 0 -71 31 -71 72c0 40 29 71 71 71s72 -31 72 -71c0 -41 -30 -72 -72 -72z" />
    </font>
</defs>
</svg>
