<?xml version="1.0" standalone="no"?>
<!DOCTYPE svg PUBLIC "-//W3C//DTD SVG 1.1//EN" "http://www.w3.org/Graphics/SVG/1.1/DTD/svg11.dtd" >
<svg xmlns="http://www.w3.org/2000/svg" xmlns:xlink="http://www.w3.org/1999/xlink" version="1.1">
<metadata>
Created by FontForge 20170924 at Mon Aug 31 14:44:59 2015
 By www-data
Copyright 2010, 2012, 2014 Adobe Systems Incorporated (http://www.adobe.com/), with Reserved Font Name 'Source'.
</metadata>
<defs>
<font id="SourceSansPro-Regular" horiz-adv-x="0" >
  <font-face 
    font-family="Source Sans Pro"
    font-weight="400"
    font-stretch="normal"
    units-per-em="1000"
    panose-1="2 11 5 3 3 4 3 2 2 4"
    ascent="750"
    descent="-250"
    x-height="486"
    cap-height="656"
    bbox="-454 -293 2159 968"
    underline-thickness="50"
    underline-position="-100"
    stemh="67"
    stemv="84"
    unicode-range="U+0020-1F16B"
  />
<missing-glyph horiz-adv-x="653" 
d="M89 0v660h476v-660h-476zM197 58h257l-73 132l-52 103h-4l-54 -103zM325 387h4l49 94l66 119h-235l66 -119zM154 110l127 230l-127 232v-462zM498 110v462l-126 -232z" />
    <glyph glyph-name="f_f" unicode="ff" horiz-adv-x="577" 
d="M381 0v419h-203v-419h-82v419h-66v62l66 5v64c0 101 50 164 151 164c32 0 65 -7 89 -18l-17 -62c-21 9 -41 13 -65 13c-48 0 -76 -35 -76 -99v-62h203v77c0 99 45 161 142 161c30 0 59 -7 81 -16l-18 -63c-18 8 -37 12 -55 12c-46 0 -68 -32 -68 -94v-77h103v-67h-103
v-419h-82z" />
    <glyph glyph-name="f_t" unicode="ft" horiz-adv-x="594" 
d="M96 0v419h-66v62l66 5v77c0 99 45 161 142 161c30 0 59 -7 81 -16l-18 -63c-18 8 -37 12 -55 12c-46 0 -68 -32 -68 -94v-77h178l10 136h68v-136h132v-67h-132v-270c0 -60 20 -94 76 -94c17 0 39 7 55 13l16 -62c-27 -9 -60 -18 -90 -18c-104 0 -139 66 -139 162v269
h-174v-419h-82z" />
    <glyph glyph-name="f_f_t" unicode="fft" horiz-adv-x="879" 
d="M96 0v419h-66v62l66 5v64c0 101 50 164 151 164c32 0 65 -7 89 -18l-17 -62c-21 9 -41 13 -65 13c-48 0 -76 -35 -76 -99v-62h203v77c0 99 45 161 142 161c30 0 59 -7 81 -16l-18 -63c-18 8 -37 12 -55 12c-46 0 -68 -32 -68 -94v-77h178l10 136h68v-136h132v-67h-132
v-270c0 -60 20 -94 76 -94c17 0 39 7 55 13l16 -62c-27 -9 -60 -18 -90 -18c-104 0 -139 66 -139 162v269h-174v-419h-82v419h-203v-419h-82z" />
    <glyph glyph-name=".notdef" horiz-adv-x="653" 
d="M89 0v660h476v-660h-476zM197 58h257l-73 132l-52 103h-4l-54 -103zM325 387h4l49 94l66 119h-235l66 -119zM154 110l127 230l-127 232v-462zM498 110v462l-126 -232z" />
    <glyph glyph-name="space" unicode=" " horiz-adv-x="200" 
 />
    <glyph glyph-name="A" unicode="A" horiz-adv-x="544" 
d="M203 367l-31 -100h197l-31 100c-24 73 -45 145 -66 221h-4c-20 -76 -41 -148 -65 -221zM3 0l222 656h94l222 -656h-89l-62 200h-239l-63 -200h-85z" />
    <glyph glyph-name="B" unicode="B" horiz-adv-x="588" 
d="M90 0v656h195c133 0 225 -45 225 -160c0 -65 -34 -123 -96 -143v-4c79 -15 134 -67 134 -157c0 -129 -102 -192 -249 -192h-209zM173 377h97c112 0 158 41 158 108c0 76 -52 105 -154 105h-101v-213zM173 66h114c113 0 179 41 179 129c0 81 -64 118 -179 118h-114v-247z
" />
    <glyph glyph-name="C" unicode="C" horiz-adv-x="571" 
d="M338 -12c-164 0 -286 126 -286 340c0 211 124 340 291 340c80 0 142 -38 180 -81l-45 -54c-35 37 -78 62 -134 62c-124 0 -206 -102 -206 -265c0 -165 79 -269 203 -269c63 0 110 28 152 74l46 -52c-52 -60 -116 -95 -201 -95z" />
    <glyph glyph-name="D" unicode="D" horiz-adv-x="615" 
d="M90 0v656h164c202 0 310 -117 310 -325c0 -209 -108 -331 -306 -331h-168zM173 68h75c153 0 230 97 230 263c0 165 -77 257 -230 257h-75v-520z" />
    <glyph glyph-name="E" unicode="E" horiz-adv-x="527" 
d="M90 0v656h378v-70h-295v-206h249v-71h-249v-238h305v-71h-388z" />
    <glyph glyph-name="F" unicode="F" horiz-adv-x="494" 
d="M90 0v656h378v-70h-295v-222h250v-70h-250v-294h-83z" />
    <glyph glyph-name="G" unicode="G" horiz-adv-x="617" 
d="M348 -12c-173 0 -296 126 -296 340c0 211 127 340 301 340c91 0 151 -41 189 -81l-46 -54c-33 34 -75 62 -141 62c-132 0 -217 -102 -217 -265c0 -165 78 -269 218 -269c47 0 92 15 118 39v171h-139v69h215v-276c-42 -44 -114 -76 -202 -76z" />
    <glyph glyph-name="H" unicode="H" horiz-adv-x="652" 
d="M90 0v656h83v-275h305v275h84v-656h-84v309h-305v-309h-83z" />
    <glyph glyph-name="I" unicode="I" horiz-adv-x="263" 
d="M90 0v656h83v-656h-83z" />
    <glyph glyph-name="J" unicode="J" horiz-adv-x="480" 
d="M212 -12c-83 0 -143 36 -181 105l60 42c29 -52 66 -74 113 -74c70 0 105 40 105 140v455h84v-463c0 -113 -53 -205 -181 -205z" />
    <glyph glyph-name="K" unicode="K" horiz-adv-x="579" 
d="M90 0v656h83v-329h3l273 329h94l-205 -250l237 -406h-93l-196 341l-113 -133v-208h-83z" />
    <glyph glyph-name="L" unicode="L" horiz-adv-x="486" 
d="M90 0v656h83v-585h287v-71h-370z" />
    <glyph glyph-name="M" unicode="M" horiz-adv-x="727" 
d="M90 0v656h100l126 -350c16 -45 31 -92 47 -137h4c16 45 29 92 45 137l124 350h101v-656h-78v361c0 58 7 136 11 194h-4l-52 -149l-124 -340h-55l-124 340l-52 149h-4c4 -58 10 -136 10 -194v-361h-75z" />
    <glyph glyph-name="N" unicode="N" horiz-adv-x="647" 
d="M90 0v656h86l237 -412l71 -136h4c-4 66 -10 140 -10 209v339h79v-656h-86l-238 413l-71 135h-4c5 -66 11 -136 11 -205v-343h-79z" />
    <glyph glyph-name="O" unicode="O" horiz-adv-x="664" 
d="M332 -12c-165 0 -280 132 -280 343c0 210 115 337 280 337s281 -128 281 -337c0 -211 -116 -343 -281 -343zM332 61c117 0 194 106 194 270c0 163 -77 264 -194 264s-194 -101 -194 -264c0 -164 77 -270 194 -270z" />
    <glyph glyph-name="P" unicode="P" horiz-adv-x="566" 
d="M90 0v656h187c147 0 246 -49 246 -193c0 -138 -98 -203 -242 -203h-108v-260h-83zM173 328h98c114 0 169 42 169 135c0 95 -58 126 -173 126h-94v-261z" />
    <glyph glyph-name="Q" unicode="Q" horiz-adv-x="664" 
d="M332 57c117 0 194 106 194 274c0 163 -77 264 -194 264s-194 -101 -194 -264c0 -168 77 -274 194 -274zM533 -165c-121 0 -204 66 -242 156c-143 20 -239 147 -239 340c0 210 115 337 280 337s281 -128 281 -337c0 -189 -93 -315 -232 -339c30 -58 90 -87 161 -87
c29 0 51 4 69 9l16 -64c-20 -8 -55 -15 -94 -15z" />
    <glyph glyph-name="R" unicode="R" horiz-adv-x="569" 
d="M90 0v656h205c134 0 230 -48 230 -184c0 -102 -58 -164 -148 -186l167 -286h-94l-158 277h-119v-277h-83zM173 345h110c102 0 159 42 159 127c0 86 -57 117 -159 117h-110v-244z" />
    <glyph glyph-name="S" unicode="S" horiz-adv-x="534" 
d="M272 -12c-92 0 -173 38 -230 97l50 58c47 -49 113 -82 181 -82c86 0 137 43 137 107c0 67 -47 88 -109 116l-94 41c-62 26 -133 73 -133 169c0 100 87 174 206 174c78 0 147 -33 194 -81l-45 -54c-40 38 -88 62 -149 62c-73 0 -122 -37 -122 -96c0 -63 57 -87 109 -109
l93 -40c76 -33 135 -78 135 -175c0 -104 -85 -187 -223 -187z" />
    <glyph glyph-name="T" unicode="T" horiz-adv-x="536" 
d="M226 0v586h-198v70h480v-70h-198v-586h-84z" />
    <glyph glyph-name="U" unicode="U" horiz-adv-x="645" 
d="M323 -12c-134 0 -236 72 -236 283v385h83v-387c0 -158 67 -208 153 -208c87 0 155 50 155 208v387h80v-385c0 -211 -101 -283 -235 -283z" />
    <glyph glyph-name="V" unicode="V" horiz-adv-x="515" 
d="M210 0l-210 656h89l105 -354c24 -78 39 -140 64 -217h4c24 77 40 139 63 217l105 354h85l-208 -656h-97z" />
    <glyph glyph-name="W" unicode="W" horiz-adv-x="786" 
d="M162 0l-139 656h86l69 -357c12 -71 26 -141 38 -212h4c15 71 31 142 46 212l91 357h76l91 -357c16 -69 32 -141 48 -212h4c12 71 24 142 37 212l69 357h80l-136 -656h-100l-99 395c-12 51 -22 98 -32 149h-4c-10 -51 -22 -98 -33 -149l-97 -395h-99z" />
    <glyph glyph-name="X" unicode="X" horiz-adv-x="513" 
d="M15 0l191 339l-178 317h92l89 -168c17 -30 31 -57 51 -95h4c18 38 31 65 47 95l87 168h88l-179 -321l191 -335h-92l-96 177c-17 32 -35 65 -56 105h-4c-19 -40 -36 -73 -52 -105l-95 -177h-88z" />
    <glyph glyph-name="Y" unicode="Y" horiz-adv-x="476" 
d="M196 0v254l-197 402h89l85 -185c21 -48 41 -94 63 -143h4c23 49 46 95 66 143l84 185h87l-197 -402v-254h-84z" />
    <glyph glyph-name="Z" unicode="Z" horiz-adv-x="539" 
d="M45 0v50l345 536h-314v70h418v-49l-346 -536h349v-71h-452z" />
    <glyph glyph-name="a" unicode="a" horiz-adv-x="504" 
d="M194 -12c-81 0 -142 51 -142 138c0 106 91 159 298 182c0 62 -20 122 -100 122c-56 0 -107 -26 -145 -52l-32 57c45 29 113 63 191 63c119 0 169 -79 169 -200v-298h-68l-7 58h-3c-46 -38 -100 -70 -161 -70zM218 54c47 0 85 23 132 65v135c-162 -20 -218 -60 -218 -122
c0 -55 38 -78 86 -78z" />
    <glyph glyph-name="b" unicode="b" horiz-adv-x="553" 
d="M297 -12c-45 0 -96 23 -139 62h-3l-7 -50h-66v712h82v-194l-2 -88c44 39 98 68 152 68c126 0 193 -97 193 -247c0 -166 -99 -263 -210 -263zM283 57c80 0 139 73 139 193c0 107 -36 179 -128 179c-41 0 -84 -23 -130 -66v-255c43 -37 87 -51 119 -51z" />
    <glyph glyph-name="c" unicode="c" horiz-adv-x="456" 
d="M274 -12c-129 0 -228 93 -228 254c0 163 109 256 234 256c64 0 108 -26 142 -57l-42 -54c-28 25 -58 43 -97 43c-88 0 -152 -76 -152 -188c0 -111 61 -186 150 -186c45 0 84 22 114 49l36 -55c-44 -39 -99 -62 -157 -62z" />
    <glyph glyph-name="d" unicode="d" horiz-adv-x="555" 
d="M248 -12c-122 0 -201 92 -201 254c0 158 100 256 211 256c56 0 93 -21 136 -56l-4 83v187h83v-712h-68l-7 57h-3c-38 -37 -90 -69 -147 -69zM266 57c45 0 84 22 124 67v254c-41 37 -78 51 -118 51c-78 0 -140 -75 -140 -186c0 -116 49 -186 134 -186z" />
    <glyph glyph-name="e" unicode="e" horiz-adv-x="496" 
d="M279 -12c-130 0 -233 95 -233 254s107 256 218 256c124 0 194 -89 194 -228c0 -17 -1 -35 -3 -47h-328c6 -103 69 -169 162 -169c46 0 85 15 121 38l29 -54c-42 -27 -94 -50 -160 -50zM126 282h260c0 98 -44 151 -120 151c-68 0 -130 -55 -140 -151z" />
    <glyph glyph-name="f" unicode="f" horiz-adv-x="292" 
d="M96 0v419h-66v62l66 5v77c0 99 45 161 142 161c30 0 59 -7 81 -16l-18 -63c-18 8 -37 12 -55 12c-46 0 -68 -32 -68 -94v-77h103v-67h-103v-419h-82z" />
    <glyph glyph-name="g" unicode="g" horiz-adv-x="504" 
d="M246 -224c-119 0 -201 47 -201 131c0 41 27 80 71 110v4c-24 15 -43 41 -43 79c0 41 28 73 53 90v4c-32 26 -63 73 -63 131c0 106 84 173 183 173c27 0 51 -5 69 -12h169v-63h-100c23 -22 40 -59 40 -100c0 -104 -79 -169 -178 -169c-24 0 -51 6 -73 17
c-17 -15 -31 -31 -31 -58c0 -31 20 -53 86 -53h94c113 0 170 -35 170 -116c0 -90 -95 -168 -246 -168zM246 209c56 0 103 45 103 116s-46 113 -103 113s-103 -42 -103 -113s47 -116 103 -116zM258 -167c93 0 154 48 154 99c0 45 -35 60 -98 60h-84c-19 0 -42 2 -63 8
c-35 -25 -50 -54 -50 -82c0 -52 53 -85 141 -85z" />
    <glyph glyph-name="h" unicode="h" horiz-adv-x="544" 
d="M82 0v712h82v-194l-3 -100c46 44 95 80 162 80c102 0 148 -66 148 -190v-308h-82v297c0 91 -28 130 -92 130c-50 0 -84 -26 -133 -75v-352h-82z" />
    <glyph glyph-name="i" unicode="i" horiz-adv-x="246" 
d="M82 0v486h82v-486h-82zM124 586c-32 0 -57 22 -57 53c0 32 25 53 57 53s57 -21 57 -53c0 -31 -25 -53 -57 -53z" />
    <glyph glyph-name="j" unicode="j" horiz-adv-x="247" 
d="M32 -217c-30 0 -55 6 -72 13l17 62c12 -4 29 -8 46 -8c48 0 60 36 60 95v541h82v-541c0 -99 -36 -162 -133 -162zM125 586c-32 0 -57 22 -57 53c0 32 25 53 57 53c31 0 56 -21 56 -53c0 -31 -25 -53 -56 -53z" />
    <glyph glyph-name="k" unicode="k" horiz-adv-x="495" 
d="M82 0v712h81v-482h3l207 256h91l-163 -195l185 -291h-90l-142 234l-91 -106v-128h-81z" />
    <glyph glyph-name="l" unicode="l" horiz-adv-x="255" 
d="M169 -12c-62 0 -87 39 -87 110v614h82v-620c0 -26 11 -36 23 -36c5 0 9 0 18 2l11 -62c-11 -5 -25 -8 -47 -8z" />
    <glyph glyph-name="m" unicode="m" horiz-adv-x="829" 
d="M82 0v486h68l7 -70h3c42 46 93 82 151 82c74 0 114 -35 134 -93c51 55 101 93 160 93c100 0 148 -66 148 -190v-308h-82v297c0 91 -29 130 -90 130c-38 0 -77 -25 -122 -75v-352h-82v297c0 91 -29 130 -91 130c-36 0 -77 -25 -122 -75v-352h-82z" />
    <glyph glyph-name="n" unicode="n" horiz-adv-x="547" 
d="M82 0v486h68l7 -70h3c46 46 96 82 163 82c102 0 148 -66 148 -190v-308h-82v297c0 91 -28 130 -92 130c-50 0 -84 -26 -133 -75v-352h-82z" />
    <glyph glyph-name="o" unicode="o" horiz-adv-x="542" 
d="M271 -12c-119 0 -225 93 -225 254c0 163 106 256 225 256s225 -93 225 -256c0 -161 -106 -254 -225 -254zM271 56c84 0 140 75 140 186c0 112 -56 188 -140 188c-83 0 -140 -76 -140 -188c0 -111 57 -186 140 -186z" />
    <glyph glyph-name="p" unicode="p" horiz-adv-x="555" 
d="M82 -205v691h68l7 -56h3c44 37 98 68 155 68c125 0 192 -97 192 -248c0 -165 -99 -262 -210 -262c-45 0 -90 21 -135 56l2 -85v-164h-82zM283 57c80 0 139 73 139 193c0 107 -36 179 -128 179c-41 0 -82 -23 -130 -66v-255c44 -37 87 -51 119 -51z" />
    <glyph glyph-name="q" unicode="q" horiz-adv-x="555" 
d="M390 -205v173l4 88c-39 -38 -90 -68 -146 -68c-122 0 -201 92 -201 254c0 158 100 256 211 256c56 0 95 -20 139 -58h2l8 46h66v-691h-83zM266 57c45 0 84 22 124 67v254c-41 37 -78 51 -118 51c-78 0 -140 -75 -140 -186c0 -116 49 -186 134 -186z" />
    <glyph glyph-name="r" unicode="r" horiz-adv-x="347" 
d="M82 0v486h68l7 -88h3c33 61 83 100 138 100c21 0 36 -3 52 -10l-16 -72c-16 5 -27 8 -47 8c-41 0 -90 -30 -123 -112v-312h-82z" />
    <glyph glyph-name="s" unicode="s" horiz-adv-x="419" 
d="M209 -12c-69 0 -135 29 -181 67l41 55c42 -34 85 -58 143 -58c64 0 96 34 96 76c0 50 -58 72 -111 92c-69 25 -145 58 -145 140c0 78 62 138 167 138c61 0 114 -25 151 -55l-39 -52c-33 25 -68 43 -111 43c-61 0 -89 -33 -89 -70c0 -46 53 -63 108 -84
c70 -26 148 -55 148 -147c0 -79 -63 -145 -178 -145z" />
    <glyph glyph-name="t" unicode="t" horiz-adv-x="338" 
d="M235 -12c-104 0 -139 66 -139 162v269h-72v62l76 5l10 136h69v-136h131v-67h-131v-270c0 -60 19 -94 75 -94c17 0 39 7 55 13l16 -62c-27 -9 -60 -18 -90 -18z" />
    <glyph glyph-name="u" unicode="u" horiz-adv-x="544" 
d="M224 -12c-103 0 -149 66 -149 190v308h83v-297c0 -91 27 -130 91 -130c50 0 85 25 131 82v345h82v-486h-68l-7 76h-3c-45 -53 -93 -88 -160 -88z" />
    <glyph glyph-name="v" unicode="v" horiz-adv-x="467" 
d="M187 0l-175 486h85l92 -276c14 -48 30 -97 45 -143h4c14 46 30 95 44 143l92 276h81l-172 -486h-96z" />
    <glyph glyph-name="w" unicode="w" horiz-adv-x="718" 
d="M159 0l-135 486h84l72 -281c11 -46 20 -90 29 -135h4c11 45 21 90 33 135l75 281h80l76 -281c12 -46 23 -90 34 -135h4c11 45 20 89 30 135l71 281h78l-130 -486h-100l-70 261c-12 46 -21 91 -33 140h-4c-11 -49 -21 -95 -34 -141l-68 -260h-96z" />
    <glyph glyph-name="x" unicode="x" horiz-adv-x="446" 
d="M14 0l159 254l-147 232h89l65 -107c15 -26 31 -54 48 -81h4c14 27 29 55 44 81l59 107h86l-147 -241l158 -245h-89l-71 113c-17 29 -35 59 -53 87h-4c-17 -28 -33 -57 -49 -87l-66 -113h-86z" />
    <glyph glyph-name="y" unicode="y" horiz-adv-x="467" 
d="M90 -209c-22 0 -41 4 -57 10l16 65c10 -3 25 -7 37 -7c55 0 90 44 110 104l11 36l-195 487h85l99 -269c15 -42 32 -92 47 -137h4c14 44 28 94 41 137l87 269h80l-183 -526c-34 -96 -84 -169 -182 -169z" />
    <glyph glyph-name="z" unicode="z" horiz-adv-x="425" 
d="M31 0v44l256 375h-228v67h332v-44l-256 -375h264v-67h-368z" />
    <glyph glyph-name="Agrave" unicode="&#xc0;" horiz-adv-x="544" 
d="M203 367l-31 -100h197l-31 100c-24 73 -45 145 -66 221h-4c-20 -76 -41 -148 -65 -221zM3 0l222 656h94l222 -656h-89l-62 200h-239l-63 -200h-85zM287 697l-152 115l47 55l142 -128z" />
    <glyph glyph-name="Aacute" unicode="&#xc1;" horiz-adv-x="544" 
d="M203 367l-31 -100h197l-31 100c-24 73 -45 145 -66 221h-4c-20 -76 -41 -148 -65 -221zM3 0l222 656h94l222 -656h-89l-62 200h-239l-63 -200h-85zM253 697l-37 42l142 128l47 -55z" />
    <glyph glyph-name="Acircumflex" unicode="&#xc2;" horiz-adv-x="544" 
d="M203 367l-31 -100h197l-31 100c-24 73 -45 145 -66 221h-4c-20 -76 -41 -148 -65 -221zM3 0l222 656h94l222 -656h-89l-62 200h-239l-63 -200h-85zM122 725l105 113h86l105 -113l-36 -26l-110 93h-4l-110 -93z" />
    <glyph glyph-name="Atilde" unicode="&#xc3;" horiz-adv-x="544" 
d="M203 367l-31 -100h197l-31 100c-24 73 -45 145 -66 221h-4c-20 -76 -41 -148 -65 -221zM3 0l222 656h94l222 -656h-89l-62 200h-239l-63 -200h-85zM345 709c-75 0 -101 71 -148 71c-25 0 -44 -23 -48 -66l-56 4c4 76 42 123 102 123c75 0 101 -71 148 -71
c25 0 43 23 48 66l56 -4c-4 -77 -42 -123 -102 -123z" />
    <glyph glyph-name="Adieresis" unicode="&#xc4;" horiz-adv-x="544" 
d="M203 367l-31 -100h197l-31 100c-24 73 -45 145 -66 221h-4c-20 -76 -41 -148 -65 -221zM3 0l222 656h94l222 -656h-89l-62 200h-239l-63 -200h-85zM167 715c-28 0 -49 21 -49 49c0 29 21 49 49 49c29 0 49 -20 49 -49c0 -28 -20 -49 -49 -49zM373 715
c-29 0 -49 21 -49 49c0 29 20 49 49 49c28 0 49 -20 49 -49c0 -28 -21 -49 -49 -49z" />
    <glyph glyph-name="Amacron" unicode="&#x100;" horiz-adv-x="544" 
d="M203 367l-31 -100h197l-31 100c-24 73 -45 145 -66 221h-4c-20 -76 -41 -148 -65 -221zM3 0l222 656h94l222 -656h-89l-62 200h-239l-63 -200h-85zM136 735v57h268v-57h-268z" />
    <glyph glyph-name="Abreve" unicode="&#x102;" horiz-adv-x="544" 
d="M203 367l-31 -100h197l-31 100c-24 73 -45 145 -66 221h-4c-20 -76 -41 -148 -65 -221zM3 0l222 656h94l222 -656h-89l-62 200h-239l-63 -200h-85zM270 705c-93 0 -138 59 -146 129l50 8c8 -47 39 -84 96 -84s88 37 96 84l50 -8c-8 -70 -53 -129 -146 -129z" />
    <glyph glyph-name="Aring" unicode="&#xc5;" horiz-adv-x="544" 
d="M203 367l-31 -100h197l-31 100c-24 73 -45 145 -66 221h-4c-20 -76 -41 -148 -65 -221zM3 0l222 656h94l222 -656h-89l-62 200h-239l-63 -200h-85zM270 699c-56 0 -97 36 -97 90c0 55 41 91 97 91c55 0 97 -36 97 -91c0 -54 -42 -90 -97 -90zM270 735c27 0 51 19 51 54
c0 34 -24 54 -51 54c-29 0 -52 -20 -52 -54c0 -35 23 -54 52 -54z" />
    <glyph glyph-name="uni01CD" unicode="&#x1cd;" horiz-adv-x="544" 
d="M203 367l-31 -100h197l-31 100c-24 73 -45 145 -66 221h-4c-20 -76 -41 -148 -65 -221zM3 0l222 656h94l222 -656h-89l-62 200h-239l-63 -200h-85zM227 706l-105 113l36 26l110 -92h4l110 92l36 -26l-105 -113h-86z" />
    <glyph glyph-name="uni1EA0" unicode="&#x1ea0;" horiz-adv-x="544" 
d="M203 367l-31 -100h197l-31 100c-24 73 -45 145 -66 221h-4c-20 -76 -41 -148 -65 -221zM3 0l222 656h94l222 -656h-89l-62 200h-239l-63 -200h-85zM270 -206c-31 0 -54 22 -54 54c0 31 23 54 54 54s54 -23 54 -54c0 -32 -23 -54 -54 -54z" />
    <glyph glyph-name="uni1EA2" unicode="&#x1ea2;" horiz-adv-x="544" 
d="M203 367l-31 -100h197l-31 100c-24 73 -45 145 -66 221h-4c-20 -76 -41 -148 -65 -221zM3 0l222 656h94l222 -656h-89l-62 200h-239l-63 -200h-85zM238 698l-9 38c32 9 56 21 56 46c0 26 -27 40 -83 42l9 48c87 -3 138 -30 138 -81c0 -58 -53 -83 -111 -93z" />
    <glyph glyph-name="uni1EA4" unicode="&#x1ea4;" horiz-adv-x="544" 
d="M203 367l-31 -100h197l-31 100c-24 73 -45 145 -66 221h-4c-20 -76 -41 -148 -65 -221zM3 0l222 656h94l222 -656h-89l-62 200h-239l-63 -200h-85zM175 699l-34 26l93 90h72l93 -90l-34 -26l-93 69h-4zM391 763l-30 32l97 93l35 -39z" />
    <glyph glyph-name="uni1EA6" unicode="&#x1ea6;" horiz-adv-x="544" 
d="M203 367l-31 -100h197l-31 100c-24 73 -45 145 -66 221h-4c-20 -76 -41 -148 -65 -221zM3 0l222 656h94l222 -656h-89l-62 200h-239l-63 -200h-85zM175 699l-34 26l93 90h72l93 -90l-34 -26l-93 69h-4zM179 793l-30 -30l-90 88l35 37z" />
    <glyph glyph-name="uni1EA8" unicode="&#x1ea8;" horiz-adv-x="544" 
d="M203 367l-31 -100h197l-31 100c-24 73 -45 145 -66 221h-4c-20 -76 -41 -148 -65 -221zM3 0l222 656h94l222 -656h-89l-62 200h-239l-63 -200h-85zM175 699l-34 26l93 90h72l93 -90l-34 -26l-93 69h-4zM385 754l-11 35c25 6 45 15 45 36c0 26 -21 36 -71 39l9 42
c78 -3 120 -27 120 -73c0 -51 -44 -71 -92 -79z" />
    <glyph glyph-name="uni1EAA" unicode="&#x1eaa;" horiz-adv-x="544" 
d="M203 367l-31 -100h197l-31 100c-24 73 -45 145 -66 221h-4c-20 -76 -41 -148 -65 -221zM3 0l222 656h94l222 -656h-89l-62 200h-239l-63 -200h-85zM175 699l-34 26l93 87h72l93 -87l-34 -26l-93 66h-4zM125 848c3 51 25 91 79 91c64 0 87 -49 128 -49c24 0 34 17 38 46
l45 -5c-3 -52 -25 -92 -79 -92c-64 0 -87 50 -128 50c-24 0 -34 -17 -38 -46z" />
    <glyph glyph-name="uni1EAC" unicode="&#x1eac;" horiz-adv-x="544" 
d="M203 367l-31 -100h197l-31 100c-24 73 -45 145 -66 221h-4c-20 -76 -41 -148 -65 -221zM3 0l222 656h94l222 -656h-89l-62 200h-239l-63 -200h-85zM122 725l105 113h86l105 -113l-36 -26l-110 93h-4l-110 -93zM270 -206c-31 0 -54 22 -54 54c0 31 23 54 54 54
s54 -23 54 -54c0 -32 -23 -54 -54 -54z" />
    <glyph glyph-name="uni1EAE" unicode="&#x1eae;" horiz-adv-x="544" 
d="M203 367l-31 -100h197l-31 100c-24 73 -45 145 -66 221h-4c-20 -76 -41 -148 -65 -221zM3 0l222 656h94l222 -656h-89l-62 200h-239l-63 -200h-85zM232 832l95 116l53 -36l-107 -109zM270 705c-93 0 -138 59 -146 129l47 8c8 -49 40 -88 99 -88s91 39 99 88l47 -8
c-8 -70 -53 -129 -146 -129z" />
    <glyph glyph-name="uni1EB0" unicode="&#x1eb0;" horiz-adv-x="544" 
d="M203 367l-31 -100h197l-31 100c-24 73 -45 145 -66 221h-4c-20 -76 -41 -148 -65 -221zM3 0l222 656h94l222 -656h-89l-62 200h-239l-63 -200h-85zM308 832l-41 -29l-107 109l53 36zM270 705c-93 0 -138 59 -146 129l47 8c8 -49 40 -88 99 -88s91 39 99 88l47 -8
c-8 -70 -53 -129 -146 -129z" />
    <glyph glyph-name="uni1EB2" unicode="&#x1eb2;" horiz-adv-x="544" 
d="M203 367l-31 -100h197l-31 100c-24 73 -45 145 -66 221h-4c-20 -76 -41 -148 -65 -221zM3 0l222 656h94l222 -656h-89l-62 200h-239l-63 -200h-85zM247 800l-10 35c24 6 44 15 44 36c0 26 -21 36 -70 39l8 42c78 -3 121 -26 121 -73c0 -51 -45 -71 -93 -79zM270 705
c-93 0 -138 59 -146 129l47 8c8 -49 40 -88 99 -88s91 39 99 88l47 -8c-8 -70 -53 -129 -146 -129z" />
    <glyph glyph-name="uni1EB4" unicode="&#x1eb4;" horiz-adv-x="544" 
d="M203 367l-31 -100h197l-31 100c-24 73 -45 145 -66 221h-4c-20 -76 -41 -148 -65 -221zM3 0l222 656h94l222 -656h-89l-62 200h-239l-63 -200h-85zM270 708c-93 0 -136 50 -143 106l46 8c7 -36 36 -69 97 -69s90 33 97 69l46 -8c-7 -56 -50 -106 -143 -106zM125 851
c3 52 25 92 79 92c64 0 87 -50 128 -50c24 0 34 17 38 46l45 -5c-3 -51 -25 -91 -79 -91c-64 0 -87 50 -128 50c-24 0 -34 -17 -38 -47z" />
    <glyph glyph-name="uni1EB6" unicode="&#x1eb6;" horiz-adv-x="544" 
d="M203 367l-31 -100h197l-31 100c-24 73 -45 145 -66 221h-4c-20 -76 -41 -148 -65 -221zM3 0l222 656h94l222 -656h-89l-62 200h-239l-63 -200h-85zM270 705c-93 0 -138 59 -146 129l50 8c8 -47 39 -84 96 -84s88 37 96 84l50 -8c-8 -70 -53 -129 -146 -129zM270 -206
c-31 0 -54 22 -54 54c0 31 23 54 54 54s54 -23 54 -54c0 -32 -23 -54 -54 -54z" />
    <glyph glyph-name="Aogonek" unicode="&#x104;" horiz-adv-x="544" 
d="M492 -212c-53 0 -96 30 -96 87c0 54 41 102 75 125h-19l-62 200h-239l-63 -200h-85l222 656h94l222 -656c-47 -19 -80 -65 -80 -107c0 -31 22 -46 46 -46c17 0 30 5 42 14l23 -45c-20 -15 -54 -28 -80 -28zM203 367l-31 -100h197l-31 100c-24 73 -45 145 -66 221h-4
c-20 -76 -41 -148 -65 -221z" />
    <glyph glyph-name="AE" unicode="&#xc6;" horiz-adv-x="822" 
d="M290 376l-61 -118h172v332h-4c-35 -71 -71 -143 -107 -214zM8 0l344 656h411v-70h-278v-206h232v-71h-232v-238h288v-71h-372v191h-206l-99 -191h-88z" />
    <glyph glyph-name="uni01FC" unicode="&#x1fc;" horiz-adv-x="822" 
d="M290 376l-61 -118h172v332h-4c-35 -71 -71 -143 -107 -214zM8 0l344 656h411v-70h-278v-206h232v-71h-232v-238h288v-71h-372v191h-206l-99 -191h-88zM547 705l-37 42l142 128l47 -55z" />
    <glyph glyph-name="uni01E2" unicode="&#x1e2;" horiz-adv-x="822" 
d="M290 376l-61 -118h172v332h-4c-35 -71 -71 -143 -107 -214zM8 0l344 656h411v-70h-278v-206h232v-71h-232v-238h288v-71h-372v191h-206l-99 -191h-88zM430 743v57h268v-57h-268z" />
    <glyph glyph-name="uni0243" unicode="&#x243;" horiz-adv-x="603" 
d="M107 0v177h-77v43l77 4v432h195c133 0 225 -46 225 -158c0 -64 -37 -118 -114 -138v-4c96 -15 152 -68 152 -160c0 -132 -102 -196 -248 -196h-210zM190 380h98c111 0 159 39 159 112c0 72 -54 102 -156 102h-101v-214zM190 63h115c112 0 179 44 179 137
c0 86 -65 125 -179 125h-115v-101h152v-47h-152v-114z" />
    <glyph glyph-name="uni1E06" unicode="&#x1e06;" horiz-adv-x="588" 
d="M90 0v656h195c133 0 225 -45 225 -160c0 -65 -34 -123 -96 -143v-4c79 -15 134 -67 134 -157c0 -129 -102 -192 -249 -192h-209zM173 377h97c112 0 158 41 158 108c0 76 -52 105 -154 105h-101v-213zM173 66h114c113 0 179 41 179 129c0 81 -64 118 -179 118h-114v-247z
M167 -170v57h266v-57h-266z" />
    <glyph glyph-name="Ccedilla" unicode="&#xc7;" horiz-adv-x="571" 
d="M256 -226l-8 40c84 6 109 21 109 50c0 26 -20 40 -77 48l37 77c-153 10 -265 134 -265 339c0 211 124 340 291 340c80 0 142 -38 180 -81l-45 -54c-35 37 -78 62 -134 62c-124 0 -206 -102 -206 -265c0 -165 79 -269 203 -269c63 0 110 28 152 74l46 -52
c-45 -52 -99 -85 -168 -93l-23 -54c46 -11 73 -30 73 -71c0 -58 -59 -86 -165 -91z" />
    <glyph glyph-name="Cacute" unicode="&#x106;" horiz-adv-x="571" 
d="M338 -12c-164 0 -286 126 -286 340c0 211 124 340 291 340c80 0 142 -38 180 -81l-45 -54c-35 37 -78 62 -134 62c-124 0 -206 -102 -206 -265c0 -165 79 -269 203 -269c63 0 110 28 152 74l46 -52c-52 -60 -116 -95 -201 -95zM313 697l-37 42l142 128l47 -55z" />
    <glyph glyph-name="Ccircumflex" unicode="&#x108;" horiz-adv-x="571" 
d="M338 -12c-164 0 -286 126 -286 340c0 211 124 340 291 340c80 0 142 -38 180 -81l-45 -54c-35 37 -78 62 -134 62c-124 0 -206 -102 -206 -265c0 -165 79 -269 203 -269c63 0 110 28 152 74l46 -52c-52 -60 -116 -95 -201 -95zM182 725l105 113h86l105 -113l-36 -26
l-110 93h-4l-110 -93z" />
    <glyph glyph-name="Ccaron" unicode="&#x10c;" horiz-adv-x="571" 
d="M338 -12c-164 0 -286 126 -286 340c0 211 124 340 291 340c80 0 142 -38 180 -81l-45 -54c-35 37 -78 62 -134 62c-124 0 -206 -102 -206 -265c0 -165 79 -269 203 -269c63 0 110 28 152 74l46 -52c-52 -60 -116 -95 -201 -95zM287 706l-105 113l36 26l110 -92h4l110 92
l36 -26l-105 -113h-86z" />
    <glyph glyph-name="Cdotaccent" unicode="&#x10a;" horiz-adv-x="571" 
d="M338 -12c-164 0 -286 126 -286 340c0 211 124 340 291 340c80 0 142 -38 180 -81l-45 -54c-35 37 -78 62 -134 62c-124 0 -206 -102 -206 -265c0 -165 79 -269 203 -269c63 0 110 28 152 74l46 -52c-52 -60 -116 -95 -201 -95zM330 714c-32 0 -57 22 -57 54
c0 31 25 53 57 53s57 -22 57 -53c0 -32 -25 -54 -57 -54z" />
    <glyph glyph-name="Dcaron" unicode="&#x10e;" horiz-adv-x="615" 
d="M90 0v656h164c202 0 310 -117 310 -325c0 -209 -108 -331 -306 -331h-168zM173 68h75c153 0 230 97 230 263c0 165 -77 257 -230 257h-75v-520zM265 706l-105 113l36 26l110 -92h4l110 92l36 -26l-105 -113h-86z" />
    <glyph glyph-name="uni1E0C" unicode="&#x1e0c;" horiz-adv-x="615" 
d="M90 0v656h164c202 0 310 -117 310 -325c0 -209 -108 -331 -306 -331h-168zM173 68h75c153 0 230 97 230 263c0 165 -77 257 -230 257h-75v-520zM305 -206c-31 0 -54 22 -54 54c0 31 23 54 54 54s54 -23 54 -54c0 -32 -23 -54 -54 -54z" />
    <glyph glyph-name="uni1E0E" unicode="&#x1e0e;" horiz-adv-x="615" 
d="M90 0v656h164c202 0 310 -117 310 -325c0 -209 -108 -331 -306 -331h-168zM173 68h75c153 0 230 97 230 263c0 165 -77 257 -230 257h-75v-520zM172 -170v57h266v-57h-266z" />
    <glyph glyph-name="Dcroat" unicode="&#x110;" horiz-adv-x="638" 
d="M33 321v43l79 4v288h164c202 0 310 -117 310 -325c0 -209 -108 -331 -306 -331h-168v321h-79zM195 68h75c153 0 230 97 230 263c0 165 -77 257 -230 257h-75v-220h149v-47h-149v-253z" />
    <glyph glyph-name="Egrave" unicode="&#xc8;" horiz-adv-x="527" 
d="M90 0v656h378v-70h-295v-206h249v-71h-249v-238h305v-71h-388zM301 697l-152 115l47 55l142 -128z" />
    <glyph glyph-name="Eacute" unicode="&#xc9;" horiz-adv-x="527" 
d="M90 0v656h378v-70h-295v-206h249v-71h-249v-238h305v-71h-388zM267 697l-37 42l142 128l47 -55z" />
    <glyph glyph-name="Ecircumflex" unicode="&#xca;" horiz-adv-x="527" 
d="M90 0v656h378v-70h-295v-206h249v-71h-249v-238h305v-71h-388zM136 725l105 113h86l105 -113l-36 -26l-110 93h-4l-110 -93z" />
    <glyph glyph-name="Ecaron" unicode="&#x11a;" horiz-adv-x="527" 
d="M90 0v656h378v-70h-295v-206h249v-71h-249v-238h305v-71h-388zM241 706l-105 113l36 26l110 -92h4l110 92l36 -26l-105 -113h-86z" />
    <glyph glyph-name="Edieresis" unicode="&#xcb;" horiz-adv-x="527" 
d="M90 0v656h378v-70h-295v-206h249v-71h-249v-238h305v-71h-388zM181 715c-28 0 -49 21 -49 49c0 29 21 49 49 49c29 0 49 -20 49 -49c0 -28 -20 -49 -49 -49zM387 715c-29 0 -49 21 -49 49c0 29 20 49 49 49c28 0 49 -20 49 -49c0 -28 -21 -49 -49 -49z" />
    <glyph glyph-name="Emacron" unicode="&#x112;" horiz-adv-x="527" 
d="M90 0v656h378v-70h-295v-206h249v-71h-249v-238h305v-71h-388zM150 735v57h268v-57h-268z" />
    <glyph glyph-name="Ebreve" unicode="&#x114;" horiz-adv-x="527" 
d="M90 0v656h378v-70h-295v-206h249v-71h-249v-238h305v-71h-388zM284 705c-93 0 -138 59 -146 129l50 8c8 -47 39 -84 96 -84s88 37 96 84l50 -8c-8 -70 -53 -129 -146 -129z" />
    <glyph glyph-name="Edotaccent" unicode="&#x116;" horiz-adv-x="527" 
d="M90 0v656h378v-70h-295v-206h249v-71h-249v-238h305v-71h-388zM284 714c-32 0 -57 22 -57 54c0 31 25 53 57 53s57 -22 57 -53c0 -32 -25 -54 -57 -54z" />
    <glyph glyph-name="uni1EB8" unicode="&#x1eb8;" horiz-adv-x="527" 
d="M90 0v656h378v-70h-295v-206h249v-71h-249v-238h305v-71h-388zM296 -206c-31 0 -54 22 -54 54c0 31 23 54 54 54s54 -23 54 -54c0 -32 -23 -54 -54 -54z" />
    <glyph glyph-name="uni1EBA" unicode="&#x1eba;" horiz-adv-x="527" 
d="M90 0v656h378v-70h-295v-206h249v-71h-249v-238h305v-71h-388zM252 698l-9 38c32 9 56 21 56 46c0 26 -27 40 -83 42l9 48c87 -3 138 -30 138 -81c0 -58 -53 -83 -111 -93z" />
    <glyph glyph-name="uni1EBC" unicode="&#x1ebc;" horiz-adv-x="527" 
d="M90 0v656h378v-70h-295v-206h249v-71h-249v-238h305v-71h-388zM359 709c-75 0 -101 71 -148 71c-25 0 -44 -23 -48 -66l-56 4c4 76 42 123 102 123c75 0 101 -71 148 -71c25 0 43 23 48 66l56 -4c-4 -77 -42 -123 -102 -123z" />
    <glyph glyph-name="uni1EBE" unicode="&#x1ebe;" horiz-adv-x="527" 
d="M90 0v656h378v-70h-295v-206h249v-71h-249v-238h305v-71h-388zM189 699l-34 26l93 90h72l93 -90l-34 -26l-93 69h-4zM405 763l-30 32l97 93l35 -39z" />
    <glyph glyph-name="uni1EC0" unicode="&#x1ec0;" horiz-adv-x="527" 
d="M90 0v656h378v-70h-295v-206h249v-71h-249v-238h305v-71h-388zM189 699l-34 26l93 90h72l93 -90l-34 -26l-93 69h-4zM193 793l-30 -30l-90 88l35 37z" />
    <glyph glyph-name="uni1EC2" unicode="&#x1ec2;" horiz-adv-x="527" 
d="M90 0v656h378v-70h-295v-206h249v-71h-249v-238h305v-71h-388zM189 699l-34 26l93 90h72l93 -90l-34 -26l-93 69h-4zM399 754l-11 35c25 6 45 15 45 36c0 26 -21 36 -71 39l9 42c78 -3 120 -27 120 -73c0 -51 -44 -71 -92 -79z" />
    <glyph glyph-name="uni1EC4" unicode="&#x1ec4;" horiz-adv-x="527" 
d="M90 0v656h378v-70h-295v-206h249v-71h-249v-238h305v-71h-388zM189 699l-34 26l93 87h72l93 -87l-34 -26l-93 66h-4zM139 848c3 51 25 91 79 91c64 0 87 -49 128 -49c24 0 34 17 38 46l45 -5c-3 -52 -25 -92 -79 -92c-64 0 -87 50 -128 50c-24 0 -34 -17 -38 -46z" />
    <glyph glyph-name="uni1EC6" unicode="&#x1ec6;" horiz-adv-x="527" 
d="M90 0v656h378v-70h-295v-206h249v-71h-249v-238h305v-71h-388zM136 725l105 113h86l105 -113l-36 -26l-110 93h-4l-110 -93zM296 -206c-31 0 -54 22 -54 54c0 31 23 54 54 54s54 -23 54 -54c0 -32 -23 -54 -54 -54z" />
    <glyph glyph-name="Eogonek" unicode="&#x118;" horiz-adv-x="527" 
d="M414 -212c-53 0 -96 30 -96 87c0 55 38 101 75 125h-303v656h378v-70h-295v-206h249v-71h-249v-238h305v-71h-3c-46 -6 -92 -54 -92 -107c0 -31 24 -46 48 -46c15 0 28 5 40 14l23 -45c-19 -15 -54 -28 -80 -28z" />
    <glyph glyph-name="uni1E16" unicode="&#x1e16;" horiz-adv-x="527" 
d="M90 0v656h378v-70h-295v-206h249v-71h-249v-238h305v-71h-388zM264 827l-31 38l121 103l39 -48zM148 735v57h268v-57h-268z" />
    <glyph glyph-name="uni01F4" unicode="&#x1f4;" horiz-adv-x="617" 
d="M348 -12c-173 0 -296 126 -296 340c0 211 127 340 301 340c91 0 151 -41 189 -81l-46 -54c-33 34 -75 62 -141 62c-132 0 -217 -102 -217 -265c0 -165 78 -269 218 -269c47 0 92 15 118 39v171h-139v69h215v-276c-42 -44 -114 -76 -202 -76zM336 697l-37 42l142 128
l47 -55z" />
    <glyph glyph-name="Gcircumflex" unicode="&#x11c;" horiz-adv-x="617" 
d="M348 -12c-173 0 -296 126 -296 340c0 211 127 340 301 340c91 0 151 -41 189 -81l-46 -54c-33 34 -75 62 -141 62c-132 0 -217 -102 -217 -265c0 -165 78 -269 218 -269c47 0 92 15 118 39v171h-139v69h215v-276c-42 -44 -114 -76 -202 -76zM206 725l105 113h86l105 -113
l-36 -26l-110 93h-4l-110 -93z" />
    <glyph glyph-name="Gbreve" unicode="&#x11e;" horiz-adv-x="617" 
d="M348 -12c-173 0 -296 126 -296 340c0 211 127 340 301 340c91 0 151 -41 189 -81l-46 -54c-33 34 -75 62 -141 62c-132 0 -217 -102 -217 -265c0 -165 78 -269 218 -269c47 0 92 15 118 39v171h-139v69h215v-276c-42 -44 -114 -76 -202 -76zM354 705
c-93 0 -138 59 -146 129l50 8c8 -47 39 -84 96 -84s88 37 96 84l50 -8c-8 -70 -53 -129 -146 -129z" />
    <glyph glyph-name="Gdotaccent" unicode="&#x120;" horiz-adv-x="617" 
d="M348 -12c-173 0 -296 126 -296 340c0 211 127 340 301 340c91 0 151 -41 189 -81l-46 -54c-33 34 -75 62 -141 62c-132 0 -217 -102 -217 -265c0 -165 78 -269 218 -269c47 0 92 15 118 39v171h-139v69h215v-276c-42 -44 -114 -76 -202 -76zM354 714c-32 0 -57 22 -57 54
c0 31 25 53 57 53s57 -22 57 -53c0 -32 -25 -54 -57 -54z" />
    <glyph glyph-name="uni0122" unicode="&#x122;" horiz-adv-x="617" 
d="M348 -12c-173 0 -296 126 -296 340c0 211 127 340 301 340c91 0 151 -41 189 -81l-46 -54c-33 34 -75 62 -141 62c-132 0 -217 -102 -217 -265c0 -165 78 -269 218 -269c47 0 92 15 118 39v171h-139v69h215v-276c-42 -44 -114 -76 -202 -76zM261 -226l-8 40
c84 6 109 21 109 48c0 26 -25 38 -71 42l18 38c87 -10 117 -32 117 -77c0 -58 -59 -86 -165 -91z" />
    <glyph glyph-name="Gcaron" unicode="&#x1e6;" horiz-adv-x="617" 
d="M348 -12c-173 0 -296 126 -296 340c0 211 127 340 301 340c91 0 151 -41 189 -81l-46 -54c-33 34 -75 62 -141 62c-132 0 -217 -102 -217 -265c0 -165 78 -269 218 -269c47 0 92 15 118 39v171h-139v69h215v-276c-42 -44 -114 -76 -202 -76zM311 706l-105 113l36 26
l110 -92h4l110 92l36 -26l-105 -113h-86z" />
    <glyph glyph-name="uni1E20" unicode="&#x1e20;" horiz-adv-x="617" 
d="M348 -12c-173 0 -296 126 -296 340c0 211 127 340 301 340c91 0 151 -41 189 -81l-46 -54c-33 34 -75 62 -141 62c-132 0 -217 -102 -217 -265c0 -165 78 -269 218 -269c47 0 92 15 118 39v171h-139v69h215v-276c-42 -44 -114 -76 -202 -76zM220 735v57h268v-57h-268z
" />
    <glyph glyph-name="uni00470303" horiz-adv-x="617" 
d="M348 -12c-173 0 -296 126 -296 340c0 211 127 340 301 340c91 0 151 -41 189 -81l-46 -54c-33 34 -75 62 -141 62c-132 0 -217 -102 -217 -265c0 -165 78 -269 218 -269c47 0 92 15 118 39v171h-139v69h215v-276c-42 -44 -114 -76 -202 -76zM429 709
c-75 0 -101 71 -148 71c-25 0 -44 -23 -48 -66l-56 4c4 76 42 123 102 123c75 0 101 -71 148 -71c25 0 43 23 48 66l56 -4c-4 -77 -42 -123 -102 -123z" />
    <glyph glyph-name="uni0193" unicode="&#x193;" horiz-adv-x="617" 
d="M348 -12c-173 0 -296 126 -296 340c0 211 127 340 301 340c35 0 65 -5 91 -13c-4 13 -6 26 -6 40c0 64 45 109 113 109c27 0 46 -7 62 -13l-16 -63c-11 4 -20 9 -34 9c-34 0 -53 -24 -53 -54s10 -48 32 -79l-46 -55c-33 25 -75 46 -141 46c-132 0 -217 -102 -217 -265
c0 -165 78 -269 218 -269c47 0 92 15 118 39v171h-139v69h215v-276c-42 -44 -114 -76 -202 -76z" />
    <glyph glyph-name="Hcircumflex" unicode="&#x124;" horiz-adv-x="652" 
d="M90 0v656h83v-275h305v275h84v-656h-84v309h-305v-309h-83zM177 725l105 113h86l105 -113l-36 -26l-110 93h-4l-110 -93z" />
    <glyph glyph-name="uni1E24" unicode="&#x1e24;" horiz-adv-x="652" 
d="M90 0v656h83v-275h305v275h84v-656h-84v309h-305v-309h-83zM325 -206c-31 0 -54 22 -54 54c0 31 23 54 54 54s54 -23 54 -54c0 -32 -23 -54 -54 -54z" />
    <glyph glyph-name="uni1E2A" unicode="&#x1e2a;" horiz-adv-x="652" 
d="M90 0v656h83v-275h305v275h84v-656h-84v309h-305v-309h-83zM325 -231c-107 0 -151 77 -156 151l51 8c8 -51 40 -104 105 -104s97 53 105 104l51 -8c-5 -74 -49 -151 -156 -151z" />
    <glyph glyph-name="Hbar" unicode="&#x126;" horiz-adv-x="687" 
d="M32 492v42l78 5v117h83v-117h305v117h84v-117h72v-47h-72v-492h-84v309h-305v-309h-83v492h-78zM193 381h305v111h-305v-111z" />
    <glyph glyph-name="Igrave" unicode="&#xcc;" horiz-adv-x="263" 
d="M90 0v656h83v-656h-83zM148 697l-152 115l47 55l142 -128z" />
    <glyph glyph-name="Iacute" unicode="&#xcd;" horiz-adv-x="263" 
d="M90 0v656h83v-656h-83zM114 697l-37 42l142 128l47 -55z" />
    <glyph glyph-name="Icircumflex" unicode="&#xce;" horiz-adv-x="263" 
d="M90 0v656h83v-656h-83zM-17 725l105 113h86l105 -113l-36 -26l-110 93h-4l-110 -93z" />
    <glyph glyph-name="Itilde" unicode="&#x128;" horiz-adv-x="263" 
d="M90 0v656h83v-656h-83zM206 709c-75 0 -101 71 -148 71c-25 0 -44 -23 -48 -66l-56 4c4 76 42 123 102 123c75 0 101 -71 148 -71c25 0 43 23 48 66l56 -4c-4 -77 -42 -123 -102 -123z" />
    <glyph glyph-name="Idieresis" unicode="&#xcf;" horiz-adv-x="263" 
d="M90 0v656h83v-656h-83zM28 715c-28 0 -49 21 -49 49c0 29 21 49 49 49c29 0 49 -20 49 -49c0 -28 -20 -49 -49 -49zM234 715c-29 0 -49 21 -49 49c0 29 20 49 49 49c28 0 49 -20 49 -49c0 -28 -21 -49 -49 -49z" />
    <glyph glyph-name="Imacron" unicode="&#x12a;" horiz-adv-x="263" 
d="M90 0v656h83v-656h-83zM-3 735v57h268v-57h-268z" />
    <glyph glyph-name="Idotaccent" unicode="&#x130;" horiz-adv-x="263" 
d="M90 0v656h83v-656h-83zM131 714c-32 0 -57 22 -57 54c0 31 25 53 57 53s57 -22 57 -53c0 -32 -25 -54 -57 -54z" />
    <glyph glyph-name="uni01CF" unicode="&#x1cf;" horiz-adv-x="263" 
d="M90 0v656h83v-656h-83zM88 706l-105 113l36 26l110 -92h4l110 92l36 -26l-105 -113h-86z" />
    <glyph glyph-name="uni1EC8" unicode="&#x1ec8;" horiz-adv-x="263" 
d="M90 0v656h83v-656h-83zM99 698l-9 38c32 9 56 21 56 46c0 26 -27 40 -83 42l9 48c87 -3 138 -30 138 -81c0 -58 -53 -83 -111 -93z" />
    <glyph glyph-name="uni1ECA" unicode="&#x1eca;" horiz-adv-x="263" 
d="M90 0v656h83v-656h-83zM132 -206c-31 0 -54 22 -54 54c0 31 23 54 54 54s54 -23 54 -54c0 -32 -23 -54 -54 -54z" />
    <glyph glyph-name="Iogonek" unicode="&#x12e;" horiz-adv-x="263" 
d="M139 -212c-53 0 -96 30 -96 87s35 96 67 125h-20v656h83v-656c-41 -32 -65 -66 -65 -107c0 -31 24 -46 47 -46c16 0 29 5 41 14l23 -45c-20 -15 -54 -28 -80 -28z" />
    <glyph glyph-name="uni012C" unicode="&#x12c;" horiz-adv-x="263" 
d="M90 0v656h83v-656h-83zM131 705c-93 0 -138 59 -146 129l50 8c8 -47 39 -84 96 -84s88 37 96 84l50 -8c-8 -70 -53 -129 -146 -129z" />
    <glyph glyph-name="Jcircumflex" unicode="&#x134;" horiz-adv-x="480" 
d="M212 -12c-83 0 -143 36 -181 105l60 42c29 -52 66 -74 113 -74c70 0 105 40 105 140v455h84v-463c0 -113 -53 -205 -181 -205zM200 725l105 113h86l105 -113l-36 -26l-110 93h-4l-110 -93z" />
    <glyph glyph-name="uni0136" unicode="&#x136;" horiz-adv-x="579" 
d="M90 0v656h83v-329h3l273 329h94l-205 -250l237 -406h-93l-196 341l-113 -133v-208h-83zM239 -226l-8 40c84 6 109 21 109 48c0 26 -25 38 -71 42l18 38c87 -10 117 -32 117 -77c0 -58 -59 -86 -165 -91z" />
    <glyph glyph-name="uni1E32" unicode="&#x1e32;" horiz-adv-x="579" 
d="M90 0v656h83v-329h3l273 329h94l-205 -250l237 -406h-93l-196 341l-113 -133v-208h-83zM328 -206c-31 0 -54 22 -54 54c0 31 23 54 54 54s54 -23 54 -54c0 -32 -23 -54 -54 -54z" />
    <glyph glyph-name="uni1E34" unicode="&#x1e34;" horiz-adv-x="579" 
d="M90 0v656h83v-329h3l273 329h94l-205 -250l237 -406h-93l-196 341l-113 -133v-208h-83zM192 -170v57h266v-57h-266z" />
    <glyph glyph-name="Lacute" unicode="&#x139;" horiz-adv-x="486" 
d="M90 0v656h83v-585h287v-71h-370zM117 697l-37 42l142 128l47 -55z" />
    <glyph glyph-name="Lcaron" unicode="&#x13d;" horiz-adv-x="486" 
d="M90 0v656h83v-585h287v-71h-370zM334 514l-4 212h59l-1 -57l-14 -155h-40z" />
    <glyph glyph-name="uni013B" unicode="&#x13b;" horiz-adv-x="486" 
d="M90 0v656h83v-585h287v-71h-370zM201 -226l-8 40c84 6 109 21 109 48c0 26 -25 38 -71 42l18 38c87 -10 117 -32 117 -77c0 -58 -59 -86 -165 -91z" />
    <glyph glyph-name="Ldot" unicode="&#x13f;" horiz-adv-x="486" 
d="M90 0v656h83v-585h287v-71h-370zM377 263c-33 0 -60 26 -60 62c0 38 27 64 60 64c32 0 59 -26 59 -64c0 -36 -27 -62 -59 -62z" />
    <glyph glyph-name="uni1E36" unicode="&#x1e36;" horiz-adv-x="486" 
d="M90 0v656h83v-585h287v-71h-370zM288 -206c-31 0 -54 22 -54 54c0 31 23 54 54 54s54 -23 54 -54c0 -32 -23 -54 -54 -54z" />
    <glyph glyph-name="uni1E38" unicode="&#x1e38;" horiz-adv-x="486" 
d="M90 0v656h83v-585h287v-71h-370zM0 735v57h268v-57h-268zM288 -206c-31 0 -54 22 -54 54c0 31 23 54 54 54s54 -23 54 -54c0 -32 -23 -54 -54 -54z" />
    <glyph glyph-name="uni1E3A" unicode="&#x1e3a;" horiz-adv-x="486" 
d="M90 0v656h83v-585h287v-71h-370zM155 -170v57h266v-57h-266z" />
    <glyph glyph-name="Lslash" unicode="&#x141;" horiz-adv-x="489" 
d="M24 200l-30 53l101 55v348h83v-311l176 95l30 -53l-206 -110v-206h287v-71h-370v240z" />
    <glyph glyph-name="uni1E3E" unicode="&#x1e3e;" horiz-adv-x="727" 
d="M90 0v656h100l126 -350c16 -45 31 -92 47 -137h4c16 45 29 92 45 137l124 350h101v-656h-78v361c0 58 7 136 11 194h-4l-52 -149l-124 -340h-55l-124 340l-52 149h-4c4 -58 10 -136 10 -194v-361h-75zM346 697l-37 42l142 128l47 -55z" />
    <glyph glyph-name="uni1E40" unicode="&#x1e40;" horiz-adv-x="727" 
d="M90 0v656h100l126 -350c16 -45 31 -92 47 -137h4c16 45 29 92 45 137l124 350h101v-656h-78v361c0 58 7 136 11 194h-4l-52 -149l-124 -340h-55l-124 340l-52 149h-4c4 -58 10 -136 10 -194v-361h-75zM363 714c-32 0 -57 22 -57 54c0 31 25 53 57 53s57 -22 57 -53
c0 -32 -25 -54 -57 -54z" />
    <glyph glyph-name="uni1E42" unicode="&#x1e42;" horiz-adv-x="727" 
d="M90 0v656h100l126 -350c16 -45 31 -92 47 -137h4c16 45 29 92 45 137l124 350h101v-656h-78v361c0 58 7 136 11 194h-4l-52 -149l-124 -340h-55l-124 340l-52 149h-4c4 -58 10 -136 10 -194v-361h-75zM365 -206c-31 0 -54 22 -54 54c0 31 23 54 54 54s54 -23 54 -54
c0 -32 -23 -54 -54 -54z" />
    <glyph glyph-name="Nacute" unicode="&#x143;" horiz-adv-x="647" 
d="M90 0v656h86l237 -412l71 -136h4c-4 66 -10 140 -10 209v339h79v-656h-86l-238 413l-71 135h-4c5 -66 11 -136 11 -205v-343h-79zM310 697l-37 42l142 128l47 -55z" />
    <glyph glyph-name="uni01F8" unicode="&#x1f8;" horiz-adv-x="647" 
d="M90 0v656h86l237 -412l71 -136h4c-4 66 -10 140 -10 209v339h79v-656h-86l-238 413l-71 135h-4c5 -66 11 -136 11 -205v-343h-79zM344 697l-152 115l47 55l142 -128z" />
    <glyph glyph-name="Ncaron" unicode="&#x147;" horiz-adv-x="647" 
d="M90 0v656h86l237 -412l71 -136h4c-4 66 -10 140 -10 209v339h79v-656h-86l-238 413l-71 135h-4c5 -66 11 -136 11 -205v-343h-79zM284 706l-105 113l36 26l110 -92h4l110 92l36 -26l-105 -113h-86z" />
    <glyph glyph-name="Ntilde" unicode="&#xd1;" horiz-adv-x="647" 
d="M90 0v656h86l237 -412l71 -136h4c-4 66 -10 140 -10 209v339h79v-656h-86l-238 413l-71 135h-4c5 -66 11 -136 11 -205v-343h-79zM402 709c-75 0 -101 71 -148 71c-25 0 -44 -23 -48 -66l-56 4c4 76 42 123 102 123c75 0 101 -71 148 -71c25 0 43 23 48 66l56 -4
c-4 -77 -42 -123 -102 -123z" />
    <glyph glyph-name="uni0145" unicode="&#x145;" horiz-adv-x="647" 
d="M90 0v656h86l237 -412l71 -136h4c-4 66 -10 140 -10 209v339h79v-656h-86l-238 413l-71 135h-4c5 -66 11 -136 11 -205v-343h-79zM241 -226l-8 40c84 6 109 21 109 48c0 26 -25 38 -71 42l18 38c87 -10 117 -32 117 -77c0 -58 -59 -86 -165 -91z" />
    <glyph glyph-name="uni1E44" unicode="&#x1e44;" horiz-adv-x="647" 
d="M90 0v656h86l237 -412l71 -136h4c-4 66 -10 140 -10 209v339h79v-656h-86l-238 413l-71 135h-4c5 -66 11 -136 11 -205v-343h-79zM327 714c-32 0 -57 22 -57 54c0 31 25 53 57 53s57 -22 57 -53c0 -32 -25 -54 -57 -54z" />
    <glyph glyph-name="uni1E46" unicode="&#x1e46;" horiz-adv-x="647" 
d="M90 0v656h86l237 -412l71 -136h4c-4 66 -10 140 -10 209v339h79v-656h-86l-238 413l-71 135h-4c5 -66 11 -136 11 -205v-343h-79zM328 -206c-31 0 -54 22 -54 54c0 31 23 54 54 54s54 -23 54 -54c0 -32 -23 -54 -54 -54z" />
    <glyph glyph-name="uni1E48" unicode="&#x1e48;" horiz-adv-x="647" 
d="M90 0v656h86l237 -412l71 -136h4c-4 66 -10 140 -10 209v339h79v-656h-86l-238 413l-71 135h-4c5 -66 11 -136 11 -205v-343h-79zM195 -170v57h266v-57h-266z" />
    <glyph glyph-name="Ograve" unicode="&#xd2;" horiz-adv-x="664" 
d="M332 -12c-165 0 -280 132 -280 343c0 210 115 337 280 337s281 -128 281 -337c0 -211 -116 -343 -281 -343zM332 61c117 0 194 106 194 270c0 163 -77 264 -194 264s-194 -101 -194 -264c0 -164 77 -270 194 -270zM349 697l-152 115l47 55l142 -128z" />
    <glyph glyph-name="Oacute" unicode="&#xd3;" horiz-adv-x="664" 
d="M332 -12c-165 0 -280 132 -280 343c0 210 115 337 280 337s281 -128 281 -337c0 -211 -116 -343 -281 -343zM332 61c117 0 194 106 194 270c0 163 -77 264 -194 264s-194 -101 -194 -264c0 -164 77 -270 194 -270zM315 697l-37 42l142 128l47 -55z" />
    <glyph glyph-name="Ocircumflex" unicode="&#xd4;" horiz-adv-x="664" 
d="M332 -12c-165 0 -280 132 -280 343c0 210 115 337 280 337s281 -128 281 -337c0 -211 -116 -343 -281 -343zM332 61c117 0 194 106 194 270c0 163 -77 264 -194 264s-194 -101 -194 -264c0 -164 77 -270 194 -270zM184 725l105 113h86l105 -113l-36 -26l-110 93h-4
l-110 -93z" />
    <glyph glyph-name="Otilde" unicode="&#xd5;" horiz-adv-x="664" 
d="M332 -12c-165 0 -280 132 -280 343c0 210 115 337 280 337s281 -128 281 -337c0 -211 -116 -343 -281 -343zM332 61c117 0 194 106 194 270c0 163 -77 264 -194 264s-194 -101 -194 -264c0 -164 77 -270 194 -270zM407 709c-75 0 -101 71 -148 71c-25 0 -44 -23 -48 -66
l-56 4c4 76 42 123 102 123c75 0 101 -71 148 -71c25 0 43 23 48 66l56 -4c-4 -77 -42 -123 -102 -123z" />
    <glyph glyph-name="Odieresis" unicode="&#xd6;" horiz-adv-x="664" 
d="M332 -12c-165 0 -280 132 -280 343c0 210 115 337 280 337s281 -128 281 -337c0 -211 -116 -343 -281 -343zM332 61c117 0 194 106 194 270c0 163 -77 264 -194 264s-194 -101 -194 -264c0 -164 77 -270 194 -270zM229 715c-28 0 -49 21 -49 49c0 29 21 49 49 49
c29 0 49 -20 49 -49c0 -28 -20 -49 -49 -49zM435 715c-29 0 -49 21 -49 49c0 29 20 49 49 49c28 0 49 -20 49 -49c0 -28 -21 -49 -49 -49z" />
    <glyph glyph-name="Omacron" unicode="&#x14c;" horiz-adv-x="664" 
d="M332 -12c-165 0 -280 132 -280 343c0 210 115 337 280 337s281 -128 281 -337c0 -211 -116 -343 -281 -343zM332 61c117 0 194 106 194 270c0 163 -77 264 -194 264s-194 -101 -194 -264c0 -164 77 -270 194 -270zM198 735v57h268v-57h-268z" />
    <glyph glyph-name="Ohungarumlaut" unicode="&#x150;" horiz-adv-x="664" 
d="M332 -12c-165 0 -280 132 -280 343c0 210 115 337 280 337s281 -128 281 -337c0 -211 -116 -343 -281 -343zM332 61c117 0 194 106 194 270c0 163 -77 264 -194 264s-194 -101 -194 -264c0 -164 77 -270 194 -270zM230 724l92 152l56 -32l-105 -141zM390 724l92 152
l56 -32l-105 -141z" />
    <glyph glyph-name="uni01D1" unicode="&#x1d1;" horiz-adv-x="664" 
d="M332 -12c-165 0 -280 132 -280 343c0 210 115 337 280 337s281 -128 281 -337c0 -211 -116 -343 -281 -343zM332 61c117 0 194 106 194 270c0 163 -77 264 -194 264s-194 -101 -194 -264c0 -164 77 -270 194 -270zM289 706l-105 113l36 26l110 -92h4l110 92l36 -26
l-105 -113h-86z" />
    <glyph glyph-name="uni1ECC" unicode="&#x1ecc;" horiz-adv-x="664" 
d="M332 -12c-165 0 -280 132 -280 343c0 210 115 337 280 337s281 -128 281 -337c0 -211 -116 -343 -281 -343zM332 61c117 0 194 106 194 270c0 163 -77 264 -194 264s-194 -101 -194 -264c0 -164 77 -270 194 -270zM332 -206c-31 0 -54 22 -54 54c0 31 23 54 54 54
s54 -23 54 -54c0 -32 -23 -54 -54 -54z" />
    <glyph glyph-name="uni1ECE" unicode="&#x1ece;" horiz-adv-x="664" 
d="M332 -12c-165 0 -280 132 -280 343c0 210 115 337 280 337s281 -128 281 -337c0 -211 -116 -343 -281 -343zM332 61c117 0 194 106 194 270c0 163 -77 264 -194 264s-194 -101 -194 -264c0 -164 77 -270 194 -270zM300 698l-9 38c32 9 56 21 56 46c0 26 -27 40 -83 42
l9 48c87 -3 138 -30 138 -81c0 -58 -53 -83 -111 -93z" />
    <glyph glyph-name="uni1ED0" unicode="&#x1ed0;" horiz-adv-x="664" 
d="M332 -12c-165 0 -280 132 -280 343c0 210 115 337 280 337s281 -128 281 -337c0 -211 -116 -343 -281 -343zM332 61c117 0 194 106 194 270c0 163 -77 264 -194 264s-194 -101 -194 -264c0 -164 77 -270 194 -270zM237 699l-34 26l93 90h72l93 -90l-34 -26l-93 69h-4z
M453 763l-30 32l97 93l35 -39z" />
    <glyph glyph-name="uni1ED2" unicode="&#x1ed2;" horiz-adv-x="664" 
d="M332 -12c-165 0 -280 132 -280 343c0 210 115 337 280 337s281 -128 281 -337c0 -211 -116 -343 -281 -343zM332 61c117 0 194 106 194 270c0 163 -77 264 -194 264s-194 -101 -194 -264c0 -164 77 -270 194 -270zM237 699l-34 26l93 90h72l93 -90l-34 -26l-93 69h-4z
M241 793l-30 -30l-90 88l35 37z" />
    <glyph glyph-name="uni1ED4" unicode="&#x1ed4;" horiz-adv-x="664" 
d="M332 -12c-165 0 -280 132 -280 343c0 210 115 337 280 337s281 -128 281 -337c0 -211 -116 -343 -281 -343zM332 61c117 0 194 106 194 270c0 163 -77 264 -194 264s-194 -101 -194 -264c0 -164 77 -270 194 -270zM237 699l-34 26l93 90h72l93 -90l-34 -26l-93 69h-4z
M447 754l-11 35c25 6 45 15 45 36c0 26 -21 36 -71 39l9 42c78 -3 120 -27 120 -73c0 -51 -44 -71 -92 -79z" />
    <glyph glyph-name="uni1ED6" unicode="&#x1ed6;" horiz-adv-x="664" 
d="M332 -12c-165 0 -280 132 -280 343c0 210 115 337 280 337s281 -128 281 -337c0 -211 -116 -343 -281 -343zM332 61c117 0 194 106 194 270c0 163 -77 264 -194 264s-194 -101 -194 -264c0 -164 77 -270 194 -270zM237 699l-34 26l93 87h72l93 -87l-34 -26l-93 66h-4z
M187 848c3 51 25 91 79 91c64 0 87 -49 128 -49c24 0 34 17 38 46l45 -5c-3 -52 -25 -92 -79 -92c-64 0 -87 50 -128 50c-24 0 -34 -17 -38 -46z" />
    <glyph glyph-name="uni1ED8" unicode="&#x1ed8;" horiz-adv-x="664" 
d="M332 -12c-165 0 -280 132 -280 343c0 210 115 337 280 337s281 -128 281 -337c0 -211 -116 -343 -281 -343zM332 61c117 0 194 106 194 270c0 163 -77 264 -194 264s-194 -101 -194 -264c0 -164 77 -270 194 -270zM184 725l105 113h86l105 -113l-36 -26l-110 93h-4
l-110 -93zM332 -206c-31 0 -54 22 -54 54c0 31 23 54 54 54s54 -23 54 -54c0 -32 -23 -54 -54 -54z" />
    <glyph glyph-name="uni014E" unicode="&#x14e;" horiz-adv-x="664" 
d="M332 -12c-165 0 -280 132 -280 343c0 210 115 337 280 337s281 -128 281 -337c0 -211 -116 -343 -281 -343zM332 61c117 0 194 106 194 270c0 163 -77 264 -194 264s-194 -101 -194 -264c0 -164 77 -270 194 -270zM332 705c-93 0 -138 59 -146 129l50 8
c8 -47 39 -84 96 -84s88 37 96 84l50 -8c-8 -70 -53 -129 -146 -129z" />
    <glyph glyph-name="uni1E52" unicode="&#x1e52;" horiz-adv-x="664" 
d="M332 -12c-165 0 -280 132 -280 343c0 210 115 337 280 337s281 -128 281 -337c0 -211 -116 -343 -281 -343zM332 61c117 0 194 106 194 270c0 163 -77 264 -194 264s-194 -101 -194 -264c0 -164 77 -270 194 -270zM314 827l-31 38l121 103l39 -48zM198 735v57h268v-57
h-268z" />
    <glyph glyph-name="Oslash" unicode="&#xd8;" horiz-adv-x="664" 
d="M335 -12c-69 0 -129 23 -175 65l-64 -83l-46 36l70 91c-41 59 -65 138 -65 234c0 210 115 337 280 337c69 0 129 -22 176 -63l62 81l46 -35l-69 -89c42 -58 66 -136 66 -231c0 -211 -116 -343 -281 -343zM141 331c0 -64 12 -120 33 -163l288 373c-33 35 -76 54 -127 54
c-117 0 -194 -101 -194 -264zM335 61c117 0 194 106 194 270c0 64 -12 118 -33 160l-287 -374c32 -36 75 -56 126 -56z" />
    <glyph glyph-name="OE" unicode="&#x152;" horiz-adv-x="847" 
d="M369 0c-199 0 -317 122 -317 331c0 208 118 325 321 325h415v-70h-278v-206h232v-71h-232v-238h288v-71h-429zM379 68h48v520h-48c-158 0 -241 -91 -241 -257c0 -167 83 -263 241 -263z" />
    <glyph glyph-name="Ohorn" unicode="&#x1a0;" horiz-adv-x="664" 
d="M335 -12c-165 0 -280 132 -280 343c0 210 115 337 280 337c48 0 92 -11 130 -31c55 11 81 36 81 82c0 20 -6 42 -14 58l65 28c13 -22 23 -50 23 -80c0 -67 -41 -105 -107 -122c64 -58 103 -151 103 -272c0 -211 -116 -343 -281 -343zM335 61c117 0 194 106 194 270
c0 163 -77 264 -194 264s-194 -101 -194 -264c0 -164 77 -270 194 -270z" />
    <glyph glyph-name="uni1EDA" unicode="&#x1eda;" horiz-adv-x="664" 
d="M335 -12c-165 0 -280 132 -280 343c0 210 115 337 280 337c48 0 92 -11 130 -31c55 11 81 36 81 82c0 20 -6 42 -14 58l65 28c13 -22 23 -50 23 -80c0 -67 -41 -105 -107 -122c64 -58 103 -151 103 -272c0 -211 -116 -343 -281 -343zM335 61c117 0 194 106 194 270
c0 163 -77 264 -194 264s-194 -101 -194 -264c0 -164 77 -270 194 -270zM315 697l-37 42l142 128l47 -55z" />
    <glyph glyph-name="uni1EDC" unicode="&#x1edc;" horiz-adv-x="664" 
d="M335 -12c-165 0 -280 132 -280 343c0 210 115 337 280 337c48 0 92 -11 130 -31c55 11 81 36 81 82c0 20 -6 42 -14 58l65 28c13 -22 23 -50 23 -80c0 -67 -41 -105 -107 -122c64 -58 103 -151 103 -272c0 -211 -116 -343 -281 -343zM335 61c117 0 194 106 194 270
c0 163 -77 264 -194 264s-194 -101 -194 -264c0 -164 77 -270 194 -270zM349 697l-152 115l47 55l142 -128z" />
    <glyph glyph-name="uni1EDE" unicode="&#x1ede;" horiz-adv-x="664" 
d="M335 -12c-165 0 -280 132 -280 343c0 210 115 337 280 337c48 0 92 -11 130 -31c55 11 81 36 81 82c0 20 -6 42 -14 58l65 28c13 -22 23 -50 23 -80c0 -67 -41 -105 -107 -122c64 -58 103 -151 103 -272c0 -211 -116 -343 -281 -343zM335 61c117 0 194 106 194 270
c0 163 -77 264 -194 264s-194 -101 -194 -264c0 -164 77 -270 194 -270zM300 698l-9 38c32 9 56 21 56 46c0 26 -27 40 -83 42l9 48c87 -3 138 -30 138 -81c0 -58 -53 -83 -111 -93z" />
    <glyph glyph-name="uni1EE0" unicode="&#x1ee0;" horiz-adv-x="664" 
d="M335 -12c-165 0 -280 132 -280 343c0 210 115 337 280 337c48 0 92 -11 130 -31c55 11 81 36 81 82c0 20 -6 42 -14 58l65 28c13 -22 23 -50 23 -80c0 -67 -41 -105 -107 -122c64 -58 103 -151 103 -272c0 -211 -116 -343 -281 -343zM335 61c117 0 194 106 194 270
c0 163 -77 264 -194 264s-194 -101 -194 -264c0 -164 77 -270 194 -270zM400 709c-75 0 -101 71 -148 71c-25 0 -44 -23 -48 -66l-56 4c4 76 42 123 102 123c75 0 101 -71 148 -71c25 0 43 23 48 66l56 -4c-4 -77 -42 -123 -102 -123z" />
    <glyph glyph-name="uni1EE2" unicode="&#x1ee2;" horiz-adv-x="664" 
d="M335 -12c-165 0 -280 132 -280 343c0 210 115 337 280 337c48 0 92 -11 130 -31c55 11 81 36 81 82c0 20 -6 42 -14 58l65 28c13 -22 23 -50 23 -80c0 -67 -41 -105 -107 -122c64 -58 103 -151 103 -272c0 -211 -116 -343 -281 -343zM335 61c117 0 194 106 194 270
c0 163 -77 264 -194 264s-194 -101 -194 -264c0 -164 77 -270 194 -270zM332 -206c-31 0 -54 22 -54 54c0 31 23 54 54 54s54 -23 54 -54c0 -32 -23 -54 -54 -54z" />
    <glyph glyph-name="uni01EA" unicode="&#x1ea;" horiz-adv-x="664" 
d="M361 -212c-53 0 -95 30 -95 87c0 44 26 85 61 114c-169 4 -275 137 -275 342c0 210 115 337 280 337s281 -128 281 -337c0 -179 -74 -278 -205 -338c-54 -24 -78 -66 -78 -100c0 -31 24 -46 48 -46c16 0 28 5 40 14l23 -45c-19 -15 -53 -28 -80 -28zM332 61
c117 0 194 106 194 270c0 163 -77 264 -194 264s-194 -101 -194 -264c0 -164 77 -270 194 -270z" />
    <glyph glyph-name="Racute" unicode="&#x154;" horiz-adv-x="569" 
d="M90 0v656h205c134 0 230 -48 230 -184c0 -102 -58 -164 -148 -186l167 -286h-94l-158 277h-119v-277h-83zM173 345h110c102 0 159 42 159 127c0 86 -57 117 -159 117h-110v-244zM271 697l-37 42l142 128l47 -55z" />
    <glyph glyph-name="Rcaron" unicode="&#x158;" horiz-adv-x="569" 
d="M90 0v656h205c134 0 230 -48 230 -184c0 -102 -58 -164 -148 -186l167 -286h-94l-158 277h-119v-277h-83zM173 345h110c102 0 159 42 159 127c0 86 -57 117 -159 117h-110v-244zM245 706l-105 113l36 26l110 -92h4l110 92l36 -26l-105 -113h-86z" />
    <glyph glyph-name="uni1E58" unicode="&#x1e58;" horiz-adv-x="569" 
d="M90 0v656h205c134 0 230 -48 230 -184c0 -102 -58 -164 -148 -186l167 -286h-94l-158 277h-119v-277h-83zM173 345h110c102 0 159 42 159 127c0 86 -57 117 -159 117h-110v-244zM289 714c-32 0 -57 22 -57 54c0 31 25 53 57 53s57 -22 57 -53c0 -32 -25 -54 -57 -54z" />
    <glyph glyph-name="uni0156" unicode="&#x156;" horiz-adv-x="569" 
d="M90 0v656h205c134 0 230 -48 230 -184c0 -102 -58 -164 -148 -186l167 -286h-94l-158 277h-119v-277h-83zM173 345h110c102 0 159 42 159 127c0 86 -57 117 -159 117h-110v-244zM217 -226l-8 40c84 6 109 21 109 48c0 26 -25 38 -71 42l18 38c87 -10 117 -32 117 -77
c0 -58 -59 -86 -165 -91z" />
    <glyph glyph-name="uni1E5A" unicode="&#x1e5a;" horiz-adv-x="569" 
d="M90 0v656h205c134 0 230 -48 230 -184c0 -102 -58 -164 -148 -186l167 -286h-94l-158 277h-119v-277h-83zM173 345h110c102 0 159 42 159 127c0 86 -57 117 -159 117h-110v-244zM304 -206c-31 0 -54 22 -54 54c0 31 23 54 54 54s54 -23 54 -54c0 -32 -23 -54 -54 -54z
" />
    <glyph glyph-name="uni1E5C" unicode="&#x1e5c;" horiz-adv-x="569" 
d="M90 0v656h205c134 0 230 -48 230 -184c0 -102 -58 -164 -148 -186l167 -286h-94l-158 277h-119v-277h-83zM173 345h110c102 0 159 42 159 127c0 86 -57 117 -159 117h-110v-244zM154 735v57h268v-57h-268zM304 -206c-31 0 -54 22 -54 54c0 31 23 54 54 54s54 -23 54 -54
c0 -32 -23 -54 -54 -54z" />
    <glyph glyph-name="uni1E5E" unicode="&#x1e5e;" horiz-adv-x="569" 
d="M90 0v656h205c134 0 230 -48 230 -184c0 -102 -58 -164 -148 -186l167 -286h-94l-158 277h-119v-277h-83zM173 345h110c102 0 159 42 159 127c0 86 -57 117 -159 117h-110v-244zM171 -170v57h266v-57h-266z" />
    <glyph glyph-name="Sacute" unicode="&#x15a;" horiz-adv-x="534" 
d="M272 -12c-92 0 -173 38 -230 97l50 58c47 -49 113 -82 181 -82c86 0 137 43 137 107c0 67 -47 88 -109 116l-94 41c-62 26 -133 73 -133 169c0 100 87 174 206 174c78 0 147 -33 194 -81l-45 -54c-40 38 -88 62 -149 62c-73 0 -122 -37 -122 -96c0 -63 57 -87 109 -109
l93 -40c76 -33 135 -78 135 -175c0 -104 -85 -187 -223 -187zM262 697l-37 42l142 128l47 -55z" />
    <glyph glyph-name="Scircumflex" unicode="&#x15c;" horiz-adv-x="534" 
d="M272 -12c-92 0 -173 38 -230 97l50 58c47 -49 113 -82 181 -82c86 0 137 43 137 107c0 67 -47 88 -109 116l-94 41c-62 26 -133 73 -133 169c0 100 87 174 206 174c78 0 147 -33 194 -81l-45 -54c-40 38 -88 62 -149 62c-73 0 -122 -37 -122 -96c0 -63 57 -87 109 -109
l93 -40c76 -33 135 -78 135 -175c0 -104 -85 -187 -223 -187zM131 725l105 113h86l105 -113l-36 -26l-110 93h-4l-110 -93z" />
    <glyph glyph-name="Scaron" unicode="&#x160;" horiz-adv-x="534" 
d="M272 -12c-92 0 -173 38 -230 97l50 58c47 -49 113 -82 181 -82c86 0 137 43 137 107c0 67 -47 88 -109 116l-94 41c-62 26 -133 73 -133 169c0 100 87 174 206 174c78 0 147 -33 194 -81l-45 -54c-40 38 -88 62 -149 62c-73 0 -122 -37 -122 -96c0 -63 57 -87 109 -109
l93 -40c76 -33 135 -78 135 -175c0 -104 -85 -187 -223 -187zM236 706l-105 113l36 26l110 -92h4l110 92l36 -26l-105 -113h-86z" />
    <glyph glyph-name="uni015E" unicode="&#x15e;" horiz-adv-x="534" 
d="M186 -226l-8 40c84 6 109 21 109 50c0 26 -20 40 -77 48l37 77c-82 6 -153 42 -205 96l50 58c47 -49 113 -82 181 -82c86 0 137 43 137 107c0 67 -47 88 -109 116l-94 41c-62 26 -133 73 -133 169c0 100 87 174 206 174c78 0 147 -33 194 -81l-45 -54
c-40 38 -88 62 -149 62c-73 0 -122 -37 -122 -96c0 -63 57 -87 109 -109l93 -40c76 -33 135 -78 135 -175c0 -96 -73 -175 -194 -186l-23 -53c46 -11 73 -30 73 -71c0 -58 -59 -86 -165 -91z" />
    <glyph glyph-name="uni0218" unicode="&#x218;" horiz-adv-x="534" 
d="M272 -12c-92 0 -173 38 -230 97l50 58c47 -49 113 -82 181 -82c86 0 137 43 137 107c0 67 -47 88 -109 116l-94 41c-62 26 -133 73 -133 169c0 100 87 174 206 174c78 0 147 -33 194 -81l-45 -54c-40 38 -88 62 -149 62c-73 0 -122 -37 -122 -96c0 -63 57 -87 109 -109
l93 -40c76 -33 135 -78 135 -175c0 -104 -85 -187 -223 -187zM186 -226l-8 40c84 6 109 21 109 48c0 26 -25 38 -71 42l18 38c87 -10 117 -32 117 -77c0 -58 -59 -86 -165 -91z" />
    <glyph glyph-name="uni1E60" unicode="&#x1e60;" horiz-adv-x="534" 
d="M272 -12c-92 0 -173 38 -230 97l50 58c47 -49 113 -82 181 -82c86 0 137 43 137 107c0 67 -47 88 -109 116l-94 41c-62 26 -133 73 -133 169c0 100 87 174 206 174c78 0 147 -33 194 -81l-45 -54c-40 38 -88 62 -149 62c-73 0 -122 -37 -122 -96c0 -63 57 -87 109 -109
l93 -40c76 -33 135 -78 135 -175c0 -104 -85 -187 -223 -187zM279 714c-32 0 -57 22 -57 54c0 31 25 53 57 53s57 -22 57 -53c0 -32 -25 -54 -57 -54z" />
    <glyph glyph-name="uni1E62" unicode="&#x1e62;" horiz-adv-x="534" 
d="M272 -12c-92 0 -173 38 -230 97l50 58c47 -49 113 -82 181 -82c86 0 137 43 137 107c0 67 -47 88 -109 116l-94 41c-62 26 -133 73 -133 169c0 100 87 174 206 174c78 0 147 -33 194 -81l-45 -54c-40 38 -88 62 -149 62c-73 0 -122 -37 -122 -96c0 -63 57 -87 109 -109
l93 -40c76 -33 135 -78 135 -175c0 -104 -85 -187 -223 -187zM273 -206c-31 0 -54 22 -54 54c0 31 23 54 54 54s54 -23 54 -54c0 -32 -23 -54 -54 -54z" />
    <glyph glyph-name="uni1E9E" unicode="&#x1e9e;" horiz-adv-x="667" 
d="M434 -12c-77 0 -140 31 -181 76l48 54c38 -42 77 -60 126 -60c70 0 111 47 111 113c0 62 -40 113 -193 139l-5 54l137 153c-22 45 -65 82 -133 82c-106 0 -169 -62 -169 -197v-402h-84v417c0 156 94 251 256 251c111 0 181 -61 217 -154l-138 -152
c139 -28 198 -96 198 -191c0 -104 -75 -183 -190 -183z" />
    <glyph glyph-name="Tcaron" unicode="&#x164;" horiz-adv-x="536" 
d="M226 0v586h-198v70h480v-70h-198v-586h-84zM224 706l-105 113l36 26l110 -92h4l110 92l36 -26l-105 -113h-86z" />
    <glyph glyph-name="uni0162" unicode="&#x162;" horiz-adv-x="536" 
d="M226 0v586h-198v70h480v-70h-198v-586h-12l-28 -64c46 -11 73 -30 73 -71c0 -58 -59 -86 -165 -91l-8 40c84 6 109 21 109 50c0 26 -20 40 -77 48l43 88h-19z" />
    <glyph glyph-name="uni021A" unicode="&#x21a;" horiz-adv-x="536" 
d="M226 0v586h-198v70h480v-70h-198v-586h-84zM182 -226l-8 40c84 6 109 21 109 48c0 26 -25 38 -71 42l18 38c87 -10 117 -32 117 -77c0 -58 -59 -86 -165 -91z" />
    <glyph glyph-name="uni1E6C" unicode="&#x1e6c;" horiz-adv-x="536" 
d="M226 0v586h-198v70h480v-70h-198v-586h-84zM269 -206c-31 0 -54 22 -54 54c0 31 23 54 54 54s54 -23 54 -54c0 -32 -23 -54 -54 -54z" />
    <glyph glyph-name="uni1E6E" unicode="&#x1e6e;" horiz-adv-x="536" 
d="M226 0v586h-198v70h480v-70h-198v-586h-84zM136 -170v57h266v-57h-266z" />
    <glyph glyph-name="uni0166" unicode="&#x166;" horiz-adv-x="536" 
d="M226 0v313h-123v44l88 3h35v226h-198v70h480v-70h-198v-226h123v-47h-123v-313h-84z" />
    <glyph glyph-name="Ugrave" unicode="&#xd9;" horiz-adv-x="645" 
d="M323 -12c-134 0 -236 72 -236 283v385h83v-387c0 -158 67 -208 153 -208c87 0 155 50 155 208v387h80v-385c0 -211 -101 -283 -235 -283zM340 697l-152 115l47 55l142 -128z" />
    <glyph glyph-name="Uacute" unicode="&#xda;" horiz-adv-x="645" 
d="M323 -12c-134 0 -236 72 -236 283v385h83v-387c0 -158 67 -208 153 -208c87 0 155 50 155 208v387h80v-385c0 -211 -101 -283 -235 -283zM306 697l-37 42l142 128l47 -55z" />
    <glyph glyph-name="Ucircumflex" unicode="&#xdb;" horiz-adv-x="645" 
d="M323 -12c-134 0 -236 72 -236 283v385h83v-387c0 -158 67 -208 153 -208c87 0 155 50 155 208v387h80v-385c0 -211 -101 -283 -235 -283zM175 725l105 113h86l105 -113l-36 -26l-110 93h-4l-110 -93z" />
    <glyph glyph-name="Utilde" unicode="&#x168;" horiz-adv-x="645" 
d="M323 -12c-134 0 -236 72 -236 283v385h83v-387c0 -158 67 -208 153 -208c87 0 155 50 155 208v387h80v-385c0 -211 -101 -283 -235 -283zM398 709c-75 0 -101 71 -148 71c-25 0 -44 -23 -48 -66l-56 4c4 76 42 123 102 123c75 0 101 -71 148 -71c25 0 43 23 48 66l56 -4
c-4 -77 -42 -123 -102 -123z" />
    <glyph glyph-name="Udieresis" unicode="&#xdc;" horiz-adv-x="645" 
d="M323 -12c-134 0 -236 72 -236 283v385h83v-387c0 -158 67 -208 153 -208c87 0 155 50 155 208v387h80v-385c0 -211 -101 -283 -235 -283zM220 715c-28 0 -49 21 -49 49c0 29 21 49 49 49c29 0 49 -20 49 -49c0 -28 -20 -49 -49 -49zM426 715c-29 0 -49 21 -49 49
c0 29 20 49 49 49c28 0 49 -20 49 -49c0 -28 -21 -49 -49 -49z" />
    <glyph glyph-name="Umacron" unicode="&#x16a;" horiz-adv-x="645" 
d="M323 -12c-134 0 -236 72 -236 283v385h83v-387c0 -158 67 -208 153 -208c87 0 155 50 155 208v387h80v-385c0 -211 -101 -283 -235 -283zM189 735v57h268v-57h-268z" />
    <glyph glyph-name="Ubreve" unicode="&#x16c;" horiz-adv-x="645" 
d="M323 -12c-134 0 -236 72 -236 283v385h83v-387c0 -158 67 -208 153 -208c87 0 155 50 155 208v387h80v-385c0 -211 -101 -283 -235 -283zM323 705c-93 0 -138 59 -146 129l50 8c8 -47 39 -84 96 -84s88 37 96 84l50 -8c-8 -70 -53 -129 -146 -129z" />
    <glyph glyph-name="Uring" unicode="&#x16e;" horiz-adv-x="645" 
d="M323 -12c-134 0 -236 72 -236 283v385h83v-387c0 -158 67 -208 153 -208c87 0 155 50 155 208v387h80v-385c0 -211 -101 -283 -235 -283zM323 699c-56 0 -97 36 -97 90c0 55 41 91 97 91c55 0 97 -36 97 -91c0 -54 -42 -90 -97 -90zM323 735c27 0 51 19 51 54
c0 34 -24 54 -51 54c-29 0 -52 -20 -52 -54c0 -35 23 -54 52 -54z" />
    <glyph glyph-name="Uhungarumlaut" unicode="&#x170;" horiz-adv-x="645" 
d="M323 -12c-134 0 -236 72 -236 283v385h83v-387c0 -158 67 -208 153 -208c87 0 155 50 155 208v387h80v-385c0 -211 -101 -283 -235 -283zM221 724l92 152l56 -32l-105 -141zM381 724l92 152l56 -32l-105 -141z" />
    <glyph glyph-name="uni01D3" unicode="&#x1d3;" horiz-adv-x="645" 
d="M323 -12c-134 0 -236 72 -236 283v385h83v-387c0 -158 67 -208 153 -208c87 0 155 50 155 208v387h80v-385c0 -211 -101 -283 -235 -283zM280 706l-105 113l36 26l110 -92h4l110 92l36 -26l-105 -113h-86z" />
    <glyph glyph-name="uni01D5" unicode="&#x1d5;" horiz-adv-x="645" 
d="M323 -12c-134 0 -236 72 -236 283v385h83v-387c0 -158 67 -208 153 -208c87 0 155 50 155 208v387h80v-385c0 -211 -101 -283 -235 -283zM220 715c-26 0 -45 19 -45 46c0 26 19 45 45 45s46 -19 46 -45c0 -27 -20 -46 -46 -46zM189 861v46h268v-46h-268zM426 715
c-26 0 -46 19 -46 46c0 26 20 45 46 45s45 -19 45 -45c0 -27 -19 -46 -45 -46z" />
    <glyph glyph-name="uni01D7" unicode="&#x1d7;" horiz-adv-x="645" 
d="M323 -12c-134 0 -236 72 -236 283v385h83v-387c0 -158 67 -208 153 -208c87 0 155 50 155 208v387h80v-385c0 -211 -101 -283 -235 -283zM220 715c-26 0 -45 19 -45 46c0 26 19 45 45 45s46 -19 46 -45c0 -27 -20 -46 -46 -46zM285 849l95 119l53 -36l-111 -109zM426 715
c-26 0 -46 19 -46 46c0 26 20 45 46 45s45 -19 45 -45c0 -27 -19 -46 -45 -46z" />
    <glyph glyph-name="uni01D9" unicode="&#x1d9;" horiz-adv-x="645" 
d="M323 -12c-134 0 -236 72 -236 283v385h83v-387c0 -158 67 -208 153 -208c87 0 155 50 155 208v387h80v-385c0 -211 -101 -283 -235 -283zM287 839l-99 96l33 27l100 -75h4l100 75l33 -27l-99 -96h-72zM220 715c-26 0 -45 19 -45 46c0 26 19 45 45 45s46 -19 46 -45
c0 -27 -20 -46 -46 -46zM426 715c-26 0 -46 19 -46 46c0 26 20 45 46 45s45 -19 45 -45c0 -27 -19 -46 -45 -46z" />
    <glyph glyph-name="uni01DB" unicode="&#x1db;" horiz-adv-x="645" 
d="M323 -12c-134 0 -236 72 -236 283v385h83v-387c0 -158 67 -208 153 -208c87 0 155 50 155 208v387h80v-385c0 -211 -101 -283 -235 -283zM361 849l-37 -26l-111 109l53 36zM220 715c-26 0 -45 19 -45 46c0 26 19 45 45 45s46 -19 46 -45c0 -27 -20 -46 -46 -46zM426 715
c-26 0 -46 19 -46 46c0 26 20 45 46 45s45 -19 45 -45c0 -27 -19 -46 -45 -46z" />
    <glyph glyph-name="uni1EE4" unicode="&#x1ee4;" horiz-adv-x="645" 
d="M323 -12c-134 0 -236 72 -236 283v385h83v-387c0 -158 67 -208 153 -208c87 0 155 50 155 208v387h80v-385c0 -211 -101 -283 -235 -283zM323 -206c-31 0 -54 22 -54 54c0 31 23 54 54 54s54 -23 54 -54c0 -32 -23 -54 -54 -54z" />
    <glyph glyph-name="uni1EE6" unicode="&#x1ee6;" horiz-adv-x="645" 
d="M323 -12c-134 0 -236 72 -236 283v385h83v-387c0 -158 67 -208 153 -208c87 0 155 50 155 208v387h80v-385c0 -211 -101 -283 -235 -283zM291 698l-9 38c32 9 56 21 56 46c0 26 -27 40 -83 42l9 48c87 -3 138 -30 138 -81c0 -58 -53 -83 -111 -93z" />
    <glyph glyph-name="Uogonek" unicode="&#x172;" horiz-adv-x="645" 
d="M350 -212c-53 0 -96 30 -96 87c0 55 39 89 64 114c-137 3 -231 80 -231 282v385h83v-387c0 -158 67 -208 153 -208c87 0 155 50 155 208v387h80v-385c0 -177 -65 -233 -160 -278c-52 -25 -79 -67 -79 -100c0 -31 24 -46 48 -46c15 0 28 5 40 14l23 -45
c-19 -15 -53 -28 -80 -28z" />
    <glyph glyph-name="Uhorn" unicode="&#x1af;" horiz-adv-x="659" 
d="M323 -12c-134 0 -236 72 -236 283v385h83v-387c0 -158 67 -208 153 -208c87 0 155 50 155 208v387h33c55 7 90 27 90 83c0 20 -6 42 -15 58l65 28c14 -22 23 -50 23 -80c0 -77 -51 -110 -116 -125v-349c0 -211 -101 -283 -235 -283z" />
    <glyph glyph-name="uni1EE8" unicode="&#x1ee8;" horiz-adv-x="659" 
d="M323 -12c-134 0 -236 72 -236 283v385h83v-387c0 -158 67 -208 153 -208c87 0 155 50 155 208v387h33c55 7 90 27 90 83c0 20 -6 42 -15 58l65 28c14 -22 23 -50 23 -80c0 -77 -51 -110 -116 -125v-349c0 -211 -101 -283 -235 -283zM305 697l-37 42l142 128l47 -55z" />
    <glyph glyph-name="uni1EEA" unicode="&#x1eea;" horiz-adv-x="659" 
d="M323 -12c-134 0 -236 72 -236 283v385h83v-387c0 -158 67 -208 153 -208c87 0 155 50 155 208v387h33c55 7 90 27 90 83c0 20 -6 42 -15 58l65 28c14 -22 23 -50 23 -80c0 -77 -51 -110 -116 -125v-349c0 -211 -101 -283 -235 -283zM339 697l-152 115l47 55l142 -128z
" />
    <glyph glyph-name="uni1EEC" unicode="&#x1eec;" horiz-adv-x="659" 
d="M323 -12c-134 0 -236 72 -236 283v385h83v-387c0 -158 67 -208 153 -208c87 0 155 50 155 208v387h33c55 7 90 27 90 83c0 20 -6 42 -15 58l65 28c14 -22 23 -50 23 -80c0 -77 -51 -110 -116 -125v-349c0 -211 -101 -283 -235 -283zM290 698l-9 38c32 9 56 21 56 46
c0 26 -27 40 -83 42l9 48c87 -3 138 -30 138 -81c0 -58 -53 -83 -111 -93z" />
    <glyph glyph-name="uni1EEE" unicode="&#x1eee;" horiz-adv-x="659" 
d="M323 -12c-134 0 -236 72 -236 283v385h83v-387c0 -158 67 -208 153 -208c87 0 155 50 155 208v387h33c55 7 90 27 90 83c0 20 -6 42 -15 58l65 28c14 -22 23 -50 23 -80c0 -77 -51 -110 -116 -125v-349c0 -211 -101 -283 -235 -283zM397 709c-75 0 -101 71 -148 71
c-25 0 -44 -23 -48 -66l-56 4c4 76 42 123 102 123c75 0 101 -71 148 -71c25 0 43 23 48 66l56 -4c-4 -77 -42 -123 -102 -123z" />
    <glyph glyph-name="uni1EF0" unicode="&#x1ef0;" horiz-adv-x="659" 
d="M323 -12c-134 0 -236 72 -236 283v385h83v-387c0 -158 67 -208 153 -208c87 0 155 50 155 208v387h33c55 7 90 27 90 83c0 20 -6 42 -15 58l65 28c14 -22 23 -50 23 -80c0 -77 -51 -110 -116 -125v-349c0 -211 -101 -283 -235 -283zM322 -206c-31 0 -54 22 -54 54
c0 31 23 54 54 54s54 -23 54 -54c0 -32 -23 -54 -54 -54z" />
    <glyph glyph-name="Wgrave" unicode="&#x1e80;" horiz-adv-x="786" 
d="M162 0l-139 656h86l69 -357c12 -71 26 -141 38 -212h4c15 71 31 142 46 212l91 357h76l91 -357c16 -69 32 -141 48 -212h4c12 71 24 142 37 212l69 357h80l-136 -656h-100l-99 395c-12 51 -22 98 -32 149h-4c-10 -51 -22 -98 -33 -149l-97 -395h-99zM410 697l-152 115
l47 55l142 -128z" />
    <glyph glyph-name="Wacute" unicode="&#x1e82;" horiz-adv-x="786" 
d="M162 0l-139 656h86l69 -357c12 -71 26 -141 38 -212h4c15 71 31 142 46 212l91 357h76l91 -357c16 -69 32 -141 48 -212h4c12 71 24 142 37 212l69 357h80l-136 -656h-100l-99 395c-12 51 -22 98 -32 149h-4c-10 -51 -22 -98 -33 -149l-97 -395h-99zM376 697l-37 42
l142 128l47 -55z" />
    <glyph glyph-name="Wcircumflex" unicode="&#x174;" horiz-adv-x="786" 
d="M162 0l-139 656h86l69 -357c12 -71 26 -141 38 -212h4c15 71 31 142 46 212l91 357h76l91 -357c16 -69 32 -141 48 -212h4c12 71 24 142 37 212l69 357h80l-136 -656h-100l-99 395c-12 51 -22 98 -32 149h-4c-10 -51 -22 -98 -33 -149l-97 -395h-99zM245 725l105 113h86
l105 -113l-36 -26l-110 93h-4l-110 -93z" />
    <glyph glyph-name="Wdieresis" unicode="&#x1e84;" horiz-adv-x="786" 
d="M162 0l-139 656h86l69 -357c12 -71 26 -141 38 -212h4c15 71 31 142 46 212l91 357h76l91 -357c16 -69 32 -141 48 -212h4c12 71 24 142 37 212l69 357h80l-136 -656h-100l-99 395c-12 51 -22 98 -32 149h-4c-10 -51 -22 -98 -33 -149l-97 -395h-99zM290 715
c-28 0 -49 21 -49 49c0 29 21 49 49 49c29 0 49 -20 49 -49c0 -28 -20 -49 -49 -49zM496 715c-29 0 -49 21 -49 49c0 29 20 49 49 49c28 0 49 -20 49 -49c0 -28 -21 -49 -49 -49z" />
    <glyph glyph-name="Ygrave" unicode="&#x1ef2;" horiz-adv-x="476" 
d="M196 0v254l-197 402h89l85 -185c21 -48 41 -94 63 -143h4c23 49 46 95 66 143l84 185h87l-197 -402v-254h-84zM255 697l-152 115l47 55l142 -128z" />
    <glyph glyph-name="Yacute" unicode="&#xdd;" horiz-adv-x="476" 
d="M196 0v254l-197 402h89l85 -185c21 -48 41 -94 63 -143h4c23 49 46 95 66 143l84 185h87l-197 -402v-254h-84zM221 697l-37 42l142 128l47 -55z" />
    <glyph glyph-name="Ycircumflex" unicode="&#x176;" horiz-adv-x="476" 
d="M196 0v254l-197 402h89l85 -185c21 -48 41 -94 63 -143h4c23 49 46 95 66 143l84 185h87l-197 -402v-254h-84zM90 725l105 113h86l105 -113l-36 -26l-110 93h-4l-110 -93z" />
    <glyph glyph-name="Ydieresis" unicode="&#x178;" horiz-adv-x="476" 
d="M196 0v254l-197 402h89l85 -185c21 -48 41 -94 63 -143h4c23 49 46 95 66 143l84 185h87l-197 -402v-254h-84zM135 715c-28 0 -49 21 -49 49c0 29 21 49 49 49c29 0 49 -20 49 -49c0 -28 -20 -49 -49 -49zM341 715c-29 0 -49 21 -49 49c0 29 20 49 49 49
c28 0 49 -20 49 -49c0 -28 -21 -49 -49 -49z" />
    <glyph glyph-name="uni1E8E" unicode="&#x1e8e;" horiz-adv-x="476" 
d="M196 0v254l-197 402h89l85 -185c21 -48 41 -94 63 -143h4c23 49 46 95 66 143l84 185h87l-197 -402v-254h-84zM238 714c-32 0 -57 22 -57 54c0 31 25 53 57 53s57 -22 57 -53c0 -32 -25 -54 -57 -54z" />
    <glyph glyph-name="uni1EF4" unicode="&#x1ef4;" horiz-adv-x="476" 
d="M196 0v254l-197 402h89l85 -185c21 -48 41 -94 63 -143h4c23 49 46 95 66 143l84 185h87l-197 -402v-254h-84zM240 -206c-31 0 -54 22 -54 54c0 31 23 54 54 54s54 -23 54 -54c0 -32 -23 -54 -54 -54z" />
    <glyph glyph-name="uni1EF6" unicode="&#x1ef6;" horiz-adv-x="476" 
d="M196 0v254l-197 402h89l85 -185c21 -48 41 -94 63 -143h4c23 49 46 95 66 143l84 185h87l-197 -402v-254h-84zM206 698l-9 38c32 9 56 21 56 46c0 26 -27 40 -83 42l9 48c87 -3 138 -30 138 -81c0 -58 -53 -83 -111 -93z" />
    <glyph glyph-name="uni1EF8" unicode="&#x1ef8;" horiz-adv-x="476" 
d="M196 0v254l-197 402h89l85 -185c21 -48 41 -94 63 -143h4c23 49 46 95 66 143l84 185h87l-197 -402v-254h-84zM313 709c-75 0 -101 71 -148 71c-25 0 -44 -23 -48 -66l-56 4c4 76 42 123 102 123c75 0 101 -71 148 -71c25 0 43 23 48 66l56 -4c-4 -77 -42 -123 -102 -123
z" />
    <glyph glyph-name="Zacute" unicode="&#x179;" horiz-adv-x="539" 
d="M45 0v50l345 536h-314v70h418v-49l-346 -536h349v-71h-452zM264 697l-37 42l142 128l47 -55z" />
    <glyph glyph-name="Zcaron" unicode="&#x17d;" horiz-adv-x="539" 
d="M45 0v50l345 536h-314v70h418v-49l-346 -536h349v-71h-452zM238 706l-105 113l36 26l110 -92h4l110 92l36 -26l-105 -113h-86z" />
    <glyph glyph-name="Zdotaccent" unicode="&#x17b;" horiz-adv-x="539" 
d="M45 0v50l345 536h-314v70h418v-49l-346 -536h349v-71h-452zM281 714c-32 0 -57 22 -57 54c0 31 25 53 57 53s57 -22 57 -53c0 -32 -25 -54 -57 -54z" />
    <glyph glyph-name="uni1E92" unicode="&#x1e92;" horiz-adv-x="539" 
d="M45 0v50l345 536h-314v70h418v-49l-346 -536h349v-71h-452zM281 -206c-31 0 -54 22 -54 54c0 31 23 54 54 54s54 -23 54 -54c0 -32 -23 -54 -54 -54z" />
    <glyph glyph-name="uni1E94" unicode="&#x1e94;" horiz-adv-x="539" 
d="M45 0v50l345 536h-314v70h418v-49l-346 -536h349v-71h-452zM149 -170v57h266v-57h-266z" />
    <glyph glyph-name="Eth" unicode="&#xd0;" horiz-adv-x="638" 
d="M33 321v43l79 4v288h164c202 0 310 -117 310 -325c0 -209 -108 -331 -306 -331h-168v321h-79zM195 68h75c153 0 230 97 230 263c0 165 -77 257 -230 257h-75v-220h149v-47h-149v-253z" />
    <glyph glyph-name="Thorn" unicode="&#xde;" horiz-adv-x="583" 
d="M90 0v656h83v-110h118c145 0 242 -50 242 -193c0 -139 -98 -203 -242 -203h-118v-150h-83zM173 218h108c114 0 169 41 169 135s-56 125 -169 125h-108v-260z" />
    <glyph glyph-name="uni018F" unicode="&#x18f;" horiz-adv-x="658" 
d="M327 -12c-169 0 -269 131 -269 337c0 7 1 16 2 25h464c-6 161 -74 249 -199 249c-66 0 -121 -27 -160 -65l-41 57c47 45 118 77 207 77c171 0 275 -120 275 -338s-109 -342 -279 -342zM327 57c111 0 184 80 195 229h-379c6 -145 78 -229 184 -229z" />
    <glyph glyph-name="uni014A" unicode="&#x14a;" horiz-adv-x="635" 
d="M406 -12c-26 0 -60 5 -78 15l20 75c14 -7 29 -11 50 -11c54 0 99 60 99 268c0 197 -65 260 -162 260c-52 0 -122 -41 -162 -98v-497h-83v656h81v-81c47 53 116 93 185 93c130 0 227 -88 227 -333c0 -252 -70 -347 -177 -347z" />
    <glyph glyph-name="uni0132" unicode="&#x132;" horiz-adv-x="526" 
d="M90 0v656h83v-656h-83zM302 -165c-30 0 -55 6 -72 12l16 66c13 -4 29 -9 46 -9c49 0 61 37 61 96v656h83v-659c0 -99 -38 -162 -134 -162z" />
    <glyph glyph-name="agrave" unicode="&#xe0;" horiz-adv-x="504" 
d="M194 -12c-81 0 -142 51 -142 138c0 106 91 159 298 182c0 62 -20 122 -100 122c-56 0 -107 -26 -145 -52l-32 57c45 29 113 63 191 63c119 0 169 -79 169 -200v-298h-68l-7 58h-3c-46 -38 -100 -70 -161 -70zM218 54c47 0 85 23 132 65v135c-162 -20 -218 -60 -218 -122
c0 -55 38 -78 86 -78zM277 573l-157 153l58 55l141 -167z" />
    <glyph glyph-name="aacute" unicode="&#xe1;" horiz-adv-x="504" 
d="M194 -12c-81 0 -142 51 -142 138c0 106 91 159 298 182c0 62 -20 122 -100 122c-56 0 -107 -26 -145 -52l-32 57c45 29 113 63 191 63c119 0 169 -79 169 -200v-298h-68l-7 58h-3c-46 -38 -100 -70 -161 -70zM218 54c47 0 85 23 132 65v135c-162 -20 -218 -60 -218 -122
c0 -55 38 -78 86 -78zM249 573l-42 41l141 167l58 -55z" />
    <glyph glyph-name="acircumflex" unicode="&#xe2;" horiz-adv-x="504" 
d="M194 -12c-81 0 -142 51 -142 138c0 106 91 159 298 182c0 62 -20 122 -100 122c-56 0 -107 -26 -145 -52l-32 57c45 29 113 63 191 63c119 0 169 -79 169 -200v-298h-68l-7 58h-3c-46 -38 -100 -70 -161 -70zM218 54c47 0 85 23 132 65v135c-162 -20 -218 -60 -218 -122
c0 -55 38 -78 86 -78zM108 600l114 140h82l114 -140l-35 -32l-118 113h-4l-118 -113z" />
    <glyph glyph-name="atilde" unicode="&#xe3;" horiz-adv-x="504" 
d="M194 -12c-81 0 -142 51 -142 138c0 106 91 159 298 182c0 62 -20 122 -100 122c-56 0 -107 -26 -145 -52l-32 57c45 29 113 63 191 63c119 0 169 -79 169 -200v-298h-68l-7 58h-3c-46 -38 -100 -70 -161 -70zM218 54c47 0 85 23 132 65v135c-162 -20 -218 -60 -218 -122
c0 -55 38 -78 86 -78zM335 577c-71 0 -97 84 -143 84c-30 0 -44 -32 -47 -79l-55 3c3 78 32 136 101 136c71 0 97 -84 144 -84c29 0 43 33 46 79l55 -4c-3 -77 -32 -135 -101 -135z" />
    <glyph glyph-name="adieresis" unicode="&#xe4;" horiz-adv-x="504" 
d="M194 -12c-81 0 -142 51 -142 138c0 106 91 159 298 182c0 62 -20 122 -100 122c-56 0 -107 -26 -145 -52l-32 57c45 29 113 63 191 63c119 0 169 -79 169 -200v-298h-68l-7 58h-3c-46 -38 -100 -70 -161 -70zM218 54c47 0 85 23 132 65v135c-162 -20 -218 -60 -218 -122
c0 -55 38 -78 86 -78zM167 587c-29 0 -50 22 -50 50s21 50 50 50c28 0 49 -22 49 -50s-21 -50 -49 -50zM359 587c-28 0 -49 22 -49 50s21 50 49 50c29 0 50 -22 50 -50s-21 -50 -50 -50z" />
    <glyph glyph-name="amacron" unicode="&#x101;" horiz-adv-x="504" 
d="M194 -12c-81 0 -142 51 -142 138c0 106 91 159 298 182c0 62 -20 122 -100 122c-56 0 -107 -26 -145 -52l-32 57c45 29 113 63 191 63c119 0 169 -79 169 -200v-298h-68l-7 58h-3c-46 -38 -100 -70 -161 -70zM218 54c47 0 85 23 132 65v135c-162 -20 -218 -60 -218 -122
c0 -55 38 -78 86 -78zM130 601v57h266v-57h-266z" />
    <glyph glyph-name="abreve" unicode="&#x103;" horiz-adv-x="504" 
d="M194 -12c-81 0 -142 51 -142 138c0 106 91 159 298 182c0 62 -20 122 -100 122c-56 0 -107 -26 -145 -52l-32 57c45 29 113 63 191 63c119 0 169 -79 169 -200v-298h-68l-7 58h-3c-46 -38 -100 -70 -161 -70zM218 54c47 0 85 23 132 65v135c-162 -20 -218 -60 -218 -122
c0 -55 38 -78 86 -78zM263 571c-107 0 -151 77 -156 151l51 8c8 -51 40 -104 105 -104s97 53 105 104l51 -8c-5 -74 -49 -151 -156 -151z" />
    <glyph glyph-name="aring" unicode="&#xe5;" horiz-adv-x="504" 
d="M194 -12c-81 0 -142 51 -142 138c0 106 91 159 298 182c0 62 -20 122 -100 122c-56 0 -107 -26 -145 -52l-32 57c45 29 113 63 191 63c119 0 169 -79 169 -200v-298h-68l-7 58h-3c-46 -38 -100 -70 -161 -70zM218 54c47 0 85 23 132 65v135c-162 -20 -218 -60 -218 -122
c0 -55 38 -78 86 -78zM263 554c-67 0 -110 42 -110 99c0 56 43 98 110 98s110 -42 110 -98c0 -57 -43 -99 -110 -99zM263 591c32 0 57 24 57 62c0 37 -25 61 -57 61s-57 -24 -57 -61c0 -38 25 -62 57 -62z" />
    <glyph glyph-name="uni01CE" unicode="&#x1ce;" horiz-adv-x="504" 
d="M194 -12c-81 0 -142 51 -142 138c0 106 91 159 298 182c0 62 -20 122 -100 122c-56 0 -107 -26 -145 -52l-32 57c45 29 113 63 191 63c119 0 169 -79 169 -200v-298h-68l-7 58h-3c-46 -38 -100 -70 -161 -70zM218 54c47 0 85 23 132 65v135c-162 -20 -218 -60 -218 -122
c0 -55 38 -78 86 -78zM222 574l-114 140l35 32l118 -113h4l118 113l35 -32l-114 -140h-82z" />
    <glyph glyph-name="uni1EA1" unicode="&#x1ea1;" horiz-adv-x="504" 
d="M194 -12c-81 0 -142 51 -142 138c0 106 91 159 298 182c0 62 -20 122 -100 122c-56 0 -107 -26 -145 -52l-32 57c45 29 113 63 191 63c119 0 169 -79 169 -200v-298h-68l-7 58h-3c-46 -38 -100 -70 -161 -70zM218 54c47 0 85 23 132 65v135c-162 -20 -218 -60 -218 -122
c0 -55 38 -78 86 -78zM246 -206c-31 0 -54 22 -54 54c0 31 23 54 54 54s54 -23 54 -54c0 -32 -23 -54 -54 -54z" />
    <glyph glyph-name="uni1EA3" unicode="&#x1ea3;" horiz-adv-x="504" 
d="M194 -12c-81 0 -142 51 -142 138c0 106 91 159 298 182c0 62 -20 122 -100 122c-56 0 -107 -26 -145 -52l-32 57c45 29 113 63 191 63c119 0 169 -79 169 -200v-298h-68l-7 58h-3c-46 -38 -100 -70 -161 -70zM218 54c47 0 85 23 132 65v135c-162 -20 -218 -60 -218 -122
c0 -55 38 -78 86 -78zM231 572l-9 40c32 8 56 21 56 47c0 29 -27 44 -83 47l5 54c91 -2 143 -35 143 -94c0 -58 -54 -83 -112 -94z" />
    <glyph glyph-name="uni1EA5" unicode="&#x1ea5;" horiz-adv-x="504" 
d="M194 -12c-81 0 -142 51 -142 138c0 106 91 159 298 182c0 62 -20 122 -100 122c-56 0 -107 -26 -145 -52l-32 57c45 29 113 63 191 63c119 0 169 -79 169 -200v-298h-68l-7 58h-3c-46 -38 -100 -70 -161 -70zM218 54c47 0 85 23 132 65v135c-162 -20 -218 -60 -218 -122
c0 -55 38 -78 86 -78zM158 570l-29 34l100 92h68l100 -92l-29 -34l-103 72h-4zM362 665l87 120l49 -34l-101 -114z" />
    <glyph glyph-name="uni1EA7" unicode="&#x1ea7;" horiz-adv-x="504" 
d="M194 -12c-81 0 -142 51 -142 138c0 106 91 159 298 182c0 62 -20 122 -100 122c-56 0 -107 -26 -145 -52l-32 57c45 29 113 63 191 63c119 0 169 -79 169 -200v-298h-68l-7 58h-3c-46 -38 -100 -70 -161 -70zM218 54c47 0 85 23 132 65v135c-162 -20 -218 -60 -218 -122
c0 -55 38 -78 86 -78zM158 570l-29 34l100 92h68l100 -92l-29 -34l-103 72h-4zM164 668l-35 -31l-113 112l48 36z" />
    <glyph glyph-name="uni1EA9" unicode="&#x1ea9;" horiz-adv-x="504" 
d="M194 -12c-81 0 -142 51 -142 138c0 106 91 159 298 182c0 62 -20 122 -100 122c-56 0 -107 -26 -145 -52l-32 57c45 29 113 63 191 63c119 0 169 -79 169 -200v-298h-68l-7 58h-3c-46 -38 -100 -70 -161 -70zM218 54c47 0 85 23 132 65v135c-162 -20 -218 -60 -218 -122
c0 -55 38 -78 86 -78zM158 570l-29 34l100 92h68l100 -92l-29 -34l-103 72h-4zM379 635l-9 35c25 7 42 18 42 39c0 26 -20 39 -69 41l7 41c78 -2 122 -26 122 -73c0 -53 -46 -72 -93 -83z" />
    <glyph glyph-name="uni1EAB" unicode="&#x1eab;" horiz-adv-x="504" 
d="M194 -12c-81 0 -142 51 -142 138c0 106 91 159 298 182c0 62 -20 122 -100 122c-56 0 -107 -26 -145 -52l-32 57c45 29 113 63 191 63c119 0 169 -79 169 -200v-298h-68l-7 58h-3c-46 -38 -100 -70 -161 -70zM218 54c47 0 85 23 132 65v135c-162 -20 -218 -60 -218 -122
c0 -55 38 -78 86 -78zM158 570l-29 34l100 88h68l100 -88l-29 -34l-103 69h-4zM126 714c5 52 25 89 72 89c59 0 88 -42 126 -42c20 0 28 13 33 42l43 -4c-5 -51 -25 -89 -72 -89c-58 0 -88 42 -126 42c-20 0 -28 -13 -33 -42z" />
    <glyph glyph-name="uni1EAD" unicode="&#x1ead;" horiz-adv-x="504" 
d="M194 -12c-81 0 -142 51 -142 138c0 106 91 159 298 182c0 62 -20 122 -100 122c-56 0 -107 -26 -145 -52l-32 57c45 29 113 63 191 63c119 0 169 -79 169 -200v-298h-68l-7 58h-3c-46 -38 -100 -70 -161 -70zM218 54c47 0 85 23 132 65v135c-162 -20 -218 -60 -218 -122
c0 -55 38 -78 86 -78zM108 600l114 140h82l114 -140l-35 -32l-118 113h-4l-118 -113zM246 -206c-31 0 -54 22 -54 54c0 31 23 54 54 54s54 -23 54 -54c0 -32 -23 -54 -54 -54z" />
    <glyph glyph-name="uni1EAF" unicode="&#x1eaf;" horiz-adv-x="504" 
d="M194 -12c-81 0 -142 51 -142 138c0 106 91 159 298 182c0 62 -20 122 -100 122c-56 0 -107 -26 -145 -52l-32 57c45 29 113 63 191 63c119 0 169 -79 169 -200v-298h-68l-7 58h-3c-46 -38 -100 -70 -161 -70zM218 54c47 0 85 23 132 65v135c-162 -20 -218 -60 -218 -122
c0 -55 38 -78 86 -78zM258 679l-39 29l88 124l52 -40zM263 571c-107 0 -151 77 -156 151l48 8c7 -53 41 -108 108 -108s101 55 108 108l48 -8c-5 -74 -49 -151 -156 -151z" />
    <glyph glyph-name="uni1EB1" unicode="&#x1eb1;" horiz-adv-x="504" 
d="M194 -12c-81 0 -142 51 -142 138c0 106 91 159 298 182c0 62 -20 122 -100 122c-56 0 -107 -26 -145 -52l-32 57c45 29 113 63 191 63c119 0 169 -79 169 -200v-298h-68l-7 58h-3c-46 -38 -100 -70 -161 -70zM218 54c47 0 85 23 132 65v135c-162 -20 -218 -60 -218 -122
c0 -55 38 -78 86 -78zM268 679l-101 113l52 40l88 -124zM263 571c-107 0 -151 77 -156 151l48 8c7 -53 41 -108 108 -108s101 55 108 108l48 -8c-5 -74 -49 -151 -156 -151z" />
    <glyph glyph-name="uni1EB3" unicode="&#x1eb3;" horiz-adv-x="504" 
d="M194 -12c-81 0 -142 51 -142 138c0 106 91 159 298 182c0 62 -20 122 -100 122c-56 0 -107 -26 -145 -52l-32 57c45 29 113 63 191 63c119 0 169 -79 169 -200v-298h-68l-7 58h-3c-46 -38 -100 -70 -161 -70zM218 54c47 0 85 23 132 65v135c-162 -20 -218 -60 -218 -122
c0 -55 38 -78 86 -78zM236 682l-8 36c28 6 48 18 48 39c0 26 -22 39 -76 41l7 50c81 -2 129 -29 129 -82c0 -54 -50 -76 -100 -84zM263 571c-107 0 -151 77 -156 151l48 8c7 -53 41 -108 108 -108s101 55 108 108l48 -8c-5 -74 -49 -151 -156 -151z" />
    <glyph glyph-name="uni1EB5" unicode="&#x1eb5;" horiz-adv-x="504" 
d="M194 -12c-81 0 -142 51 -142 138c0 106 91 159 298 182c0 62 -20 122 -100 122c-56 0 -107 -26 -145 -52l-32 57c45 29 113 63 191 63c119 0 169 -79 169 -200v-298h-68l-7 58h-3c-46 -38 -100 -70 -161 -70zM218 54c47 0 85 23 132 65v135c-162 -20 -218 -60 -218 -122
c0 -55 38 -78 86 -78zM263 571c-98 0 -138 56 -144 107l47 8c5 -33 35 -68 97 -68s92 35 97 68l47 -8c-6 -51 -46 -107 -144 -107zM122 714c5 51 27 88 76 88c59 0 88 -42 126 -42c20 0 28 14 33 42l47 -4c-5 -51 -27 -88 -76 -88c-58 0 -88 42 -126 42
c-20 0 -28 -14 -33 -43z" />
    <glyph glyph-name="uni1EB7" unicode="&#x1eb7;" horiz-adv-x="504" 
d="M194 -12c-81 0 -142 51 -142 138c0 106 91 159 298 182c0 62 -20 122 -100 122c-56 0 -107 -26 -145 -52l-32 57c45 29 113 63 191 63c119 0 169 -79 169 -200v-298h-68l-7 58h-3c-46 -38 -100 -70 -161 -70zM218 54c47 0 85 23 132 65v135c-162 -20 -218 -60 -218 -122
c0 -55 38 -78 86 -78zM263 571c-107 0 -151 77 -156 151l51 8c8 -51 40 -104 105 -104s97 53 105 104l51 -8c-5 -74 -49 -151 -156 -151zM246 -206c-31 0 -54 22 -54 54c0 31 23 54 54 54s54 -23 54 -54c0 -32 -23 -54 -54 -54z" />
    <glyph glyph-name="aogonek" unicode="&#x105;" horiz-adv-x="504" 
d="M376 -206c-51 0 -91 29 -91 85c0 54 42 100 80 125l-7 54h-3c-46 -38 -100 -70 -161 -70c-81 0 -142 51 -142 138c0 106 91 159 298 182c0 62 -20 122 -100 122c-56 0 -107 -26 -145 -52l-32 57c45 29 113 63 191 63c119 0 169 -79 169 -200v-298
c-56 -22 -87 -66 -87 -105c0 -31 22 -46 46 -46c16 0 29 5 41 13l21 -41c-19 -15 -53 -27 -78 -27zM218 54c47 0 85 23 132 65v135c-162 -20 -218 -60 -218 -122c0 -55 38 -78 86 -78z" />
    <glyph glyph-name="ae" unicode="&#xe6;" horiz-adv-x="785" 
d="M201 -12c-82 0 -143 51 -143 138c0 106 92 159 294 182c0 62 -19 122 -99 122c-53 0 -103 -26 -141 -52l-33 57c45 29 112 63 184 63s119 -40 139 -103c38 63 94 103 160 103c119 0 185 -90 185 -229c0 -18 -1 -34 -3 -46h-315c4 -101 68 -168 151 -168
c47 0 82 17 118 40l30 -57c-42 -27 -92 -50 -158 -50c-81 0 -134 43 -171 91c-66 -59 -136 -91 -198 -91zM224 54c45 0 103 27 147 75c-11 25 -18 63 -19 100v25c-154 -20 -213 -60 -213 -122c0 -55 37 -78 85 -78zM429 278h246c0 100 -41 155 -115 155
c-67 0 -122 -60 -131 -155z" />
    <glyph glyph-name="uni01FD" unicode="&#x1fd;" horiz-adv-x="785" 
d="M201 -12c-82 0 -143 51 -143 138c0 106 92 159 294 182c0 62 -19 122 -99 122c-53 0 -103 -26 -141 -52l-33 57c45 29 112 63 184 63s119 -40 139 -103c38 63 94 103 160 103c119 0 185 -90 185 -229c0 -18 -1 -34 -3 -46h-315c4 -101 68 -168 151 -168
c47 0 82 17 118 40l30 -57c-42 -27 -92 -50 -158 -50c-81 0 -134 43 -171 91c-66 -59 -136 -91 -198 -91zM224 54c45 0 103 27 147 75c-11 25 -18 63 -19 100v25c-154 -20 -213 -60 -213 -122c0 -55 37 -78 85 -78zM429 278h246c0 100 -41 155 -115 155
c-67 0 -122 -60 -131 -155zM399 573l-42 41l141 167l58 -55z" />
    <glyph glyph-name="uni01E3" unicode="&#x1e3;" horiz-adv-x="785" 
d="M201 -12c-82 0 -143 51 -143 138c0 106 92 159 294 182c0 62 -19 122 -99 122c-53 0 -103 -26 -141 -52l-33 57c45 29 112 63 184 63s119 -40 139 -103c38 63 94 103 160 103c119 0 185 -90 185 -229c0 -18 -1 -34 -3 -46h-315c4 -101 68 -168 151 -168
c47 0 82 17 118 40l30 -57c-42 -27 -92 -50 -158 -50c-81 0 -134 43 -171 91c-66 -59 -136 -91 -198 -91zM224 54c45 0 103 27 147 75c-11 25 -18 63 -19 100v25c-154 -20 -213 -60 -213 -122c0 -55 37 -78 85 -78zM429 278h246c0 100 -41 155 -115 155
c-67 0 -122 -60 -131 -155zM280 601v57h266v-57h-266z" />
    <glyph glyph-name="uni0180" unicode="&#x180;" horiz-adv-x="544" 
d="M297 -12c-45 0 -96 23 -139 62h-3l-7 -50h-66v571h-74v43l74 5v93h82v-93h182v-48h-182v-93l-2 -87c44 38 98 68 152 68c126 0 193 -91 193 -227c0 -153 -99 -244 -210 -244zM283 57c80 0 139 69 139 174c0 92 -36 159 -128 159c-41 0 -84 -23 -130 -67v-215
c43 -37 87 -51 119 -51z" />
    <glyph glyph-name="uni1E07" unicode="&#x1e07;" horiz-adv-x="553" 
d="M297 -12c-45 0 -96 23 -139 62h-3l-7 -50h-66v712h82v-194l-2 -88c44 39 98 68 152 68c126 0 193 -97 193 -247c0 -166 -99 -263 -210 -263zM283 57c80 0 139 73 139 193c0 107 -36 179 -128 179c-41 0 -84 -23 -130 -66v-255c43 -37 87 -51 119 -51zM151 -170v57h266
v-57h-266z" />
    <glyph glyph-name="ccedilla" unicode="&#xe7;" horiz-adv-x="456" 
d="M185 -226l-8 40c84 6 109 21 109 50c0 26 -20 40 -77 48l37 77c-115 13 -200 104 -200 253c0 163 109 256 234 256c64 0 108 -26 142 -57l-42 -54c-28 25 -58 43 -97 43c-88 0 -152 -76 -152 -188c0 -111 61 -186 150 -186c45 0 84 22 114 49l36 -55
c-37 -33 -83 -55 -131 -60l-23 -54c46 -11 73 -30 73 -71c0 -58 -59 -86 -165 -91z" />
    <glyph glyph-name="cacute" unicode="&#x107;" horiz-adv-x="456" 
d="M274 -12c-129 0 -228 93 -228 254c0 163 109 256 234 256c64 0 108 -26 142 -57l-42 -54c-28 25 -58 43 -97 43c-88 0 -152 -76 -152 -188c0 -111 61 -186 150 -186c45 0 84 22 114 49l36 -55c-44 -39 -99 -62 -157 -62zM265 573l-42 41l141 167l58 -55z" />
    <glyph glyph-name="ccircumflex" unicode="&#x109;" horiz-adv-x="456" 
d="M274 -12c-129 0 -228 93 -228 254c0 163 109 256 234 256c64 0 108 -26 142 -57l-42 -54c-28 25 -58 43 -97 43c-88 0 -152 -76 -152 -188c0 -111 61 -186 150 -186c45 0 84 22 114 49l36 -55c-44 -39 -99 -62 -157 -62zM124 600l114 140h82l114 -140l-35 -32l-118 113
h-4l-118 -113z" />
    <glyph glyph-name="ccaron" unicode="&#x10d;" horiz-adv-x="456" 
d="M274 -12c-129 0 -228 93 -228 254c0 163 109 256 234 256c64 0 108 -26 142 -57l-42 -54c-28 25 -58 43 -97 43c-88 0 -152 -76 -152 -188c0 -111 61 -186 150 -186c45 0 84 22 114 49l36 -55c-44 -39 -99 -62 -157 -62zM238 574l-114 140l35 32l118 -113h4l118 113
l35 -32l-114 -140h-82z" />
    <glyph glyph-name="cdotaccent" unicode="&#x10b;" horiz-adv-x="456" 
d="M274 -12c-129 0 -228 93 -228 254c0 163 109 256 234 256c64 0 108 -26 142 -57l-42 -54c-28 25 -58 43 -97 43c-88 0 -152 -76 -152 -188c0 -111 61 -186 150 -186c45 0 84 22 114 49l36 -55c-44 -39 -99 -62 -157 -62zM279 586c-31 0 -54 22 -54 54c0 31 23 54 54 54
s54 -23 54 -54c0 -32 -23 -54 -54 -54z" />
    <glyph glyph-name="dcaron" unicode="&#x10f;" horiz-adv-x="573" 
d="M248 -12c-122 0 -201 92 -201 254c0 158 100 256 211 256c56 0 93 -21 136 -56l-4 83v187h83v-712h-68l-7 57h-3c-38 -37 -90 -69 -147 -69zM266 57c45 0 84 22 124 67v254c-41 37 -78 51 -118 51c-78 0 -140 -75 -140 -186c0 -116 49 -186 134 -186zM530 548l-4 212h59
l-1 -57l-14 -155h-40z" />
    <glyph glyph-name="uni1E0D" unicode="&#x1e0d;" horiz-adv-x="555" 
d="M248 -12c-122 0 -201 92 -201 254c0 158 100 256 211 256c56 0 93 -21 136 -56l-4 83v187h83v-712h-68l-7 57h-3c-38 -37 -90 -69 -147 -69zM266 57c45 0 84 22 124 67v254c-41 37 -78 51 -118 51c-78 0 -140 -75 -140 -186c0 -116 49 -186 134 -186zM302 -206
c-31 0 -54 22 -54 54c0 31 23 54 54 54s54 -23 54 -54c0 -32 -23 -54 -54 -54z" />
    <glyph glyph-name="uni1E0F" unicode="&#x1e0f;" horiz-adv-x="555" 
d="M248 -12c-122 0 -201 92 -201 254c0 158 100 256 211 256c56 0 93 -21 136 -56l-4 83v187h83v-712h-68l-7 57h-3c-38 -37 -90 -69 -147 -69zM266 57c45 0 84 22 124 67v254c-41 37 -78 51 -118 51c-78 0 -140 -75 -140 -186c0 -116 49 -186 134 -186zM168 -170v57h266
v-57h-266z" />
    <glyph glyph-name="dcroat" unicode="&#x111;" horiz-adv-x="555" 
d="M248 -12c-122 0 -201 87 -201 235c0 143 100 236 211 236c56 0 93 -22 136 -57l-4 84v85h-161v48h161v93h83v-93h72v-43l-72 -5v-571h-70l-6 55h-3c-37 -37 -88 -67 -146 -67zM266 57c45 0 84 22 124 67v215c-41 37 -78 51 -118 51c-78 0 -140 -70 -140 -166
c0 -102 49 -167 134 -167z" />
    <glyph glyph-name="egrave" unicode="&#xe8;" horiz-adv-x="496" 
d="M279 -12c-130 0 -233 95 -233 254s107 256 218 256c124 0 194 -89 194 -228c0 -17 -1 -35 -3 -47h-328c6 -103 69 -169 162 -169c46 0 85 15 121 38l29 -54c-42 -27 -94 -50 -160 -50zM126 282h260c0 98 -44 151 -120 151c-68 0 -130 -55 -140 -151zM278 573l-157 153
l58 55l141 -167z" />
    <glyph glyph-name="eacute" unicode="&#xe9;" horiz-adv-x="496" 
d="M279 -12c-130 0 -233 95 -233 254s107 256 218 256c124 0 194 -89 194 -228c0 -17 -1 -35 -3 -47h-328c6 -103 69 -169 162 -169c46 0 85 15 121 38l29 -54c-42 -27 -94 -50 -160 -50zM126 282h260c0 98 -44 151 -120 151c-68 0 -130 -55 -140 -151zM250 573l-42 41
l141 167l58 -55z" />
    <glyph glyph-name="ecircumflex" unicode="&#xea;" horiz-adv-x="496" 
d="M279 -12c-130 0 -233 95 -233 254s107 256 218 256c124 0 194 -89 194 -228c0 -17 -1 -35 -3 -47h-328c6 -103 69 -169 162 -169c46 0 85 15 121 38l29 -54c-42 -27 -94 -50 -160 -50zM126 282h260c0 98 -44 151 -120 151c-68 0 -130 -55 -140 -151zM109 600l114 140h82
l114 -140l-35 -32l-118 113h-4l-118 -113z" />
    <glyph glyph-name="ecaron" unicode="&#x11b;" horiz-adv-x="496" 
d="M279 -12c-130 0 -233 95 -233 254s107 256 218 256c124 0 194 -89 194 -228c0 -17 -1 -35 -3 -47h-328c6 -103 69 -169 162 -169c46 0 85 15 121 38l29 -54c-42 -27 -94 -50 -160 -50zM126 282h260c0 98 -44 151 -120 151c-68 0 -130 -55 -140 -151zM223 574l-114 140
l35 32l118 -113h4l118 113l35 -32l-114 -140h-82z" />
    <glyph glyph-name="edieresis" unicode="&#xeb;" horiz-adv-x="496" 
d="M279 -12c-130 0 -233 95 -233 254s107 256 218 256c124 0 194 -89 194 -228c0 -17 -1 -35 -3 -47h-328c6 -103 69 -169 162 -169c46 0 85 15 121 38l29 -54c-42 -27 -94 -50 -160 -50zM126 282h260c0 98 -44 151 -120 151c-68 0 -130 -55 -140 -151zM168 587
c-29 0 -50 22 -50 50s21 50 50 50c28 0 49 -22 49 -50s-21 -50 -49 -50zM360 587c-28 0 -49 22 -49 50s21 50 49 50c29 0 50 -22 50 -50s-21 -50 -50 -50z" />
    <glyph glyph-name="emacron" unicode="&#x113;" horiz-adv-x="496" 
d="M279 -12c-130 0 -233 95 -233 254s107 256 218 256c124 0 194 -89 194 -228c0 -17 -1 -35 -3 -47h-328c6 -103 69 -169 162 -169c46 0 85 15 121 38l29 -54c-42 -27 -94 -50 -160 -50zM126 282h260c0 98 -44 151 -120 151c-68 0 -130 -55 -140 -151zM131 601v57h266v-57
h-266z" />
    <glyph glyph-name="ebreve" unicode="&#x115;" horiz-adv-x="496" 
d="M279 -12c-130 0 -233 95 -233 254s107 256 218 256c124 0 194 -89 194 -228c0 -17 -1 -35 -3 -47h-328c6 -103 69 -169 162 -169c46 0 85 15 121 38l29 -54c-42 -27 -94 -50 -160 -50zM126 282h260c0 98 -44 151 -120 151c-68 0 -130 -55 -140 -151zM264 571
c-107 0 -151 77 -156 151l51 8c8 -51 40 -104 105 -104s97 53 105 104l51 -8c-5 -74 -49 -151 -156 -151z" />
    <glyph glyph-name="edotaccent" unicode="&#x117;" horiz-adv-x="496" 
d="M279 -12c-130 0 -233 95 -233 254s107 256 218 256c124 0 194 -89 194 -228c0 -17 -1 -35 -3 -47h-328c6 -103 69 -169 162 -169c46 0 85 15 121 38l29 -54c-42 -27 -94 -50 -160 -50zM126 282h260c0 98 -44 151 -120 151c-68 0 -130 -55 -140 -151zM264 586
c-31 0 -54 22 -54 54c0 31 23 54 54 54s54 -23 54 -54c0 -32 -23 -54 -54 -54z" />
    <glyph glyph-name="uni1EB9" unicode="&#x1eb9;" horiz-adv-x="496" 
d="M279 -12c-130 0 -233 95 -233 254s107 256 218 256c124 0 194 -89 194 -228c0 -17 -1 -35 -3 -47h-328c6 -103 69 -169 162 -169c46 0 85 15 121 38l29 -54c-42 -27 -94 -50 -160 -50zM126 282h260c0 98 -44 151 -120 151c-68 0 -130 -55 -140 -151zM263 -206
c-31 0 -54 22 -54 54c0 31 23 54 54 54s54 -23 54 -54c0 -32 -23 -54 -54 -54z" />
    <glyph glyph-name="uni1EBB" unicode="&#x1ebb;" horiz-adv-x="496" 
d="M279 -12c-130 0 -233 95 -233 254s107 256 218 256c124 0 194 -89 194 -228c0 -17 -1 -35 -3 -47h-328c6 -103 69 -169 162 -169c46 0 85 15 121 38l29 -54c-42 -27 -94 -50 -160 -50zM126 282h260c0 98 -44 151 -120 151c-68 0 -130 -55 -140 -151zM232 572l-9 40
c32 8 56 21 56 47c0 29 -27 44 -83 47l5 54c91 -2 143 -35 143 -94c0 -58 -54 -83 -112 -94z" />
    <glyph glyph-name="uni1EBD" unicode="&#x1ebd;" horiz-adv-x="496" 
d="M279 -12c-130 0 -233 95 -233 254s107 256 218 256c124 0 194 -89 194 -228c0 -17 -1 -35 -3 -47h-328c6 -103 69 -169 162 -169c46 0 85 15 121 38l29 -54c-42 -27 -94 -50 -160 -50zM126 282h260c0 98 -44 151 -120 151c-68 0 -130 -55 -140 -151zM336 577
c-71 0 -97 84 -143 84c-30 0 -44 -32 -47 -79l-55 3c3 78 32 136 101 136c71 0 97 -84 144 -84c29 0 43 33 46 79l55 -4c-3 -77 -32 -135 -101 -135z" />
    <glyph glyph-name="uni1EBF" unicode="&#x1ebf;" horiz-adv-x="496" 
d="M279 -12c-130 0 -233 95 -233 254s107 256 218 256c124 0 194 -89 194 -228c0 -17 -1 -35 -3 -47h-328c6 -103 69 -169 162 -169c46 0 85 15 121 38l29 -54c-42 -27 -94 -50 -160 -50zM126 282h260c0 98 -44 151 -120 151c-68 0 -130 -55 -140 -151zM159 570l-29 34
l100 92h68l100 -92l-29 -34l-103 72h-4zM363 665l87 120l49 -34l-101 -114z" />
    <glyph glyph-name="uni1EC1" unicode="&#x1ec1;" horiz-adv-x="496" 
d="M279 -12c-130 0 -233 95 -233 254s107 256 218 256c124 0 194 -89 194 -228c0 -17 -1 -35 -3 -47h-328c6 -103 69 -169 162 -169c46 0 85 15 121 38l29 -54c-42 -27 -94 -50 -160 -50zM126 282h260c0 98 -44 151 -120 151c-68 0 -130 -55 -140 -151zM159 570l-29 34
l100 92h68l100 -92l-29 -34l-103 72h-4zM165 668l-35 -31l-113 112l48 36z" />
    <glyph glyph-name="uni1EC3" unicode="&#x1ec3;" horiz-adv-x="496" 
d="M279 -12c-130 0 -233 95 -233 254s107 256 218 256c124 0 194 -89 194 -228c0 -17 -1 -35 -3 -47h-328c6 -103 69 -169 162 -169c46 0 85 15 121 38l29 -54c-42 -27 -94 -50 -160 -50zM126 282h260c0 98 -44 151 -120 151c-68 0 -130 -55 -140 -151zM159 570l-29 34
l100 92h68l100 -92l-29 -34l-103 72h-4zM380 635l-9 35c25 7 42 18 42 39c0 26 -20 39 -69 41l7 41c78 -2 122 -26 122 -73c0 -53 -46 -72 -93 -83z" />
    <glyph glyph-name="uni1EC5" unicode="&#x1ec5;" horiz-adv-x="496" 
d="M279 -12c-130 0 -233 95 -233 254s107 256 218 256c124 0 194 -89 194 -228c0 -17 -1 -35 -3 -47h-328c6 -103 69 -169 162 -169c46 0 85 15 121 38l29 -54c-42 -27 -94 -50 -160 -50zM126 282h260c0 98 -44 151 -120 151c-68 0 -130 -55 -140 -151zM159 570l-29 34
l100 88h68l100 -88l-29 -34l-103 69h-4zM127 714c5 52 25 89 72 89c59 0 88 -42 126 -42c20 0 28 13 33 42l43 -4c-5 -51 -25 -89 -72 -89c-58 0 -88 42 -126 42c-20 0 -28 -13 -33 -42z" />
    <glyph glyph-name="uni1EC7" unicode="&#x1ec7;" horiz-adv-x="496" 
d="M279 -12c-130 0 -233 95 -233 254s107 256 218 256c124 0 194 -89 194 -228c0 -17 -1 -35 -3 -47h-328c6 -103 69 -169 162 -169c46 0 85 15 121 38l29 -54c-42 -27 -94 -50 -160 -50zM126 282h260c0 98 -44 151 -120 151c-68 0 -130 -55 -140 -151zM109 600l114 140h82
l114 -140l-35 -32l-118 113h-4l-118 -113zM262 -206c-31 0 -54 22 -54 54c0 31 23 54 54 54s54 -23 54 -54c0 -32 -23 -54 -54 -54z" />
    <glyph glyph-name="eogonek" unicode="&#x119;" horiz-adv-x="496" 
d="M358 -206c-51 0 -90 29 -90 85c0 50 34 93 60 116c-17 -6 -33 -7 -49 -7c-130 0 -233 95 -233 254s107 256 218 256c124 0 194 -89 194 -228c0 -17 -1 -35 -3 -47h-328c6 -103 69 -169 162 -169c46 0 85 15 121 38l29 -54c-87 -62 -111 -101 -111 -143
c0 -31 22 -46 47 -46c16 0 28 5 40 13l21 -41c-19 -15 -53 -27 -78 -27zM126 282h260c0 98 -44 151 -120 151c-68 0 -130 -55 -140 -151z" />
    <glyph glyph-name="uni1E17" unicode="&#x1e17;" horiz-adv-x="496" 
d="M279 -12c-130 0 -233 95 -233 254s107 256 218 256c124 0 194 -89 194 -228c0 -17 -1 -35 -3 -47h-328c6 -103 69 -169 162 -169c46 0 85 15 121 38l29 -54c-42 -27 -94 -50 -160 -50zM126 282h260c0 98 -44 151 -120 151c-68 0 -130 -55 -140 -151zM230 705l-32 39
l135 99l38 -49zM131 601v57h266v-57h-266z" />
    <glyph glyph-name="uni01F5" unicode="&#x1f5;" horiz-adv-x="504" 
d="M246 -224c-119 0 -201 47 -201 131c0 41 27 80 71 110v4c-24 15 -43 41 -43 79c0 41 28 73 53 90v4c-32 26 -63 73 -63 131c0 106 84 173 183 173c27 0 51 -5 69 -12h169v-63h-100c23 -22 40 -59 40 -100c0 -104 -79 -169 -178 -169c-24 0 -51 6 -73 17
c-17 -15 -31 -31 -31 -58c0 -31 20 -53 86 -53h94c113 0 170 -35 170 -116c0 -90 -95 -168 -246 -168zM246 209c56 0 103 45 103 116s-46 113 -103 113s-103 -42 -103 -113s47 -116 103 -116zM258 -167c93 0 154 48 154 99c0 45 -35 60 -98 60h-84c-19 0 -42 2 -63 8
c-35 -25 -50 -54 -50 -82c0 -52 53 -85 141 -85zM254 573l-42 41l141 167l58 -55z" />
    <glyph glyph-name="gcircumflex" unicode="&#x11d;" horiz-adv-x="504" 
d="M246 -224c-119 0 -201 47 -201 131c0 41 27 80 71 110v4c-24 15 -43 41 -43 79c0 41 28 73 53 90v4c-32 26 -63 73 -63 131c0 106 84 173 183 173c27 0 51 -5 69 -12h169v-63h-100c23 -22 40 -59 40 -100c0 -104 -79 -169 -178 -169c-24 0 -51 6 -73 17
c-17 -15 -31 -31 -31 -58c0 -31 20 -53 86 -53h94c113 0 170 -35 170 -116c0 -90 -95 -168 -246 -168zM246 209c56 0 103 45 103 116s-46 113 -103 113s-103 -42 -103 -113s47 -116 103 -116zM258 -167c93 0 154 48 154 99c0 45 -35 60 -98 60h-84c-19 0 -42 2 -63 8
c-35 -25 -50 -54 -50 -82c0 -52 53 -85 141 -85zM113 600l114 140h82l114 -140l-35 -32l-118 113h-4l-118 -113z" />
    <glyph glyph-name="gbreve" unicode="&#x11f;" horiz-adv-x="504" 
d="M246 -224c-119 0 -201 47 -201 131c0 41 27 80 71 110v4c-24 15 -43 41 -43 79c0 41 28 73 53 90v4c-32 26 -63 73 -63 131c0 106 84 173 183 173c27 0 51 -5 69 -12h169v-63h-100c23 -22 40 -59 40 -100c0 -104 -79 -169 -178 -169c-24 0 -51 6 -73 17
c-17 -15 -31 -31 -31 -58c0 -31 20 -53 86 -53h94c113 0 170 -35 170 -116c0 -90 -95 -168 -246 -168zM246 209c56 0 103 45 103 116s-46 113 -103 113s-103 -42 -103 -113s47 -116 103 -116zM258 -167c93 0 154 48 154 99c0 45 -35 60 -98 60h-84c-19 0 -42 2 -63 8
c-35 -25 -50 -54 -50 -82c0 -52 53 -85 141 -85zM268 571c-107 0 -151 77 -156 151l51 8c8 -51 40 -104 105 -104s97 53 105 104l51 -8c-5 -74 -49 -151 -156 -151z" />
    <glyph glyph-name="gdotaccent" unicode="&#x121;" horiz-adv-x="504" 
d="M246 -224c-119 0 -201 47 -201 131c0 41 27 80 71 110v4c-24 15 -43 41 -43 79c0 41 28 73 53 90v4c-32 26 -63 73 -63 131c0 106 84 173 183 173c27 0 51 -5 69 -12h169v-63h-100c23 -22 40 -59 40 -100c0 -104 -79 -169 -178 -169c-24 0 -51 6 -73 17
c-17 -15 -31 -31 -31 -58c0 -31 20 -53 86 -53h94c113 0 170 -35 170 -116c0 -90 -95 -168 -246 -168zM246 209c56 0 103 45 103 116s-46 113 -103 113s-103 -42 -103 -113s47 -116 103 -116zM258 -167c93 0 154 48 154 99c0 45 -35 60 -98 60h-84c-19 0 -42 2 -63 8
c-35 -25 -50 -54 -50 -82c0 -52 53 -85 141 -85zM268 586c-31 0 -54 22 -54 54c0 31 23 54 54 54s54 -23 54 -54c0 -32 -23 -54 -54 -54z" />
    <glyph glyph-name="uni0123" unicode="&#x123;" horiz-adv-x="504" 
d="M246 -224c-119 0 -201 47 -201 131c0 41 27 80 71 110v4c-24 15 -43 41 -43 79c0 41 28 73 53 90v4c-32 26 -63 73 -63 131c0 106 84 173 183 173c27 0 51 -5 69 -12h169v-63h-100c23 -22 40 -59 40 -100c0 -104 -79 -169 -178 -169c-24 0 -51 6 -73 17
c-17 -15 -31 -31 -31 -58c0 -31 20 -53 86 -53h94c113 0 170 -35 170 -116c0 -90 -95 -168 -246 -168zM246 209c56 0 103 45 103 116s-46 113 -103 113s-103 -42 -103 -113s47 -116 103 -116zM258 -167c93 0 154 48 154 99c0 45 -35 60 -98 60h-84c-19 0 -42 2 -63 8
c-35 -25 -50 -54 -50 -82c0 -52 53 -85 141 -85zM307 575c-87 10 -117 32 -117 77c0 58 59 86 165 92l8 -41c-84 -5 -109 -20 -109 -48c0 -26 25 -38 71 -42z" />
    <glyph glyph-name="gcaron" unicode="&#x1e7;" horiz-adv-x="504" 
d="M246 -224c-119 0 -201 47 -201 131c0 41 27 80 71 110v4c-24 15 -43 41 -43 79c0 41 28 73 53 90v4c-32 26 -63 73 -63 131c0 106 84 173 183 173c27 0 51 -5 69 -12h169v-63h-100c23 -22 40 -59 40 -100c0 -104 -79 -169 -178 -169c-24 0 -51 6 -73 17
c-17 -15 -31 -31 -31 -58c0 -31 20 -53 86 -53h94c113 0 170 -35 170 -116c0 -90 -95 -168 -246 -168zM246 209c56 0 103 45 103 116s-46 113 -103 113s-103 -42 -103 -113s47 -116 103 -116zM258 -167c93 0 154 48 154 99c0 45 -35 60 -98 60h-84c-19 0 -42 2 -63 8
c-35 -25 -50 -54 -50 -82c0 -52 53 -85 141 -85zM227 574l-114 140l35 32l118 -113h4l118 113l35 -32l-114 -140h-82z" />
    <glyph glyph-name="uni1E21" unicode="&#x1e21;" horiz-adv-x="504" 
d="M246 -224c-119 0 -201 47 -201 131c0 41 27 80 71 110v4c-24 15 -43 41 -43 79c0 41 28 73 53 90v4c-32 26 -63 73 -63 131c0 106 84 173 183 173c27 0 51 -5 69 -12h169v-63h-100c23 -22 40 -59 40 -100c0 -104 -79 -169 -178 -169c-24 0 -51 6 -73 17
c-17 -15 -31 -31 -31 -58c0 -31 20 -53 86 -53h94c113 0 170 -35 170 -116c0 -90 -95 -168 -246 -168zM246 209c56 0 103 45 103 116s-46 113 -103 113s-103 -42 -103 -113s47 -116 103 -116zM258 -167c93 0 154 48 154 99c0 45 -35 60 -98 60h-84c-19 0 -42 2 -63 8
c-35 -25 -50 -54 -50 -82c0 -52 53 -85 141 -85zM135 601v57h266v-57h-266z" />
    <glyph glyph-name="uni00670303" horiz-adv-x="504" 
d="M246 -224c-119 0 -201 47 -201 131c0 41 27 80 71 110v4c-24 15 -43 41 -43 79c0 41 28 73 53 90v4c-32 26 -63 73 -63 131c0 106 84 173 183 173c27 0 51 -5 69 -12h169v-63h-100c23 -22 40 -59 40 -100c0 -104 -79 -169 -178 -169c-24 0 -51 6 -73 17
c-17 -15 -31 -31 -31 -58c0 -31 20 -53 86 -53h94c113 0 170 -35 170 -116c0 -90 -95 -168 -246 -168zM246 209c56 0 103 45 103 116s-46 113 -103 113s-103 -42 -103 -113s47 -116 103 -116zM258 -167c93 0 154 48 154 99c0 45 -35 60 -98 60h-84c-19 0 -42 2 -63 8
c-35 -25 -50 -54 -50 -82c0 -52 53 -85 141 -85zM340 577c-71 0 -97 84 -143 84c-30 0 -44 -32 -47 -79l-55 3c3 78 32 136 101 136c71 0 97 -84 144 -84c29 0 43 33 46 79l55 -4c-3 -77 -32 -135 -101 -135z" />
    <glyph glyph-name="hcircumflex" unicode="&#x125;" horiz-adv-x="544" 
d="M82 0v712h82v-194l-3 -100c46 44 95 80 162 80c102 0 148 -66 148 -190v-308h-82v297c0 91 -28 130 -92 130c-50 0 -84 -26 -133 -75v-352h-82zM-24 767l105 113h86l105 -113l-36 -26l-110 93h-4l-110 -93z" />
    <glyph glyph-name="uni1E25" unicode="&#x1e25;" horiz-adv-x="544" 
d="M82 0v712h82v-194l-3 -100c46 44 95 80 162 80c102 0 148 -66 148 -190v-308h-82v297c0 91 -28 130 -92 130c-50 0 -84 -26 -133 -75v-352h-82zM286 -206c-31 0 -54 22 -54 54c0 31 23 54 54 54s54 -23 54 -54c0 -32 -23 -54 -54 -54z" />
    <glyph glyph-name="uni1E96" unicode="&#x1e96;" horiz-adv-x="544" 
d="M82 0v712h82v-194l-3 -100c46 44 95 80 162 80c102 0 148 -66 148 -190v-308h-82v297c0 91 -28 130 -92 130c-50 0 -84 -26 -133 -75v-352h-82zM153 -170v57h266v-57h-266z" />
    <glyph glyph-name="uni1E2B" unicode="&#x1e2b;" horiz-adv-x="544" 
d="M82 0v712h82v-194l-3 -100c46 44 95 80 162 80c102 0 148 -66 148 -190v-308h-82v297c0 91 -28 130 -92 130c-50 0 -84 -26 -133 -75v-352h-82zM285 -231c-107 0 -151 77 -156 151l51 8c8 -51 40 -104 105 -104s97 53 105 104l51 -8c-5 -74 -49 -151 -156 -151z" />
    <glyph glyph-name="hbar" unicode="&#x127;" horiz-adv-x="544" 
d="M82 0v571h-74v43l74 5v93h82v-93h182v-48h-182v-93l-3 -100c46 44 95 81 162 81c102 0 148 -66 148 -190v-269h-82v258c0 91 -28 129 -92 129c-50 0 -84 -25 -133 -74v-313h-82z" />
    <glyph glyph-name="igrave" unicode="&#xec;" horiz-adv-x="246" 
d="M82 0v486h82v-486h-82zM137 573l-157 153l58 55l141 -167z" />
    <glyph glyph-name="iacute" unicode="&#xed;" horiz-adv-x="246" 
d="M82 0v486h82v-486h-82zM109 573l-42 41l141 167l58 -55z" />
    <glyph glyph-name="icircumflex" unicode="&#xee;" horiz-adv-x="246" 
d="M82 0v486h82v-486h-82zM-32 600l114 140h82l114 -140l-35 -32l-118 113h-4l-118 -113z" />
    <glyph glyph-name="itilde" unicode="&#x129;" horiz-adv-x="246" 
d="M82 0v486h82v-486h-82zM195 577c-71 0 -97 84 -143 84c-30 0 -44 -32 -47 -79l-55 3c3 78 32 136 101 136c71 0 97 -84 144 -84c29 0 43 33 46 79l55 -4c-3 -77 -32 -135 -101 -135z" />
    <glyph glyph-name="idieresis" unicode="&#xef;" horiz-adv-x="246" 
d="M82 0v486h82v-486h-82zM27 587c-29 0 -50 22 -50 50s21 50 50 50c28 0 49 -22 49 -50s-21 -50 -49 -50zM219 587c-28 0 -49 22 -49 50s21 50 49 50c29 0 50 -22 50 -50s-21 -50 -50 -50z" />
    <glyph glyph-name="imacron" unicode="&#x12b;" horiz-adv-x="246" 
d="M82 0v486h82v-486h-82zM-10 601v57h266v-57h-266z" />
    <glyph glyph-name="uni01D0" unicode="&#x1d0;" horiz-adv-x="246" 
d="M82 0v486h82v-486h-82zM82 574l-114 140l35 32l118 -113h4l118 113l35 -32l-114 -140h-82z" />
    <glyph glyph-name="uni1EC9" unicode="&#x1ec9;" horiz-adv-x="246" 
d="M82 0v486h82v-486h-82zM91 572l-9 40c32 8 56 21 56 47c0 29 -27 44 -83 47l5 54c91 -2 143 -35 143 -94c0 -58 -54 -83 -112 -94z" />
    <glyph glyph-name="uni1ECB" unicode="&#x1ecb;" horiz-adv-x="246" 
d="M82 0v486h82v-486h-82zM124 586c-32 0 -57 22 -57 53c0 32 25 53 57 53s57 -21 57 -53c0 -31 -25 -53 -57 -53zM124 -206c-31 0 -54 22 -54 54c0 31 23 54 54 54s54 -23 54 -54c0 -32 -23 -54 -54 -54z" />
    <glyph glyph-name="iogonek" unicode="&#x12f;" horiz-adv-x="246" 
d="M129 -206c-51 0 -91 29 -91 85c0 54 36 93 64 121h-20v486h82v-486c-40 -29 -65 -66 -65 -105c0 -31 22 -46 47 -46c15 0 27 5 40 13l21 -41c-19 -15 -53 -27 -78 -27zM123 586c-32 0 -57 22 -57 53c0 32 25 53 57 53c31 0 56 -21 56 -53c0 -31 -25 -53 -56 -53z" />
    <glyph glyph-name="iogonek.d" horiz-adv-x="246" 
d="M129 -206c-51 0 -91 29 -91 85c0 54 36 93 64 121h-20v486h82v-486c-40 -29 -65 -66 -65 -105c0 -31 22 -46 47 -46c15 0 27 5 40 13l21 -41c-19 -15 -53 -27 -78 -27z" />
    <glyph glyph-name="uni012D" unicode="&#x12d;" horiz-adv-x="246" 
d="M82 0v486h82v-486h-82zM124 571c-107 0 -151 77 -156 151l51 8c8 -51 40 -104 105 -104s97 53 105 104l51 -8c-5 -74 -49 -151 -156 -151z" />
    <glyph glyph-name="dotlessi" unicode="&#x131;" horiz-adv-x="246" 
d="M82 0v486h82v-486h-82z" />
    <glyph glyph-name="jcircumflex" unicode="&#x135;" horiz-adv-x="247" 
d="M32 -217c-30 0 -55 6 -72 13l17 62c12 -4 29 -8 46 -8c48 0 60 36 60 95v541h82v-541c0 -99 -36 -162 -133 -162zM-31 600l114 140h82l114 -140l-35 -32l-118 113h-4l-118 -113z" />
    <glyph glyph-name="uni0137" unicode="&#x137;" horiz-adv-x="495" 
d="M82 0v712h81v-482h3l207 256h91l-163 -195l185 -291h-90l-142 234l-91 -106v-128h-81zM184 -226l-8 40c84 6 109 21 109 48c0 26 -25 38 -71 42l18 38c87 -10 117 -32 117 -77c0 -58 -59 -86 -165 -91z" />
    <glyph glyph-name="uni1E33" unicode="&#x1e33;" horiz-adv-x="495" 
d="M82 0v712h81v-482h3l207 256h91l-163 -195l185 -291h-90l-142 234l-91 -106v-128h-81zM271 -206c-31 0 -54 22 -54 54c0 31 23 54 54 54s54 -23 54 -54c0 -32 -23 -54 -54 -54z" />
    <glyph glyph-name="uni1E35" unicode="&#x1e35;" horiz-adv-x="495" 
d="M82 0v712h81v-482h3l207 256h91l-163 -195l185 -291h-90l-142 234l-91 -106v-128h-81zM138 -170v57h266v-57h-266z" />
    <glyph glyph-name="kgreenlandic" unicode="&#x138;" horiz-adv-x="495" 
d="M82 0v486h82v-258h3l206 258h91l-161 -195l183 -291h-90l-142 231l-90 -106v-125h-82z" />
    <glyph glyph-name="lacute" unicode="&#x13a;" horiz-adv-x="255" 
d="M169 -12c-62 0 -87 39 -87 110v614h82v-620c0 -26 11 -36 23 -36c5 0 9 0 18 2l11 -62c-11 -5 -25 -8 -47 -8zM102 749l-37 42l142 128l47 -55z" />
    <glyph glyph-name="lcaron" unicode="&#x13e;" horiz-adv-x="270" 
d="M169 -12c-62 0 -87 39 -87 110v614h82v-620c0 -26 11 -36 23 -36c5 0 9 0 18 2l11 -62c-11 -5 -25 -8 -47 -8zM221 548l-4 212h59l-1 -57l-14 -155h-40z" />
    <glyph glyph-name="ldot" unicode="&#x140;" horiz-adv-x="362" 
d="M169 -12c-62 0 -87 39 -87 110v614h82v-620c0 -26 11 -36 23 -36c5 0 9 0 18 2l11 -62c-11 -5 -25 -8 -47 -8zM304 263c-33 0 -60 26 -60 62c0 38 27 64 60 64c32 0 59 -26 59 -64c0 -36 -27 -62 -59 -62z" />
    <glyph glyph-name="uni013C" unicode="&#x13c;" horiz-adv-x="255" 
d="M169 -12c-62 0 -87 39 -87 110v614h82v-620c0 -26 11 -36 23 -36c5 0 9 0 18 2l11 -62c-11 -5 -25 -8 -47 -8zM71 -226l-8 40c84 6 109 21 109 48c0 26 -25 38 -71 42l18 38c87 -10 117 -32 117 -77c0 -58 -59 -86 -165 -91z" />
    <glyph glyph-name="uni1E37" unicode="&#x1e37;" horiz-adv-x="255" 
d="M169 -12c-62 0 -87 39 -87 110v614h82v-620c0 -26 11 -36 23 -36c5 0 9 0 18 2l11 -62c-11 -5 -25 -8 -47 -8zM158 -206c-31 0 -54 22 -54 54c0 31 23 54 54 54s54 -23 54 -54c0 -32 -23 -54 -54 -54z" />
    <glyph glyph-name="uni1E39" unicode="&#x1e39;" horiz-adv-x="255" 
d="M169 -12c-62 0 -87 39 -87 110v614h82v-620c0 -26 11 -36 23 -36c5 0 9 0 18 2l11 -62c-11 -5 -25 -8 -47 -8zM-11 822v57h266v-57h-266zM158 -206c-31 0 -54 22 -54 54c0 31 23 54 54 54s54 -23 54 -54c0 -32 -23 -54 -54 -54z" />
    <glyph glyph-name="uni1E3B" unicode="&#x1e3b;" horiz-adv-x="255" 
d="M169 -12c-62 0 -87 39 -87 110v614h82v-620c0 -26 11 -36 23 -36c5 0 9 0 18 2l11 -62c-11 -5 -25 -8 -47 -8zM25 -170v57h266v-57h-266z" />
    <glyph glyph-name="lslash" unicode="&#x142;" horiz-adv-x="262" 
d="M173 -12c-62 0 -87 39 -87 110v233l-57 -36l-30 53l87 53v311h82v-268l54 35l30 -53l-84 -52v-282c0 -26 11 -36 23 -36c5 0 9 0 18 2l11 -62c-11 -5 -25 -8 -47 -8z" />
    <glyph glyph-name="uni1E3F" unicode="&#x1e3f;" horiz-adv-x="829" 
d="M82 0v486h68l7 -70h3c42 46 93 82 151 82c74 0 114 -35 134 -93c51 55 101 93 160 93c100 0 148 -66 148 -190v-308h-82v297c0 91 -29 130 -90 130c-38 0 -77 -25 -122 -75v-352h-82v297c0 91 -29 130 -91 130c-36 0 -77 -25 -122 -75v-352h-82zM405 573l-42 41l141 167
l58 -55z" />
    <glyph glyph-name="uni1E41" unicode="&#x1e41;" horiz-adv-x="829" 
d="M82 0v486h68l7 -70h3c42 46 93 82 151 82c74 0 114 -35 134 -93c51 55 101 93 160 93c100 0 148 -66 148 -190v-308h-82v297c0 91 -29 130 -90 130c-38 0 -77 -25 -122 -75v-352h-82v297c0 91 -29 130 -91 130c-36 0 -77 -25 -122 -75v-352h-82zM419 586
c-31 0 -54 22 -54 54c0 31 23 54 54 54s54 -23 54 -54c0 -32 -23 -54 -54 -54z" />
    <glyph glyph-name="uni1E43" unicode="&#x1e43;" horiz-adv-x="829" 
d="M82 0v486h68l7 -70h3c42 46 93 82 151 82c74 0 114 -35 134 -93c51 55 101 93 160 93c100 0 148 -66 148 -190v-308h-82v297c0 91 -29 130 -90 130c-38 0 -77 -25 -122 -75v-352h-82v297c0 91 -29 130 -91 130c-36 0 -77 -25 -122 -75v-352h-82zM426 -206
c-31 0 -54 22 -54 54c0 31 23 54 54 54s54 -23 54 -54c0 -32 -23 -54 -54 -54z" />
    <glyph glyph-name="nacute" unicode="&#x144;" horiz-adv-x="547" 
d="M82 0v486h68l7 -70h3c46 46 96 82 163 82c102 0 148 -66 148 -190v-308h-82v297c0 91 -28 130 -92 130c-50 0 -84 -26 -133 -75v-352h-82zM278 573l-42 41l141 167l58 -55z" />
    <glyph glyph-name="uni01F9" unicode="&#x1f9;" horiz-adv-x="547" 
d="M82 0v486h68l7 -70h3c46 46 96 82 163 82c102 0 148 -66 148 -190v-308h-82v297c0 91 -28 130 -92 130c-50 0 -84 -26 -133 -75v-352h-82zM305 573l-157 153l58 55l141 -167z" />
    <glyph glyph-name="ncaron" unicode="&#x148;" horiz-adv-x="547" 
d="M82 0v486h68l7 -70h3c46 46 96 82 163 82c102 0 148 -66 148 -190v-308h-82v297c0 91 -28 130 -92 130c-50 0 -84 -26 -133 -75v-352h-82zM251 574l-114 140l35 32l118 -113h4l118 113l35 -32l-114 -140h-82z" />
    <glyph glyph-name="ntilde" unicode="&#xf1;" horiz-adv-x="547" 
d="M82 0v486h68l7 -70h3c46 46 96 82 163 82c102 0 148 -66 148 -190v-308h-82v297c0 91 -28 130 -92 130c-50 0 -84 -26 -133 -75v-352h-82zM364 577c-71 0 -97 84 -143 84c-30 0 -44 -32 -47 -79l-55 3c3 78 32 136 101 136c71 0 97 -84 144 -84c29 0 43 33 46 79l55 -4
c-3 -77 -32 -135 -101 -135z" />
    <glyph glyph-name="uni0146" unicode="&#x146;" horiz-adv-x="547" 
d="M82 0v486h68l7 -70h3c46 46 96 82 163 82c102 0 148 -66 148 -190v-308h-82v297c0 91 -28 130 -92 130c-50 0 -84 -26 -133 -75v-352h-82zM192 -226l-8 40c84 6 109 21 109 48c0 26 -25 38 -71 42l18 38c87 -10 117 -32 117 -77c0 -58 -59 -86 -165 -91z" />
    <glyph glyph-name="uni1E45" unicode="&#x1e45;" horiz-adv-x="547" 
d="M82 0v486h68l7 -70h3c46 46 96 82 163 82c102 0 148 -66 148 -190v-308h-82v297c0 91 -28 130 -92 130c-50 0 -84 -26 -133 -75v-352h-82zM292 586c-31 0 -54 22 -54 54c0 31 23 54 54 54s54 -23 54 -54c0 -32 -23 -54 -54 -54z" />
    <glyph glyph-name="uni1E47" unicode="&#x1e47;" horiz-adv-x="547" 
d="M82 0v486h68l7 -70h3c46 46 96 82 163 82c102 0 148 -66 148 -190v-308h-82v297c0 91 -28 130 -92 130c-50 0 -84 -26 -133 -75v-352h-82zM280 -206c-31 0 -54 22 -54 54c0 31 23 54 54 54s54 -23 54 -54c0 -32 -23 -54 -54 -54z" />
    <glyph glyph-name="uni1E49" unicode="&#x1e49;" horiz-adv-x="547" 
d="M82 0v486h68l7 -70h3c46 46 96 82 163 82c102 0 148 -66 148 -190v-308h-82v297c0 91 -28 130 -92 130c-50 0 -84 -26 -133 -75v-352h-82zM146 -170v57h266v-57h-266z" />
    <glyph glyph-name="napostrophe" unicode="&#x149;" horiz-adv-x="775" 
d="M304 0v486h68l7 -70h3c46 46 96 82 163 82c102 0 148 -66 148 -190v-308h-82v297c0 91 -28 130 -92 130c-50 0 -84 -26 -133 -75v-352h-82zM86 431l-23 38c50 33 75 68 75 125c-3 -1 -5 -1 -8 -1c-28 0 -53 18 -53 50c0 35 22 56 53 56c39 0 63 -33 63 -91
c0 -80 -38 -137 -107 -177z" />
    <glyph glyph-name="ograve" unicode="&#xf2;" horiz-adv-x="542" 
d="M271 -12c-119 0 -225 93 -225 254c0 163 106 256 225 256s225 -93 225 -256c0 -161 -106 -254 -225 -254zM271 56c84 0 140 75 140 186c0 112 -56 188 -140 188c-83 0 -140 -76 -140 -188c0 -111 57 -186 140 -186zM285 573l-157 153l58 55l141 -167z" />
    <glyph glyph-name="oacute" unicode="&#xf3;" horiz-adv-x="542" 
d="M271 -12c-119 0 -225 93 -225 254c0 163 106 256 225 256s225 -93 225 -256c0 -161 -106 -254 -225 -254zM271 56c84 0 140 75 140 186c0 112 -56 188 -140 188c-83 0 -140 -76 -140 -188c0 -111 57 -186 140 -186zM257 573l-42 41l141 167l58 -55z" />
    <glyph glyph-name="ocircumflex" unicode="&#xf4;" horiz-adv-x="542" 
d="M271 -12c-119 0 -225 93 -225 254c0 163 106 256 225 256s225 -93 225 -256c0 -161 -106 -254 -225 -254zM271 56c84 0 140 75 140 186c0 112 -56 188 -140 188c-83 0 -140 -76 -140 -188c0 -111 57 -186 140 -186zM116 600l114 140h82l114 -140l-35 -32l-118 113h-4
l-118 -113z" />
    <glyph glyph-name="otilde" unicode="&#xf5;" horiz-adv-x="542" 
d="M271 -12c-119 0 -225 93 -225 254c0 163 106 256 225 256s225 -93 225 -256c0 -161 -106 -254 -225 -254zM271 56c84 0 140 75 140 186c0 112 -56 188 -140 188c-83 0 -140 -76 -140 -188c0 -111 57 -186 140 -186zM343 577c-71 0 -97 84 -143 84c-30 0 -44 -32 -47 -79
l-55 3c3 78 32 136 101 136c71 0 97 -84 144 -84c29 0 43 33 46 79l55 -4c-3 -77 -32 -135 -101 -135z" />
    <glyph glyph-name="odieresis" unicode="&#xf6;" horiz-adv-x="542" 
d="M271 -12c-119 0 -225 93 -225 254c0 163 106 256 225 256s225 -93 225 -256c0 -161 -106 -254 -225 -254zM271 56c84 0 140 75 140 186c0 112 -56 188 -140 188c-83 0 -140 -76 -140 -188c0 -111 57 -186 140 -186zM175 587c-29 0 -50 22 -50 50s21 50 50 50
c28 0 49 -22 49 -50s-21 -50 -49 -50zM367 587c-28 0 -49 22 -49 50s21 50 49 50c29 0 50 -22 50 -50s-21 -50 -50 -50z" />
    <glyph glyph-name="omacron" unicode="&#x14d;" horiz-adv-x="542" 
d="M271 -12c-119 0 -225 93 -225 254c0 163 106 256 225 256s225 -93 225 -256c0 -161 -106 -254 -225 -254zM271 56c84 0 140 75 140 186c0 112 -56 188 -140 188c-83 0 -140 -76 -140 -188c0 -111 57 -186 140 -186zM138 601v57h266v-57h-266z" />
    <glyph glyph-name="ohungarumlaut" unicode="&#x151;" horiz-adv-x="542" 
d="M271 -12c-119 0 -225 93 -225 254c0 163 106 256 225 256s225 -93 225 -256c0 -161 -106 -254 -225 -254zM271 56c84 0 140 75 140 186c0 112 -56 188 -140 188c-83 0 -140 -76 -140 -188c0 -111 57 -186 140 -186zM220 568l-45 21l86 172l59 -28zM371 568l-46 21l87 172
l58 -28z" />
    <glyph glyph-name="uni01D2" unicode="&#x1d2;" horiz-adv-x="542" 
d="M271 -12c-119 0 -225 93 -225 254c0 163 106 256 225 256s225 -93 225 -256c0 -161 -106 -254 -225 -254zM271 56c84 0 140 75 140 186c0 112 -56 188 -140 188c-83 0 -140 -76 -140 -188c0 -111 57 -186 140 -186zM230 574l-114 140l35 32l118 -113h4l118 113l35 -32
l-114 -140h-82z" />
    <glyph glyph-name="uni1ECD" unicode="&#x1ecd;" horiz-adv-x="542" 
d="M271 -12c-119 0 -225 93 -225 254c0 163 106 256 225 256s225 -93 225 -256c0 -161 -106 -254 -225 -254zM271 56c84 0 140 75 140 186c0 112 -56 188 -140 188c-83 0 -140 -76 -140 -188c0 -111 57 -186 140 -186zM272 -206c-31 0 -54 22 -54 54c0 31 23 54 54 54
s54 -23 54 -54c0 -32 -23 -54 -54 -54z" />
    <glyph glyph-name="uni1ECF" unicode="&#x1ecf;" horiz-adv-x="542" 
d="M271 -12c-119 0 -225 93 -225 254c0 163 106 256 225 256s225 -93 225 -256c0 -161 -106 -254 -225 -254zM271 56c84 0 140 75 140 186c0 112 -56 188 -140 188c-83 0 -140 -76 -140 -188c0 -111 57 -186 140 -186zM239 572l-9 40c32 8 56 21 56 47c0 29 -27 44 -83 47
l5 54c91 -2 143 -35 143 -94c0 -58 -54 -83 -112 -94z" />
    <glyph glyph-name="uni1ED1" unicode="&#x1ed1;" horiz-adv-x="542" 
d="M271 -12c-119 0 -225 93 -225 254c0 163 106 256 225 256s225 -93 225 -256c0 -161 -106 -254 -225 -254zM271 56c84 0 140 75 140 186c0 112 -56 188 -140 188c-83 0 -140 -76 -140 -188c0 -111 57 -186 140 -186zM166 570l-29 34l100 92h68l100 -92l-29 -34l-103 72h-4
zM370 665l87 120l49 -34l-101 -114z" />
    <glyph glyph-name="uni1ED3" unicode="&#x1ed3;" horiz-adv-x="542" 
d="M271 -12c-119 0 -225 93 -225 254c0 163 106 256 225 256s225 -93 225 -256c0 -161 -106 -254 -225 -254zM271 56c84 0 140 75 140 186c0 112 -56 188 -140 188c-83 0 -140 -76 -140 -188c0 -111 57 -186 140 -186zM166 570l-29 34l100 92h68l100 -92l-29 -34l-103 72h-4
zM172 668l-35 -31l-113 112l48 36z" />
    <glyph glyph-name="uni1ED5" unicode="&#x1ed5;" horiz-adv-x="542" 
d="M271 -12c-119 0 -225 93 -225 254c0 163 106 256 225 256s225 -93 225 -256c0 -161 -106 -254 -225 -254zM271 56c84 0 140 75 140 186c0 112 -56 188 -140 188c-83 0 -140 -76 -140 -188c0 -111 57 -186 140 -186zM166 570l-29 34l100 92h68l100 -92l-29 -34l-103 72h-4
zM387 635l-9 35c25 7 42 18 42 39c0 26 -20 39 -69 41l7 41c78 -2 122 -26 122 -73c0 -53 -46 -72 -93 -83z" />
    <glyph glyph-name="uni1ED7" unicode="&#x1ed7;" horiz-adv-x="542" 
d="M271 -12c-119 0 -225 93 -225 254c0 163 106 256 225 256s225 -93 225 -256c0 -161 -106 -254 -225 -254zM271 56c84 0 140 75 140 186c0 112 -56 188 -140 188c-83 0 -140 -76 -140 -188c0 -111 57 -186 140 -186zM166 570l-29 34l100 88h68l100 -88l-29 -34l-103 69h-4
zM134 714c5 52 25 89 72 89c59 0 88 -42 126 -42c20 0 28 13 33 42l43 -4c-5 -51 -25 -89 -72 -89c-58 0 -88 42 -126 42c-20 0 -28 -13 -33 -42z" />
    <glyph glyph-name="uni1ED9" unicode="&#x1ed9;" horiz-adv-x="542" 
d="M271 -12c-119 0 -225 93 -225 254c0 163 106 256 225 256s225 -93 225 -256c0 -161 -106 -254 -225 -254zM271 56c84 0 140 75 140 186c0 112 -56 188 -140 188c-83 0 -140 -76 -140 -188c0 -111 57 -186 140 -186zM116 600l114 140h82l114 -140l-35 -32l-118 113h-4
l-118 -113zM272 -206c-31 0 -54 22 -54 54c0 31 23 54 54 54s54 -23 54 -54c0 -32 -23 -54 -54 -54z" />
    <glyph glyph-name="uni014F" unicode="&#x14f;" horiz-adv-x="542" 
d="M271 -12c-119 0 -225 93 -225 254c0 163 106 256 225 256s225 -93 225 -256c0 -161 -106 -254 -225 -254zM271 56c84 0 140 75 140 186c0 112 -56 188 -140 188c-83 0 -140 -76 -140 -188c0 -111 57 -186 140 -186zM271 571c-107 0 -151 77 -156 151l51 8
c8 -51 40 -104 105 -104s97 53 105 104l51 -8c-5 -74 -49 -151 -156 -151z" />
    <glyph glyph-name="uni1E53" unicode="&#x1e53;" horiz-adv-x="542" 
d="M271 -12c-119 0 -225 93 -225 254c0 163 106 256 225 256s225 -93 225 -256c0 -161 -106 -254 -225 -254zM271 56c84 0 140 75 140 186c0 112 -56 188 -140 188c-83 0 -140 -76 -140 -188c0 -111 57 -186 140 -186zM237 705l-32 39l135 99l38 -49zM138 601v57h266v-57
h-266z" />
    <glyph glyph-name="oslash" unicode="&#xf8;" horiz-adv-x="542" 
d="M271 -12c-51 0 -100 17 -139 49l-49 -60l-37 29l54 65c-33 43 -54 100 -54 171c0 163 106 256 225 256c51 0 100 -17 139 -50l50 61l36 -29l-54 -65c33 -43 54 -101 54 -173c0 -161 -106 -254 -225 -254zM127 246c0 -45 8 -83 23 -113l214 259c-24 26 -56 40 -93 40
c-83 0 -144 -76 -144 -186zM271 54c84 0 144 75 144 185c0 45 -8 83 -24 114l-213 -260c25 -25 57 -39 93 -39z" />
    <glyph glyph-name="oe" unicode="&#x153;" horiz-adv-x="839" 
d="M264 -12c-117 0 -218 93 -218 254c0 163 102 256 220 256c74 0 141 -43 176 -122c37 76 100 122 171 122c120 0 188 -90 188 -229c0 -18 -1 -34 -3 -46h-319c4 -101 70 -168 153 -168c46 0 84 17 120 40l30 -57c-42 -27 -94 -50 -160 -50c-76 0 -142 46 -179 121
c-38 -80 -99 -121 -179 -121zM266 56c80 0 136 75 136 186c0 112 -56 188 -136 188s-136 -76 -136 -188c0 -111 56 -186 136 -186zM479 278h250c0 100 -44 155 -118 155c-67 0 -123 -60 -132 -155z" />
    <glyph glyph-name="ohorn" unicode="&#x1a1;" horiz-adv-x="542" 
d="M271 -12c-119 0 -225 93 -225 254c0 163 106 256 225 256c33 0 65 -7 95 -21c55 11 86 40 86 95c0 19 -6 39 -15 55l64 30c13 -22 23 -50 23 -79c0 -79 -55 -118 -110 -134c50 -43 82 -112 82 -202c0 -161 -106 -254 -225 -254zM271 56c84 0 140 75 140 186
c0 112 -56 188 -140 188c-83 0 -140 -76 -140 -188c0 -111 57 -186 140 -186z" />
    <glyph glyph-name="uni1EDB" unicode="&#x1edb;" horiz-adv-x="542" 
d="M271 -12c-119 0 -225 93 -225 254c0 163 106 256 225 256c33 0 65 -7 95 -21c55 11 86 40 86 95c0 19 -6 39 -15 55l64 30c13 -22 23 -50 23 -79c0 -79 -55 -118 -110 -134c50 -43 82 -112 82 -202c0 -161 -106 -254 -225 -254zM271 56c84 0 140 75 140 186
c0 112 -56 188 -140 188c-83 0 -140 -76 -140 -188c0 -111 57 -186 140 -186zM257 573l-42 41l141 167l58 -55z" />
    <glyph glyph-name="uni1EDD" unicode="&#x1edd;" horiz-adv-x="542" 
d="M271 -12c-119 0 -225 93 -225 254c0 163 106 256 225 256c33 0 65 -7 95 -21c55 11 86 40 86 95c0 19 -6 39 -15 55l64 30c13 -22 23 -50 23 -79c0 -79 -55 -118 -110 -134c50 -43 82 -112 82 -202c0 -161 -106 -254 -225 -254zM271 56c84 0 140 75 140 186
c0 112 -56 188 -140 188c-83 0 -140 -76 -140 -188c0 -111 57 -186 140 -186zM285 573l-157 153l58 55l141 -167z" />
    <glyph glyph-name="uni1EDF" unicode="&#x1edf;" horiz-adv-x="542" 
d="M271 -12c-119 0 -225 93 -225 254c0 163 106 256 225 256c33 0 65 -7 95 -21c55 11 86 40 86 95c0 19 -6 39 -15 55l64 30c13 -22 23 -50 23 -79c0 -79 -55 -118 -110 -134c50 -43 82 -112 82 -202c0 -161 -106 -254 -225 -254zM271 56c84 0 140 75 140 186
c0 112 -56 188 -140 188c-83 0 -140 -76 -140 -188c0 -111 57 -186 140 -186zM239 572l-9 40c32 8 56 21 56 47c0 29 -27 44 -83 47l5 54c91 -2 143 -35 143 -94c0 -58 -54 -83 -112 -94z" />
    <glyph glyph-name="uni1EE1" unicode="&#x1ee1;" horiz-adv-x="542" 
d="M271 -12c-119 0 -225 93 -225 254c0 163 106 256 225 256c33 0 65 -7 95 -21c55 11 86 40 86 95c0 19 -6 39 -15 55l64 30c13 -22 23 -50 23 -79c0 -79 -55 -118 -110 -134c50 -43 82 -112 82 -202c0 -161 -106 -254 -225 -254zM271 56c84 0 140 75 140 186
c0 112 -56 188 -140 188c-83 0 -140 -76 -140 -188c0 -111 57 -186 140 -186zM328 577c-71 0 -97 84 -143 84c-30 0 -44 -32 -47 -79l-55 3c3 78 32 136 101 136c71 0 97 -84 144 -84c29 0 43 33 46 79l55 -4c-3 -77 -32 -135 -101 -135z" />
    <glyph glyph-name="uni1EE3" unicode="&#x1ee3;" horiz-adv-x="542" 
d="M271 -12c-119 0 -225 93 -225 254c0 163 106 256 225 256c33 0 65 -7 95 -21c55 11 86 40 86 95c0 19 -6 39 -15 55l64 30c13 -22 23 -50 23 -79c0 -79 -55 -118 -110 -134c50 -43 82 -112 82 -202c0 -161 -106 -254 -225 -254zM271 56c84 0 140 75 140 186
c0 112 -56 188 -140 188c-83 0 -140 -76 -140 -188c0 -111 57 -186 140 -186zM272 -206c-31 0 -54 22 -54 54c0 31 23 54 54 54s54 -23 54 -54c0 -32 -23 -54 -54 -54z" />
    <glyph glyph-name="uni01EB" unicode="&#x1eb;" horiz-adv-x="542" 
d="M295 -206c-50 0 -90 29 -90 85c0 50 33 91 56 110c-117 6 -215 99 -215 253c0 163 106 256 225 256s225 -93 225 -256c0 -135 -64 -203 -159 -246c-45 -21 -71 -63 -71 -101c0 -31 22 -46 46 -46c16 0 28 5 41 13l21 -41c-19 -15 -53 -27 -79 -27zM271 56
c84 0 140 75 140 186c0 112 -56 188 -140 188c-83 0 -140 -76 -140 -188c0 -111 57 -186 140 -186z" />
    <glyph glyph-name="racute" unicode="&#x155;" horiz-adv-x="347" 
d="M82 0v486h68l7 -88h3c33 61 83 100 138 100c21 0 36 -3 52 -10l-16 -72c-16 5 -27 8 -47 8c-41 0 -90 -30 -123 -112v-312h-82zM204 573l-42 41l141 167l58 -55z" />
    <glyph glyph-name="uni0157" unicode="&#x157;" horiz-adv-x="347" 
d="M82 0v486h68l7 -88h3c33 61 83 100 138 100c21 0 36 -3 52 -10l-16 -72c-16 5 -27 8 -47 8c-41 0 -90 -30 -123 -112v-312h-82zM34 -226l-8 40c84 6 109 21 109 48c0 26 -25 38 -71 42l18 38c87 -10 117 -32 117 -77c0 -58 -59 -86 -165 -91z" />
    <glyph glyph-name="rcaron" unicode="&#x159;" horiz-adv-x="347" 
d="M82 0v486h68l7 -88h3c33 61 83 100 138 100c21 0 36 -3 52 -10l-16 -72c-16 5 -27 8 -47 8c-41 0 -90 -30 -123 -112v-312h-82zM177 574l-114 140l35 32l118 -113h4l118 113l35 -32l-114 -140h-82z" />
    <glyph glyph-name="uni1E59" unicode="&#x1e59;" horiz-adv-x="347" 
d="M82 0v486h68l7 -88h3c33 61 83 100 138 100c21 0 36 -3 52 -10l-16 -72c-16 5 -27 8 -47 8c-41 0 -90 -30 -123 -112v-312h-82zM216 586c-31 0 -54 22 -54 54c0 31 23 54 54 54s54 -23 54 -54c0 -32 -23 -54 -54 -54z" />
    <glyph glyph-name="uni1E5B" unicode="&#x1e5b;" horiz-adv-x="347" 
d="M82 0v486h68l7 -88h3c33 61 83 100 138 100c21 0 36 -3 52 -10l-16 -72c-16 5 -27 8 -47 8c-41 0 -90 -30 -123 -112v-312h-82zM122 -206c-31 0 -54 22 -54 54c0 31 23 54 54 54s54 -23 54 -54c0 -32 -23 -54 -54 -54z" />
    <glyph glyph-name="uni1E5D" unicode="&#x1e5d;" horiz-adv-x="347" 
d="M82 0v486h68l7 -88h3c33 61 83 100 138 100c21 0 36 -3 52 -10l-16 -72c-16 5 -27 8 -47 8c-41 0 -90 -30 -123 -112v-312h-82zM85 601v57h266v-57h-266zM122 -206c-31 0 -54 22 -54 54c0 31 23 54 54 54s54 -23 54 -54c0 -32 -23 -54 -54 -54z" />
    <glyph glyph-name="uni1E5F" unicode="&#x1e5f;" horiz-adv-x="347" 
d="M82 0v486h68l7 -88h3c33 61 83 100 138 100c21 0 36 -3 52 -10l-16 -72c-16 5 -27 8 -47 8c-41 0 -90 -30 -123 -112v-312h-82zM-12 -170v57h266v-57h-266z" />
    <glyph glyph-name="sacute" unicode="&#x15b;" horiz-adv-x="419" 
d="M209 -12c-69 0 -135 29 -181 67l41 55c42 -34 85 -58 143 -58c64 0 96 34 96 76c0 50 -58 72 -111 92c-69 25 -145 58 -145 140c0 78 62 138 167 138c61 0 114 -25 151 -55l-39 -52c-33 25 -68 43 -111 43c-61 0 -89 -33 -89 -70c0 -46 53 -63 108 -84
c70 -26 148 -55 148 -147c0 -79 -63 -145 -178 -145zM206 573l-42 41l141 167l58 -55z" />
    <glyph glyph-name="scircumflex" unicode="&#x15d;" horiz-adv-x="419" 
d="M209 -12c-69 0 -135 29 -181 67l41 55c42 -34 85 -58 143 -58c64 0 96 34 96 76c0 50 -58 72 -111 92c-69 25 -145 58 -145 140c0 78 62 138 167 138c61 0 114 -25 151 -55l-39 -52c-33 25 -68 43 -111 43c-61 0 -89 -33 -89 -70c0 -46 53 -63 108 -84
c70 -26 148 -55 148 -147c0 -79 -63 -145 -178 -145zM65 600l114 140h82l114 -140l-35 -32l-118 113h-4l-118 -113z" />
    <glyph glyph-name="scaron" unicode="&#x161;" horiz-adv-x="419" 
d="M209 -12c-69 0 -135 29 -181 67l41 55c42 -34 85 -58 143 -58c64 0 96 34 96 76c0 50 -58 72 -111 92c-69 25 -145 58 -145 140c0 78 62 138 167 138c61 0 114 -25 151 -55l-39 -52c-33 25 -68 43 -111 43c-61 0 -89 -33 -89 -70c0 -46 53 -63 108 -84
c70 -26 148 -55 148 -147c0 -79 -63 -145 -178 -145zM179 574l-114 140l35 32l118 -113h4l118 113l35 -32l-114 -140h-82z" />
    <glyph glyph-name="uni015F" unicode="&#x15f;" horiz-adv-x="419" 
d="M135 -226l-8 40c84 6 109 21 109 50c0 26 -20 40 -77 48l37 76c-64 4 -125 31 -168 67l41 55c42 -34 85 -58 143 -58c64 0 96 34 96 76c0 50 -58 72 -111 92c-69 25 -145 58 -145 140c0 78 62 138 167 138c61 0 114 -25 151 -55l-39 -52c-33 25 -68 43 -111 43
c-61 0 -89 -33 -89 -70c0 -46 53 -63 108 -84c70 -26 148 -55 148 -147c0 -69 -48 -128 -136 -142l-24 -55c46 -11 73 -30 73 -71c0 -58 -59 -86 -165 -91z" />
    <glyph glyph-name="uni0219" unicode="&#x219;" horiz-adv-x="419" 
d="M209 -12c-69 0 -135 29 -181 67l41 55c42 -34 85 -58 143 -58c64 0 96 34 96 76c0 50 -58 72 -111 92c-69 25 -145 58 -145 140c0 78 62 138 167 138c61 0 114 -25 151 -55l-39 -52c-33 25 -68 43 -111 43c-61 0 -89 -33 -89 -70c0 -46 53 -63 108 -84
c70 -26 148 -55 148 -147c0 -79 -63 -145 -178 -145zM136 -226l-8 40c84 6 109 21 109 48c0 26 -25 38 -71 42l18 38c87 -10 117 -32 117 -77c0 -58 -59 -86 -165 -91z" />
    <glyph glyph-name="uni1E61" unicode="&#x1e61;" horiz-adv-x="419" 
d="M209 -12c-69 0 -135 29 -181 67l41 55c42 -34 85 -58 143 -58c64 0 96 34 96 76c0 50 -58 72 -111 92c-69 25 -145 58 -145 140c0 78 62 138 167 138c61 0 114 -25 151 -55l-39 -52c-33 25 -68 43 -111 43c-61 0 -89 -33 -89 -70c0 -46 53 -63 108 -84
c70 -26 148 -55 148 -147c0 -79 -63 -145 -178 -145zM220 586c-31 0 -54 22 -54 54c0 31 23 54 54 54s54 -23 54 -54c0 -32 -23 -54 -54 -54z" />
    <glyph glyph-name="uni1E63" unicode="&#x1e63;" horiz-adv-x="419" 
d="M209 -12c-69 0 -135 29 -181 67l41 55c42 -34 85 -58 143 -58c64 0 96 34 96 76c0 50 -58 72 -111 92c-69 25 -145 58 -145 140c0 78 62 138 167 138c61 0 114 -25 151 -55l-39 -52c-33 25 -68 43 -111 43c-61 0 -89 -33 -89 -70c0 -46 53 -63 108 -84
c70 -26 148 -55 148 -147c0 -79 -63 -145 -178 -145zM223 -206c-31 0 -54 22 -54 54c0 31 23 54 54 54s54 -23 54 -54c0 -32 -23 -54 -54 -54z" />
    <glyph glyph-name="germandbls" unicode="&#xdf;" horiz-adv-x="576" 
d="M387 -12c-55 0 -100 19 -141 49l33 58c35 -29 68 -43 106 -43c55 0 84 38 84 80c0 116 -197 93 -197 232c0 90 88 120 88 204c0 50 -28 87 -83 87c-71 0 -113 -52 -113 -155v-500h-82v515c0 125 71 207 196 207c105 0 163 -67 163 -146c0 -100 -91 -133 -91 -202
c0 -97 197 -75 197 -237c0 -84 -61 -149 -160 -149z" />
    <glyph glyph-name="tcaron" unicode="&#x165;" horiz-adv-x="338" 
d="M235 -12c-104 0 -139 66 -139 162v269h-72v62l76 5l10 136h69v-136h131v-67h-131v-270c0 -60 19 -94 75 -94c17 0 39 7 55 13l16 -62c-27 -9 -60 -18 -90 -18zM256 548l-4 212h59l-1 -57l-14 -155h-40z" />
    <glyph glyph-name="uni0163" unicode="&#x163;" horiz-adv-x="338" 
d="M130 -226l-8 40c84 6 109 21 109 50c0 26 -20 40 -77 48l39 80c-72 16 -97 76 -97 158v269h-72v62l76 5l10 136h69v-136h131v-67h-131v-270c0 -60 19 -94 75 -94c17 0 39 7 55 13l16 -62c-24 -8 -53 -16 -80 -18l-23 -52c46 -11 73 -30 73 -71c0 -58 -59 -86 -165 -91z
" />
    <glyph glyph-name="uni021B" unicode="&#x21b;" horiz-adv-x="338" 
d="M235 -12c-104 0 -139 66 -139 162v269h-72v62l76 5l10 136h69v-136h131v-67h-131v-270c0 -60 19 -94 75 -94c17 0 39 7 55 13l16 -62c-27 -9 -60 -18 -90 -18zM126 -226l-8 40c84 6 109 21 109 48c0 26 -25 38 -71 42l18 38c87 -10 117 -32 117 -77
c0 -58 -59 -86 -165 -91z" />
    <glyph glyph-name="uni1E6D" unicode="&#x1e6d;" horiz-adv-x="338" 
d="M235 -12c-104 0 -139 66 -139 162v269h-72v62l76 5l10 136h69v-136h131v-67h-131v-270c0 -60 19 -94 75 -94c17 0 39 7 55 13l16 -62c-27 -9 -60 -18 -90 -18zM214 -206c-31 0 -54 22 -54 54c0 31 23 54 54 54s54 -23 54 -54c0 -32 -23 -54 -54 -54z" />
    <glyph glyph-name="uni1E6F" unicode="&#x1e6f;" horiz-adv-x="338" 
d="M235 -12c-104 0 -139 66 -139 162v269h-72v62l76 5l10 136h69v-136h131v-67h-131v-270c0 -60 19 -94 75 -94c17 0 39 7 55 13l16 -62c-27 -9 -60 -18 -90 -18zM80 -170v57h266v-57h-266z" />
    <glyph glyph-name="uni1E97" unicode="&#x1e97;" horiz-adv-x="338" 
d="M235 -12c-104 0 -139 66 -139 162v269h-72v62l76 5l10 136h69v-136h131v-67h-131v-270c0 -60 19 -94 75 -94c17 0 39 7 55 13l16 -62c-27 -9 -60 -18 -90 -18zM48 723c-29 0 -50 22 -50 50s21 50 50 50c28 0 49 -22 49 -50s-21 -50 -49 -50zM240 723c-28 0 -49 22 -49 50
s21 50 49 50c29 0 50 -22 50 -50s-21 -50 -50 -50z" />
    <glyph glyph-name="uni0167" unicode="&#x167;" horiz-adv-x="338" 
d="M24 231v43l72 5v140h-72v62l76 5l10 136h69v-136h131v-67h-131v-140h131v-48h-131v-82c0 -60 19 -94 75 -94c17 0 39 7 55 13l16 -62c-27 -9 -60 -18 -90 -18c-104 0 -139 66 -139 162v81h-72z" />
    <glyph glyph-name="ugrave" unicode="&#xf9;" horiz-adv-x="544" 
d="M224 -12c-103 0 -149 66 -149 190v308h83v-297c0 -91 27 -130 91 -130c50 0 85 25 131 82v345h82v-486h-68l-7 76h-3c-45 -53 -93 -88 -160 -88zM286 573l-157 153l58 55l141 -167z" />
    <glyph glyph-name="uacute" unicode="&#xfa;" horiz-adv-x="544" 
d="M224 -12c-103 0 -149 66 -149 190v308h83v-297c0 -91 27 -130 91 -130c50 0 85 25 131 82v345h82v-486h-68l-7 76h-3c-45 -53 -93 -88 -160 -88zM258 573l-42 41l141 167l58 -55z" />
    <glyph glyph-name="ucircumflex" unicode="&#xfb;" horiz-adv-x="544" 
d="M224 -12c-103 0 -149 66 -149 190v308h83v-297c0 -91 27 -130 91 -130c50 0 85 25 131 82v345h82v-486h-68l-7 76h-3c-45 -53 -93 -88 -160 -88zM117 600l114 140h82l114 -140l-35 -32l-118 113h-4l-118 -113z" />
    <glyph glyph-name="utilde" unicode="&#x169;" horiz-adv-x="544" 
d="M224 -12c-103 0 -149 66 -149 190v308h83v-297c0 -91 27 -130 91 -130c50 0 85 25 131 82v345h82v-486h-68l-7 76h-3c-45 -53 -93 -88 -160 -88zM344 577c-71 0 -97 84 -143 84c-30 0 -44 -32 -47 -79l-55 3c3 78 32 136 101 136c71 0 97 -84 144 -84c29 0 43 33 46 79
l55 -4c-3 -77 -32 -135 -101 -135z" />
    <glyph glyph-name="udieresis" unicode="&#xfc;" horiz-adv-x="544" 
d="M224 -12c-103 0 -149 66 -149 190v308h83v-297c0 -91 27 -130 91 -130c50 0 85 25 131 82v345h82v-486h-68l-7 76h-3c-45 -53 -93 -88 -160 -88zM176 587c-29 0 -50 22 -50 50s21 50 50 50c28 0 49 -22 49 -50s-21 -50 -49 -50zM368 587c-28 0 -49 22 -49 50s21 50 49 50
c29 0 50 -22 50 -50s-21 -50 -50 -50z" />
    <glyph glyph-name="umacron" unicode="&#x16b;" horiz-adv-x="544" 
d="M224 -12c-103 0 -149 66 -149 190v308h83v-297c0 -91 27 -130 91 -130c50 0 85 25 131 82v345h82v-486h-68l-7 76h-3c-45 -53 -93 -88 -160 -88zM136 601v57h266v-57h-266z" />
    <glyph glyph-name="ubreve" unicode="&#x16d;" horiz-adv-x="544" 
d="M224 -12c-103 0 -149 66 -149 190v308h83v-297c0 -91 27 -130 91 -130c50 0 85 25 131 82v345h82v-486h-68l-7 76h-3c-45 -53 -93 -88 -160 -88zM272 571c-107 0 -151 77 -156 151l51 8c8 -51 40 -104 105 -104s97 53 105 104l51 -8c-5 -74 -49 -151 -156 -151z" />
    <glyph glyph-name="uring" unicode="&#x16f;" horiz-adv-x="544" 
d="M224 -12c-103 0 -149 66 -149 190v308h83v-297c0 -91 27 -130 91 -130c50 0 85 25 131 82v345h82v-486h-68l-7 76h-3c-45 -53 -93 -88 -160 -88zM272 554c-67 0 -110 42 -110 99c0 56 43 98 110 98s110 -42 110 -98c0 -57 -43 -99 -110 -99zM272 591c32 0 57 24 57 62
c0 37 -25 61 -57 61s-57 -24 -57 -61c0 -38 25 -62 57 -62z" />
    <glyph glyph-name="uhungarumlaut" unicode="&#x171;" horiz-adv-x="544" 
d="M224 -12c-103 0 -149 66 -149 190v308h83v-297c0 -91 27 -130 91 -130c50 0 85 25 131 82v345h82v-486h-68l-7 76h-3c-45 -53 -93 -88 -160 -88zM221 568l-45 21l86 172l59 -28zM372 568l-46 21l87 172l58 -28z" />
    <glyph glyph-name="uni01D4" unicode="&#x1d4;" horiz-adv-x="544" 
d="M224 -12c-103 0 -149 66 -149 190v308h83v-297c0 -91 27 -130 91 -130c50 0 85 25 131 82v345h82v-486h-68l-7 76h-3c-45 -53 -93 -88 -160 -88zM231 574l-114 140l35 32l118 -113h4l118 113l35 -32l-114 -140h-82z" />
    <glyph glyph-name="uni01D6" unicode="&#x1d6;" horiz-adv-x="544" 
d="M224 -12c-103 0 -149 66 -149 190v308h83v-297c0 -91 27 -130 91 -130c50 0 85 25 131 82v345h82v-486h-68l-7 76h-3c-45 -53 -93 -88 -160 -88zM176 588c-26 0 -46 20 -46 45c0 26 20 46 46 46s45 -20 45 -46c0 -25 -19 -45 -45 -45zM138 750v47h267v-47h-267zM368 588
c-26 0 -45 20 -45 45c0 26 19 46 45 46s46 -20 46 -46c0 -25 -20 -45 -46 -45z" />
    <glyph glyph-name="uni01D8" unicode="&#x1d8;" horiz-adv-x="544" 
d="M224 -12c-103 0 -149 66 -149 190v308h83v-297c0 -91 27 -130 91 -130c50 0 85 25 131 82v345h82v-486h-68l-7 76h-3c-45 -53 -93 -88 -160 -88zM265 705l-35 24l82 115l49 -34zM176 588c-26 0 -46 20 -46 45c0 26 20 46 46 46s45 -20 45 -46c0 -25 -19 -45 -45 -45z
M368 588c-26 0 -45 20 -45 45c0 26 19 46 45 46s46 -20 46 -46c0 -25 -20 -45 -46 -45z" />
    <glyph glyph-name="uni01DA" unicode="&#x1da;" horiz-adv-x="544" 
d="M224 -12c-103 0 -149 66 -149 190v308h83v-297c0 -91 27 -130 91 -130c50 0 85 25 131 82v345h82v-486h-68l-7 76h-3c-45 -53 -93 -88 -160 -88zM174 840l96 -73h4l96 73l30 -28l-94 -92h-68l-94 92zM176 588c-26 0 -46 20 -46 45c0 26 20 46 46 46s45 -20 45 -46
c0 -25 -19 -45 -45 -45zM368 588c-26 0 -45 20 -45 45c0 26 19 46 45 46s46 -20 46 -46c0 -25 -20 -45 -46 -45z" />
    <glyph glyph-name="uni01DC" unicode="&#x1dc;" horiz-adv-x="544" 
d="M224 -12c-103 0 -149 66 -149 190v308h83v-297c0 -91 27 -130 91 -130c50 0 85 25 131 82v345h82v-486h-68l-7 76h-3c-45 -53 -93 -88 -160 -88zM279 705l-96 105l49 34l82 -115zM176 588c-26 0 -46 20 -46 45c0 26 20 46 46 46s45 -20 45 -46c0 -25 -19 -45 -45 -45z
M368 588c-26 0 -45 20 -45 45c0 26 19 46 45 46s46 -20 46 -46c0 -25 -20 -45 -46 -45z" />
    <glyph glyph-name="uni1EE5" unicode="&#x1ee5;" horiz-adv-x="544" 
d="M224 -12c-103 0 -149 66 -149 190v308h83v-297c0 -91 27 -130 91 -130c50 0 85 25 131 82v345h82v-486h-68l-7 76h-3c-45 -53 -93 -88 -160 -88zM290 -206c-31 0 -54 22 -54 54c0 31 23 54 54 54s54 -23 54 -54c0 -32 -23 -54 -54 -54z" />
    <glyph glyph-name="uni1EE7" unicode="&#x1ee7;" horiz-adv-x="544" 
d="M224 -12c-103 0 -149 66 -149 190v308h83v-297c0 -91 27 -130 91 -130c50 0 85 25 131 82v345h82v-486h-68l-7 76h-3c-45 -53 -93 -88 -160 -88zM240 572l-9 40c32 8 56 21 56 47c0 29 -27 44 -83 47l5 54c91 -2 143 -35 143 -94c0 -58 -54 -83 -112 -94z" />
    <glyph glyph-name="uogonek" unicode="&#x173;" horiz-adv-x="544" 
d="M405 -206c-51 0 -91 29 -91 85c0 54 38 94 81 125l-8 72h-3c-45 -53 -93 -88 -160 -88c-103 0 -149 66 -149 190v308h83v-297c0 -91 26 -130 91 -130c50 0 85 25 131 82v345h82v-486c-59 -29 -87 -66 -87 -105c0 -31 23 -46 46 -46c16 0 29 5 41 13l21 -41
c-19 -15 -53 -27 -78 -27z" />
    <glyph glyph-name="uhorn" unicode="&#x1b0;" horiz-adv-x="544" 
d="M224 -12c-103 0 -149 66 -149 190v308h83v-297c0 -91 27 -130 91 -130c50 0 85 25 131 82v345h21c47 7 84 30 84 96c0 19 -6 39 -14 55l64 30c13 -22 23 -50 23 -79c0 -81 -50 -118 -96 -133v-455h-68l-7 76h-3c-45 -53 -93 -88 -160 -88z" />
    <glyph glyph-name="uni1EE9" unicode="&#x1ee9;" horiz-adv-x="544" 
d="M224 -12c-103 0 -149 66 -149 190v308h83v-297c0 -91 27 -130 91 -130c50 0 85 25 131 82v345h21c47 7 84 30 84 96c0 19 -6 39 -14 55l64 30c13 -22 23 -50 23 -79c0 -81 -50 -118 -96 -133v-455h-68l-7 76h-3c-45 -53 -93 -88 -160 -88zM252 573l-42 41l141 167l58 -55
z" />
    <glyph glyph-name="uni1EEB" unicode="&#x1eeb;" horiz-adv-x="544" 
d="M224 -12c-103 0 -149 66 -149 190v308h83v-297c0 -91 27 -130 91 -130c50 0 85 25 131 82v345h21c47 7 84 30 84 96c0 19 -6 39 -14 55l64 30c13 -22 23 -50 23 -79c0 -81 -50 -118 -96 -133v-455h-68l-7 76h-3c-45 -53 -93 -88 -160 -88zM280 573l-157 153l58 55
l141 -167z" />
    <glyph glyph-name="uni1EED" unicode="&#x1eed;" horiz-adv-x="544" 
d="M224 -12c-103 0 -149 66 -149 190v308h83v-297c0 -91 27 -130 91 -130c50 0 85 25 131 82v345h21c47 7 84 30 84 96c0 19 -6 39 -14 55l64 30c13 -22 23 -50 23 -79c0 -81 -50 -118 -96 -133v-455h-68l-7 76h-3c-45 -53 -93 -88 -160 -88zM234 572l-9 40
c32 8 56 21 56 47c0 29 -27 44 -83 47l5 54c91 -2 143 -35 143 -94c0 -58 -54 -83 -112 -94z" />
    <glyph glyph-name="uni1EEF" unicode="&#x1eef;" horiz-adv-x="544" 
d="M224 -12c-103 0 -149 66 -149 190v308h83v-297c0 -91 27 -130 91 -130c50 0 85 25 131 82v345h21c47 7 84 30 84 96c0 19 -6 39 -14 55l64 30c13 -22 23 -50 23 -79c0 -81 -50 -118 -96 -133v-455h-68l-7 76h-3c-45 -53 -93 -88 -160 -88zM338 577c-71 0 -97 84 -143 84
c-30 0 -44 -32 -47 -79l-55 3c3 78 32 136 101 136c71 0 97 -84 144 -84c29 0 43 33 46 79l55 -4c-3 -77 -32 -135 -101 -135z" />
    <glyph glyph-name="uni1EF1" unicode="&#x1ef1;" horiz-adv-x="544" 
d="M224 -12c-103 0 -149 66 -149 190v308h83v-297c0 -91 27 -130 91 -130c50 0 85 25 131 82v345h21c47 7 84 30 84 96c0 19 -6 39 -14 55l64 30c13 -22 23 -50 23 -79c0 -81 -50 -118 -96 -133v-455h-68l-7 76h-3c-45 -53 -93 -88 -160 -88zM284 -206c-31 0 -54 22 -54 54
c0 31 23 54 54 54s54 -23 54 -54c0 -32 -23 -54 -54 -54z" />
    <glyph glyph-name="wgrave" unicode="&#x1e81;" horiz-adv-x="718" 
d="M159 0l-135 486h84l72 -281c11 -46 20 -90 29 -135h4c11 45 21 90 33 135l75 281h80l76 -281c12 -46 23 -90 34 -135h4c11 45 20 89 30 135l71 281h78l-130 -486h-100l-70 261c-12 46 -21 91 -33 140h-4c-11 -49 -21 -95 -34 -141l-68 -260h-96zM374 573l-157 153l58 55
l141 -167z" />
    <glyph glyph-name="wacute" unicode="&#x1e83;" horiz-adv-x="718" 
d="M159 0l-135 486h84l72 -281c11 -46 20 -90 29 -135h4c11 45 21 90 33 135l75 281h80l76 -281c12 -46 23 -90 34 -135h4c11 45 20 89 30 135l71 281h78l-130 -486h-100l-70 261c-12 46 -21 91 -33 140h-4c-11 -49 -21 -95 -34 -141l-68 -260h-96zM346 573l-42 41l141 167
l58 -55z" />
    <glyph glyph-name="wcircumflex" unicode="&#x175;" horiz-adv-x="718" 
d="M159 0l-135 486h84l72 -281c11 -46 20 -90 29 -135h4c11 45 21 90 33 135l75 281h80l76 -281c12 -46 23 -90 34 -135h4c11 45 20 89 30 135l71 281h78l-130 -486h-100l-70 261c-12 46 -21 91 -33 140h-4c-11 -49 -21 -95 -34 -141l-68 -260h-96zM205 600l114 140h82
l114 -140l-35 -32l-118 113h-4l-118 -113z" />
    <glyph glyph-name="wdieresis" unicode="&#x1e85;" horiz-adv-x="718" 
d="M159 0l-135 486h84l72 -281c11 -46 20 -90 29 -135h4c11 45 21 90 33 135l75 281h80l76 -281c12 -46 23 -90 34 -135h4c11 45 20 89 30 135l71 281h78l-130 -486h-100l-70 261c-12 46 -21 91 -33 140h-4c-11 -49 -21 -95 -34 -141l-68 -260h-96zM264 587
c-29 0 -50 22 -50 50s21 50 50 50c28 0 49 -22 49 -50s-21 -50 -49 -50zM456 587c-28 0 -49 22 -49 50s21 50 49 50c29 0 50 -22 50 -50s-21 -50 -50 -50z" />
    <glyph glyph-name="ygrave" unicode="&#x1ef3;" horiz-adv-x="467" 
d="M90 -209c-22 0 -41 4 -57 10l16 65c10 -3 25 -7 37 -7c55 0 90 44 110 104l11 36l-195 487h85l99 -269c15 -42 32 -92 47 -137h4c14 44 28 94 41 137l87 269h80l-183 -526c-34 -96 -84 -169 -182 -169zM257 573l-157 153l58 55l141 -167z" />
    <glyph glyph-name="yacute" unicode="&#xfd;" horiz-adv-x="467" 
d="M90 -209c-22 0 -41 4 -57 10l16 65c10 -3 25 -7 37 -7c55 0 90 44 110 104l11 36l-195 487h85l99 -269c15 -42 32 -92 47 -137h4c14 44 28 94 41 137l87 269h80l-183 -526c-34 -96 -84 -169 -182 -169zM229 573l-42 41l141 167l58 -55z" />
    <glyph glyph-name="ycircumflex" unicode="&#x177;" horiz-adv-x="467" 
d="M90 -209c-22 0 -41 4 -57 10l16 65c10 -3 25 -7 37 -7c55 0 90 44 110 104l11 36l-195 487h85l99 -269c15 -42 32 -92 47 -137h4c14 44 28 94 41 137l87 269h80l-183 -526c-34 -96 -84 -169 -182 -169zM88 600l114 140h82l114 -140l-35 -32l-118 113h-4l-118 -113z" />
    <glyph glyph-name="ydieresis" unicode="&#xff;" horiz-adv-x="467" 
d="M90 -209c-22 0 -41 4 -57 10l16 65c10 -3 25 -7 37 -7c55 0 90 44 110 104l11 36l-195 487h85l99 -269c15 -42 32 -92 47 -137h4c14 44 28 94 41 137l87 269h80l-183 -526c-34 -96 -84 -169 -182 -169zM147 587c-29 0 -50 22 -50 50s21 50 50 50c28 0 49 -22 49 -50
s-21 -50 -49 -50zM339 587c-28 0 -49 22 -49 50s21 50 49 50c29 0 50 -22 50 -50s-21 -50 -50 -50z" />
    <glyph glyph-name="uni1E8F" unicode="&#x1e8f;" horiz-adv-x="467" 
d="M90 -209c-22 0 -41 4 -57 10l16 65c10 -3 25 -7 37 -7c55 0 90 44 110 104l11 36l-195 487h85l99 -269c15 -42 32 -92 47 -137h4c14 44 28 94 41 137l87 269h80l-183 -526c-34 -96 -84 -169 -182 -169zM243 586c-31 0 -54 22 -54 54c0 31 23 54 54 54s54 -23 54 -54
c0 -32 -23 -54 -54 -54z" />
    <glyph glyph-name="uni1EF5" unicode="&#x1ef5;" horiz-adv-x="467" 
d="M90 -209c-22 0 -41 4 -57 10l16 65c10 -3 25 -7 37 -7c55 0 90 44 110 104l11 36l-195 487h85l99 -269c15 -42 32 -92 47 -137h4c14 44 28 94 41 137l87 269h80l-183 -526c-34 -96 -84 -169 -182 -169zM392 -202c-31 0 -54 22 -54 54c0 31 23 54 54 54s54 -23 54 -54
c0 -32 -23 -54 -54 -54z" />
    <glyph glyph-name="uni1EF7" unicode="&#x1ef7;" horiz-adv-x="467" 
d="M90 -209c-22 0 -41 4 -57 10l16 65c10 -3 25 -7 37 -7c55 0 90 44 110 104l11 36l-195 487h85l99 -269c15 -42 32 -92 47 -137h4c14 44 28 94 41 137l87 269h80l-183 -526c-34 -96 -84 -169 -182 -169zM211 572l-9 40c32 8 56 21 56 47c0 29 -27 44 -83 47l5 54
c91 -2 143 -35 143 -94c0 -58 -54 -83 -112 -94z" />
    <glyph glyph-name="uni1EF9" unicode="&#x1ef9;" horiz-adv-x="467" 
d="M90 -209c-22 0 -41 4 -57 10l16 65c10 -3 25 -7 37 -7c55 0 90 44 110 104l11 36l-195 487h85l99 -269c15 -42 32 -92 47 -137h4c14 44 28 94 41 137l87 269h80l-183 -526c-34 -96 -84 -169 -182 -169zM315 577c-71 0 -97 84 -143 84c-30 0 -44 -32 -47 -79l-55 3
c3 78 32 136 101 136c71 0 97 -84 144 -84c29 0 43 33 46 79l55 -4c-3 -77 -32 -135 -101 -135z" />
    <glyph glyph-name="zacute" unicode="&#x17a;" horiz-adv-x="425" 
d="M31 0v44l256 375h-228v67h332v-44l-256 -375h264v-67h-368zM215 573l-42 41l141 167l58 -55z" />
    <glyph glyph-name="zcaron" unicode="&#x17e;" horiz-adv-x="425" 
d="M31 0v44l256 375h-228v67h332v-44l-256 -375h264v-67h-368zM188 574l-114 140l35 32l118 -113h4l118 113l35 -32l-114 -140h-82z" />
    <glyph glyph-name="zdotaccent" unicode="&#x17c;" horiz-adv-x="425" 
d="M31 0v44l256 375h-228v67h332v-44l-256 -375h264v-67h-368zM229 586c-31 0 -54 22 -54 54c0 31 23 54 54 54s54 -23 54 -54c0 -32 -23 -54 -54 -54z" />
    <glyph glyph-name="uni1E93" unicode="&#x1e93;" horiz-adv-x="425" 
d="M31 0v44l256 375h-228v67h332v-44l-256 -375h264v-67h-368zM228 -206c-31 0 -54 22 -54 54c0 31 23 54 54 54s54 -23 54 -54c0 -32 -23 -54 -54 -54z" />
    <glyph glyph-name="uni1E95" unicode="&#x1e95;" horiz-adv-x="425" 
d="M31 0v44l256 375h-228v67h332v-44l-256 -375h264v-67h-368zM95 -170v57h266v-57h-266z" />
    <glyph glyph-name="eth" unicode="&#xf0;" horiz-adv-x="545" 
d="M269 -12c-113 0 -216 89 -216 234c0 136 90 225 206 225c51 0 100 -21 134 -66c-18 82 -56 142 -107 192l-141 -73l-24 41l127 65c-34 26 -71 50 -112 72l38 52c48 -26 95 -55 138 -91l142 73l24 -41l-129 -66c80 -81 136 -190 136 -348c0 -160 -86 -269 -216 -269z
M271 56c90 0 135 81 135 198c0 19 -1 38 -2 55c-44 59 -88 74 -133 74c-89 0 -140 -69 -140 -161c0 -100 64 -166 140 -166z" />
    <glyph glyph-name="thorn" unicode="&#xfe;" horiz-adv-x="555" 
d="M82 -205v917h82v-194l-1 -83c43 34 95 63 148 63c128 0 196 -97 196 -248c0 -165 -99 -262 -210 -262c-47 0 -90 20 -134 54l1 -83v-164h-82zM283 57c80 0 139 73 139 193c0 107 -36 179 -128 179c-41 0 -82 -23 -130 -66v-255c44 -37 87 -51 119 -51z" />
    <glyph glyph-name="uni014B" unicode="&#x14b;" horiz-adv-x="547" 
d="M338 -183c-30 0 -55 6 -71 13l16 63c12 -4 29 -9 46 -9c48 0 60 36 60 96v317c0 91 -28 130 -92 130c-50 0 -84 -26 -133 -75v-352h-82v486h68l7 -70h3c46 46 96 82 163 82c102 0 148 -66 148 -190v-329c0 -99 -36 -162 -133 -162z" />
    <glyph glyph-name="uni0237" unicode="&#x237;" horiz-adv-x="247" 
d="M32 -217c-30 0 -55 6 -72 13l17 62c12 -4 29 -8 46 -8c48 0 60 36 60 95v541h82v-541c0 -99 -36 -162 -133 -162z" />
    <glyph glyph-name="uni0133" unicode="&#x133;" horiz-adv-x="493" 
d="M82 0v486h82v-486h-82zM124 586c-32 0 -57 22 -57 53c0 32 25 53 57 53s57 -21 57 -53c0 -31 -25 -53 -57 -53zM278 -217c-30 0 -55 6 -72 13l17 62c12 -4 29 -8 46 -8c48 0 60 36 60 95v541h82v-541c0 -99 -36 -162 -133 -162zM371 586c-32 0 -57 22 -57 53
c0 32 25 53 57 53c31 0 56 -21 56 -53c0 -31 -25 -53 -56 -53z" />
    <glyph glyph-name="uni0250" unicode="&#x250;" horiz-adv-x="512" 
d="M270 -12c-138 0 -195 83 -195 208v290h68l7 -68h2c47 48 108 80 173 80c76 0 131 -45 131 -127c0 -110 -92 -170 -299 -193c1 -59 27 -122 124 -122c54 0 101 26 138 52l32 -57c-43 -29 -108 -63 -181 -63zM157 232c163 21 218 63 218 128c0 51 -34 72 -77 72
c-45 0 -91 -23 -141 -76v-124z" />
    <glyph glyph-name="uni0252" unicode="&#x252;" horiz-adv-x="555" 
d="M297 -12c-45 0 -93 21 -139 59h-3l-6 -47h-67v486h68l7 -57h3c44 38 98 69 155 69c125 0 192 -97 192 -248c0 -165 -99 -262 -210 -262zM283 57c80 0 139 73 139 193c0 107 -36 179 -128 179c-41 0 -82 -23 -130 -66v-255c44 -37 87 -51 119 -51z" />
    <glyph glyph-name="uni0253" unicode="&#x253;" horiz-adv-x="555" 
d="M297 -12c-45 0 -96 22 -139 60h-3l-7 -48h-66v537c0 111 55 187 169 187c29 0 60 -7 82 -16l-19 -63c-18 8 -38 12 -55 12c-64 0 -93 -45 -95 -121l-2 -113c44 38 98 68 152 68c126 0 193 -96 193 -244c0 -164 -99 -259 -210 -259zM283 57c80 0 139 72 139 189
c0 105 -36 176 -128 176c-41 0 -84 -23 -130 -67v-247c43 -37 87 -51 119 -51z" />
    <glyph glyph-name="uni0254" unicode="&#x254;" horiz-adv-x="456" 
d="M182 -12c-59 0 -114 23 -157 62l35 55c31 -27 70 -49 114 -49c88 0 151 75 151 186c0 113 -62 188 -143 188c-47 0 -77 -16 -106 -43l-42 54c36 31 84 57 157 57c116 0 219 -91 219 -256c0 -161 -101 -254 -228 -254z" />
    <glyph glyph-name="uni0255" unicode="&#x255;" horiz-adv-x="456" 
d="M284 54c48 0 83 23 83 53c0 22 -16 45 -52 45s-77 -27 -114 -72c24 -17 52 -26 83 -26zM123 -69l-66 28c15 38 32 73 51 103c-38 43 -62 104 -62 180c0 163 109 256 234 256c64 0 108 -26 142 -57l-40 -51c-28 25 -60 43 -99 43c-90 0 -156 -77 -156 -191
c0 -45 11 -84 30 -115c50 54 107 84 163 84c72 0 114 -42 114 -103c0 -66 -58 -120 -152 -120c-44 0 -86 11 -121 32c-15 -27 -28 -57 -38 -89z" />
    <glyph glyph-name="uni0256" unicode="&#x256;" horiz-adv-x="555" 
d="M514 -183c-83 0 -121 52 -121 137l1 102c-40 -38 -89 -68 -146 -68c-122 0 -201 92 -201 254c0 158 100 256 211 256c56 0 93 -21 136 -56l-4 83v199h83v-752c0 -55 11 -88 50 -88c13 0 26 5 36 9l16 -63c-14 -7 -36 -13 -61 -13zM266 57c45 0 84 22 124 67v254
c-41 37 -78 51 -118 51c-78 0 -140 -75 -140 -186c0 -116 49 -186 134 -186z" />
    <glyph glyph-name="uni0257" unicode="&#x257;" horiz-adv-x="555" 
d="M248 -12c-122 0 -201 92 -201 254c0 158 100 256 211 256c56 0 93 -21 136 -56l-1 133c0 93 41 151 130 151c23 0 41 -4 56 -10l-16 -63c-9 3 -19 6 -31 6c-44 0 -59 -36 -59 -92v-567h-68l-7 57h-3c-38 -37 -90 -69 -147 -69zM266 57c45 0 84 22 124 67v254
c-41 37 -78 51 -118 51c-78 0 -140 -75 -140 -186c0 -116 49 -186 134 -186z" />
    <glyph glyph-name="uni0258" unicode="&#x258;" horiz-adv-x="496" 
d="M221 -12c-66 0 -122 23 -164 50l29 54c36 -23 78 -38 125 -38c95 0 152 66 157 169h-327c-2 12 -4 30 -4 47c0 139 80 228 204 228c117 0 209 -97 209 -256s-97 -254 -229 -254zM110 282h259c-9 96 -57 151 -130 151c-76 0 -129 -53 -129 -151z" />
    <glyph glyph-name="uni0251" unicode="&#x251;" horiz-adv-x="555" 
d="M248 -12c-122 0 -201 92 -201 254c0 158 101 256 212 256c54 0 94 -20 138 -59h2l7 47h67v-486h-68l-7 57h-3c-38 -37 -90 -69 -147 -69zM266 57c45 0 84 22 124 67v254c-41 37 -78 51 -118 51c-78 0 -140 -75 -140 -186c0 -116 49 -186 134 -186z" />
    <glyph glyph-name="uni0299" unicode="&#x299;" horiz-adv-x="508" 
d="M82 0v486h187c106 0 179 -35 179 -123c0 -54 -31 -89 -81 -104v-3c55 -13 102 -47 102 -117c0 -96 -80 -139 -192 -139h-195zM163 282h92c81 0 113 28 113 73s-32 72 -107 72h-98v-145zM163 59h105c80 0 119 31 119 85c0 49 -42 79 -124 79h-100v-164z" />
    <glyph glyph-name="uni0259" unicode="&#x259;" horiz-adv-x="496" 
d="M238 -12c-123 0 -201 89 -201 234c0 18 2 36 4 48h327c-5 97 -57 163 -145 163c-49 0 -88 -17 -126 -42l-29 57c45 31 100 50 168 50c122 0 214 -94 214 -254c0 -159 -94 -256 -212 -256zM236 54c75 0 124 57 133 157h-259c0 -105 49 -157 126 -157z" />
    <glyph glyph-name="uni025A" unicode="&#x25a;" horiz-adv-x="648" 
d="M249 -12c-132 0 -202 96 -212 209l323 132c-23 70 -73 104 -137 104c-51 0 -87 -17 -124 -42l-30 57c45 31 97 50 163 50c94 0 166 -51 199 -140l81 33l44 -17c6 -76 22 -91 50 -91c16 0 30 7 40 15l22 -43c-16 -12 -38 -25 -66 -25c-39 0 -82 23 -96 96l-60 -24
c3 -20 5 -41 5 -63c0 -138 -79 -251 -202 -251zM247 53c78 0 126 80 126 179c0 14 -1 27 -2 39l-258 -105c13 -71 65 -113 134 -113z" />
    <glyph glyph-name="uni025B" unicode="&#x25b;" horiz-adv-x="440" 
d="M249 -12c-110 0 -199 56 -199 146c0 70 52 107 108 122v4c-53 18 -82 62 -82 107c0 89 82 131 177 131c58 0 105 -18 147 -48l-33 -55c-36 23 -69 38 -112 38c-54 0 -97 -26 -97 -76c0 -44 35 -75 113 -75h55v-59h-70c-79 0 -124 -29 -124 -82c0 -54 52 -87 126 -87
c44 0 83 13 126 44l35 -55c-56 -40 -104 -55 -170 -55z" />
    <glyph glyph-name="uni025C" unicode="&#x25c;" horiz-adv-x="456" 
d="M210 -12c-66 0 -116 15 -173 55l35 55c44 -31 82 -44 126 -44c74 0 126 33 126 87c0 53 -44 82 -124 82h-69v59h54c78 0 113 31 113 75c0 50 -39 76 -93 76c-43 0 -80 -15 -116 -38l-33 55c44 30 95 48 155 48c92 0 169 -42 169 -131c0 -45 -29 -89 -82 -107v-4
c56 -15 108 -52 108 -122c0 -90 -87 -146 -196 -146z" />
    <glyph glyph-name="uni025E" unicode="&#x25e;" horiz-adv-x="546" 
d="M259 -12c-118 0 -209 56 -209 146c0 70 52 107 108 122v4c-53 18 -82 62 -82 107c0 89 80 131 180 131c134 0 245 -86 245 -256c0 -168 -107 -254 -242 -254zM260 54c96 0 156 66 156 188c0 123 -62 191 -159 191c-56 0 -99 -26 -99 -76c0 -44 34 -75 109 -75h27v-59h-42
c-77 0 -120 -29 -120 -82c0 -54 50 -87 128 -87z" />
    <glyph glyph-name="uni025F" unicode="&#x25f;" horiz-adv-x="270" 
d="M43 -217c-30 0 -55 6 -72 13l17 62c12 -4 29 -8 46 -8c48 0 60 36 60 95v286h-86v43l86 5v207h82v-207h83v-48h-83v-286c0 -99 -36 -162 -133 -162z" />
    <glyph glyph-name="uni0260" unicode="&#x260;" horiz-adv-x="559" 
d="M259 -216c-60 0 -123 19 -174 53l30 58c48 -32 98 -45 144 -45c89 0 131 50 134 128l1 92c-37 -36 -87 -65 -144 -65c-122 0 -200 92 -200 245c0 152 101 248 211 248c55 0 92 -21 134 -56l-1 41c0 87 41 146 131 146c23 0 41 -4 56 -10l-16 -63c-9 4 -19 6 -31 6
c-44 0 -59 -36 -59 -92v-494c0 -120 -78 -192 -216 -192zM268 73c45 0 83 22 125 67v238c-42 37 -79 51 -119 51c-78 0 -140 -74 -140 -178c0 -109 49 -178 134 -178z" />
    <glyph glyph-name="uni0261" unicode="&#x261;" horiz-adv-x="559" 
d="M259 -216c-60 0 -123 19 -174 53l30 58c48 -32 98 -45 144 -45c89 0 131 50 134 128l1 92c-37 -36 -87 -65 -144 -65c-122 0 -200 92 -200 245c0 152 101 248 211 248c55 0 95 -20 136 -57h2l7 45h69v-510c0 -120 -78 -192 -216 -192zM268 73c45 0 83 22 125 67v238
c-42 37 -79 51 -119 51c-78 0 -140 -74 -140 -178c0 -109 49 -178 134 -178z" />
    <glyph glyph-name="uni0262" unicode="&#x262;" horiz-adv-x="497" 
d="M280 -12c-131 0 -234 90 -234 256c0 158 106 254 239 254c75 0 121 -29 155 -60l-40 -51c-28 24 -59 46 -111 46c-89 0 -160 -69 -160 -189c0 -119 63 -190 158 -190c36 0 68 12 88 30v119h-108v59h181v-213c-36 -34 -96 -61 -168 -61z" />
    <glyph glyph-name="uni0263" unicode="&#x263;" horiz-adv-x="467" 
d="M236 -224c-71 0 -111 47 -111 116c0 47 22 91 56 160l-169 434h85l92 -259c14 -44 30 -79 45 -122h4c14 43 30 78 44 122l92 259h81l-166 -433c35 -70 57 -114 57 -161c0 -69 -40 -116 -110 -116zM236 -167c26 0 39 23 39 53c0 36 -14 79 -38 125h-4
c-23 -46 -37 -92 -37 -125c0 -30 13 -53 40 -53z" />
    <glyph glyph-name="uni0264" unicode="&#x264;" horiz-adv-x="511" 
d="M256 -12c-113 0 -174 63 -174 167c0 73 51 146 117 208c-35 42 -73 67 -110 67c-18 0 -35 -5 -47 -14l-26 60c20 14 53 22 84 22c54 0 109 -34 156 -87c46 53 101 87 155 87c31 0 64 -8 84 -22l-26 -60c-13 9 -29 14 -47 14c-38 0 -75 -25 -110 -67
c65 -62 117 -135 117 -208c0 -104 -61 -167 -173 -167zM256 56c63 0 94 45 94 101c0 58 -42 118 -94 167c-53 -49 -94 -109 -94 -167c0 -56 30 -101 94 -101z" />
    <glyph glyph-name="uni0265" unicode="&#x265;" horiz-adv-x="547" 
d="M382 -205v174l5 106c-47 -52 -96 -87 -163 -87c-103 0 -149 66 -149 190v308h83v-297c0 -91 27 -130 91 -130c50 0 86 24 133 82v345h83v-691h-83z" />
    <glyph glyph-name="uni0266" unicode="&#x266;" horiz-adv-x="544" 
d="M82 0v537c0 111 55 187 169 187c29 0 60 -7 82 -16l-19 -63c-18 8 -38 12 -55 12c-64 0 -93 -45 -95 -121l-3 -126c46 44 95 81 162 81c102 0 148 -66 148 -190v-301h-82v290c0 91 -28 129 -92 129c-50 0 -84 -25 -133 -74v-345h-82z" />
    <glyph glyph-name="uni0267" unicode="&#x267;" horiz-adv-x="544" 
d="M338 -183c-30 0 -55 6 -71 13l16 63c12 -4 29 -9 46 -9c48 0 60 36 60 96v310c0 91 -28 129 -92 129c-50 0 -84 -25 -133 -74v-345h-82v537c0 111 55 187 169 187c29 0 60 -7 82 -16l-19 -63c-18 8 -38 12 -55 12c-64 0 -93 -45 -95 -121l-3 -126c46 44 95 81 162 81
c102 0 148 -66 148 -190v-322c0 -99 -36 -162 -133 -162z" />
    <glyph glyph-name="uni029C" unicode="&#x29c;" horiz-adv-x="562" 
d="M83 0v486h82v-197h234v197h82v-486h-82v216h-234v-216h-82z" />
    <glyph glyph-name="uni0268" unicode="&#x268;" horiz-adv-x="270" 
d="M8 231v43l86 5v207h82v-207h83v-48h-83v-231h-82v231h-86zM136 586c-32 0 -57 22 -57 53c0 32 25 53 57 53s57 -21 57 -53c0 -31 -25 -53 -57 -53z" />
    <glyph glyph-name="uni026A" unicode="&#x26a;" horiz-adv-x="341" 
d="M46 0v67h84v352h-84v67h249v-67h-83v-352h83v-67h-249z" />
    <glyph glyph-name="uni029D" unicode="&#x29d;" horiz-adv-x="284" 
d="M242 -274c-25 46 -50 86 -75 119c-27 -39 -69 -62 -127 -62c-77 0 -124 51 -124 111c0 59 44 100 121 100c27 0 55 -8 83 -23v515h82v-509c0 -23 -2 -44 -6 -64c39 -39 76 -92 110 -157zM39 -152c40 0 62 23 73 55c-26 21 -52 32 -76 32c-35 0 -53 -17 -53 -40
c0 -26 23 -47 56 -47zM161 586c-32 0 -57 22 -57 53c0 32 25 53 57 53s57 -21 57 -53c0 -31 -25 -53 -57 -53z" />
    <glyph glyph-name="uni026C" unicode="&#x26c;" horiz-adv-x="302" 
d="M121 319c-87 0 -127 37 -127 87c0 45 34 79 83 79c24 0 41 -8 54 -20v247h82v-346h83v-47h-83v-227c0 -26 11 -36 23 -36c5 0 9 0 18 2l11 -62c-11 -5 -25 -8 -47 -8c-62 0 -87 39 -87 110v221h-10zM111 366h20v6c0 29 -11 67 -50 67c-24 0 -34 -15 -34 -34
c0 -21 20 -39 64 -39z" />
    <glyph glyph-name="uni026D" unicode="&#x26d;" horiz-adv-x="255" 
d="M205 -183c-90 0 -123 59 -123 155v740h82v-740c0 -55 12 -88 50 -88c14 0 26 5 36 9l17 -63c-14 -7 -36 -13 -62 -13z" />
    <glyph glyph-name="uni026E" unicode="&#x26e;" horiz-adv-x="577" 
d="M352 -217c-97 0 -155 38 -197 78l41 52c35 -32 78 -62 149 -62s130 59 130 149c0 82 -48 132 -134 132c-28 0 -40 -6 -63 -16l-33 45l192 258h-273v-419h-82v712h82v-226h373v-44l-188 -253c129 14 209 -69 209 -187c0 -140 -99 -219 -206 -219z" />
    <glyph glyph-name="uni029F" unicode="&#x29f;" horiz-adv-x="411" 
d="M82 0v486h82v-419h221v-67h-303z" />
    <glyph glyph-name="uni026F" unicode="&#x26f;" horiz-adv-x="829" 
d="M225 -12c-100 0 -148 66 -148 190v308h82v-297c0 -91 29 -130 91 -130c37 0 77 25 121 75v352h83v-297c0 -91 28 -130 90 -130c37 0 77 25 122 75v352h82v-486h-68l-7 70h-2c-43 -45 -94 -82 -152 -82c-74 0 -114 36 -134 93c-50 -55 -101 -93 -160 -93z" />
    <glyph glyph-name="uni0270" unicode="&#x270;" horiz-adv-x="829" 
d="M666 -205v173l4 103c-46 -51 -96 -83 -151 -83c-74 0 -114 36 -134 93c-50 -55 -101 -93 -160 -93c-100 0 -148 66 -148 190v308h82v-297c0 -91 29 -130 91 -130c37 0 77 25 121 75v352h83v-297c0 -91 28 -130 90 -130c37 0 77 25 122 75v352h82v-691h-82z" />
    <glyph glyph-name="uni0271" unicode="&#x271;" horiz-adv-x="829" 
d="M624 -183c-28 0 -52 6 -68 13l16 63c11 -4 27 -9 43 -9c46 0 56 36 56 96v317c0 91 -29 130 -90 130c-38 0 -77 -25 -122 -75v-352h-82v297c0 91 -29 130 -91 130c-36 0 -77 -25 -122 -75v-352h-82v486h68l7 -70h3c42 46 93 82 151 82c74 0 114 -35 134 -93
c51 55 101 93 160 93c100 0 148 -66 148 -190v-329c0 -99 -35 -162 -129 -162z" />
    <glyph glyph-name="uni0272" unicode="&#x272;" horiz-adv-x="547" 
d="M41 -183c-25 0 -48 6 -61 13l16 63c10 -4 22 -9 36 -9c38 0 50 33 50 88v514h70l5 -70h3c46 46 96 82 163 82c102 0 148 -66 148 -190v-308h-82v297c0 91 -28 130 -92 130c-50 0 -84 -26 -133 -75v-380c0 -96 -33 -155 -123 -155z" />
    <glyph glyph-name="uni0273" unicode="&#x273;" horiz-adv-x="547" 
d="M512 -183c-90 0 -123 59 -123 155v325c0 91 -28 130 -92 130c-50 0 -84 -26 -133 -75v-352h-82v486h68l7 -70h3c46 46 96 82 163 82c102 0 148 -66 148 -190v-336c0 -55 12 -88 50 -88c14 0 26 5 36 9l16 -63c-13 -7 -36 -13 -61 -13z" />
    <glyph glyph-name="uni0274" unicode="&#x274;" horiz-adv-x="543" 
d="M82 0v486h78l169 -275c18 -30 40 -74 58 -104h4c-4 63 -8 125 -8 177v202h78v-486h-77l-171 275c-18 29 -40 74 -57 104h-4c4 -63 8 -125 8 -177v-202h-78z" />
    <glyph glyph-name="uni0275" unicode="&#x275;" horiz-adv-x="542" 
d="M271 -12c-121 0 -225 87 -225 254c0 169 104 256 225 256s225 -87 225 -256c0 -167 -104 -254 -225 -254zM271 434c-77 0 -133 -56 -145 -152h291c-12 96 -68 152 -146 152zM271 53c83 0 141 62 147 170h-293c6 -107 64 -170 146 -170z" />
    <glyph glyph-name="uni0276" unicode="&#x276;" horiz-adv-x="699" 
d="M287 -12c-132 0 -241 88 -241 255s109 255 241 255c33 0 62 -2 102 -12h280v-63h-229v-141h192v-59h-192v-160h239v-63h-290c-39 -10 -69 -12 -102 -12zM292 55c20 0 45 6 66 12v351c-21 7 -46 12 -66 12c-89 0 -160 -61 -160 -187c0 -128 71 -188 160 -188z" />
    <glyph glyph-name="uni0278" unicode="&#x278;" horiz-adv-x="680" 
d="M131 244c0 -116 77 -186 171 -190v378c-94 -4 -171 -73 -171 -188zM549 244c0 115 -70 184 -171 188v-378c95 4 171 74 171 190zM302 -205v196c-132 4 -256 94 -256 253c0 158 124 247 256 251v217h76v-217c135 -4 256 -93 256 -251c0 -159 -124 -249 -256 -253v-196h-76
z" />
    <glyph glyph-name="uni0279" unicode="&#x279;" horiz-adv-x="347" 
d="M49 -12c-21 0 -36 3 -52 10l16 72c17 -5 28 -8 47 -8c41 0 90 30 123 112v312h82v-486h-68l-7 89h-2c-34 -62 -84 -101 -139 -101z" />
    <glyph glyph-name="uni027A" unicode="&#x27a;" horiz-adv-x="347" 
d="M49 -12c-21 0 -36 3 -52 10l16 72c17 -5 28 -8 47 -8c41 0 90 30 123 112v538h82v-712h-68l-7 89h-2c-34 -62 -84 -101 -139 -101z" />
    <glyph glyph-name="uni027B" unicode="&#x27b;" horiz-adv-x="347" 
d="M306 -183c-84 0 -116 54 -116 145v127h-2c-34 -62 -84 -101 -139 -101c-21 0 -36 3 -52 10l16 72c17 -5 28 -8 47 -8c41 0 90 30 123 112v312h82v-514c0 -55 12 -88 50 -88c14 0 26 5 36 9l17 -63c-14 -7 -37 -13 -62 -13z" />
    <glyph glyph-name="uni027D" unicode="&#x27d;" horiz-adv-x="347" 
d="M205 -183c-90 0 -123 59 -123 155v514h68l7 -88h3c33 61 83 100 138 100c21 0 36 -3 52 -10l-16 -72c-16 5 -27 8 -47 8c-41 0 -90 -30 -123 -112v-340c0 -55 12 -88 50 -88c14 0 26 5 36 9l17 -63c-14 -7 -36 -13 -62 -13z" />
    <glyph glyph-name="uni027E" unicode="&#x27e;" horiz-adv-x="334" 
d="M82 0v314c0 114 63 184 169 184c36 0 64 -5 85 -14l-15 -69c-22 9 -36 11 -62 11c-49 0 -95 -43 -95 -129v-297h-82z" />
    <glyph glyph-name="uni0280" unicode="&#x280;" horiz-adv-x="495" 
d="M82 0v486h172c105 0 184 -37 184 -144c0 -77 -46 -121 -106 -140l131 -202h-91l-117 192h-91v-192h-82zM164 252h76c73 0 116 31 116 88s-43 82 -116 82h-76v-170z" />
    <glyph glyph-name="uni0281" unicode="&#x281;" horiz-adv-x="495" 
d="M241 0c-105 0 -184 38 -184 145c0 78 46 122 106 141l-131 200h92l116 -189h91v189h82v-486h-172zM255 64h76v173h-76c-72 0 -115 -33 -115 -90s43 -83 115 -83z" />
    <glyph glyph-name="uni0282" unicode="&#x282;" horiz-adv-x="419" 
d="M209 -12c-37 0 -74 7 -107 20v-28c0 -60 12 -97 61 -97c17 0 33 4 46 8l16 -61c-17 -7 -41 -13 -71 -13c-91 0 -126 63 -126 162v69l41 54c42 -31 85 -50 143 -50c64 0 96 34 96 76c0 50 -58 72 -111 92c-69 25 -145 58 -145 140c0 78 62 138 167 138
c61 0 114 -25 151 -55l-39 -52c-33 25 -68 43 -111 43c-61 0 -89 -33 -89 -70c0 -46 53 -63 108 -84c70 -26 148 -55 148 -147c0 -79 -63 -145 -178 -145z" />
    <glyph glyph-name="uni0283" unicode="&#x283;" horiz-adv-x="247" 
d="M32 -217c-30 0 -55 6 -72 13l17 62c12 -4 29 -8 46 -8c48 0 60 36 60 95v619c0 99 39 162 143 162c26 0 46 -6 61 -13l-16 -63c-10 4 -22 9 -36 9c-56 0 -70 -37 -70 -96v-618c0 -99 -36 -162 -133 -162z" />
    <glyph glyph-name="uni0284" unicode="&#x284;" horiz-adv-x="270" 
d="M43 -217c-30 0 -55 6 -72 13l17 62c12 -4 29 -8 46 -8c48 0 60 36 60 95v286h-86v43l86 5v285c0 99 39 162 143 162c26 0 46 -6 61 -13l-16 -63c-10 4 -22 9 -36 9c-56 0 -70 -37 -70 -96v-284h83v-48h-83v-286c0 -99 -36 -162 -133 -162z" />
    <glyph glyph-name="uni0288" unicode="&#x288;" horiz-adv-x="338" 
d="M235 -184c-104 0 -139 65 -139 162v441h-72v62l76 5l10 136h69v-136h131v-67h-131v-442c0 -60 19 -94 75 -94c17 0 39 6 55 13l16 -62c-27 -9 -60 -18 -90 -18z" />
    <glyph glyph-name="uni0289" unicode="&#x289;" horiz-adv-x="575" 
d="M8 262v43l86 5v176h83v-176h222v176h82v-176h82v-48h-82v-262h-68l-7 76h-3c-45 -53 -93 -88 -160 -88c-103 0 -149 66 -149 190v84h-86zM268 59c50 0 85 25 131 82v121h-222v-73c0 -91 27 -130 91 -130z" />
    <glyph glyph-name="uni028A" unicode="&#x28a;" horiz-adv-x="541" 
d="M271 -12c-142 0 -222 108 -222 221c0 99 44 168 86 208v2h-98v67h186v-53c-54 -45 -91 -110 -91 -206c0 -92 47 -171 139 -171c91 0 138 79 138 171c0 96 -37 161 -90 206v53h185v-67h-98v-2c42 -40 87 -109 87 -208c0 -113 -81 -221 -222 -221z" />
    <glyph glyph-name="uni028B" unicode="&#x28b;" horiz-adv-x="530" 
d="M262 -12c-108 0 -187 66 -187 214v284h83v-277c0 -110 47 -153 107 -153c83 0 130 94 130 218c0 103 -25 158 -79 158c-9 0 -18 -2 -28 -6l-13 64c17 6 34 8 58 8c90 0 147 -67 147 -212c0 -171 -75 -298 -218 -298z" />
    <glyph glyph-name="uni028C" unicode="&#x28c;" horiz-adv-x="467" 
d="M12 0l172 486h96l175 -486h-85l-92 276c-14 48 -30 97 -45 144h-4c-14 -47 -30 -96 -45 -144l-91 -276h-81z" />
    <glyph glyph-name="uni028D" unicode="&#x28d;" horiz-adv-x="718" 
d="M24 0l130 486h101l70 -261c11 -46 21 -91 33 -140h4c10 49 20 95 33 141l68 260h96l135 -486h-84l-72 281c-10 46 -19 90 -29 135h-4c-10 -45 -21 -90 -33 -135l-75 -281h-80l-76 281c-12 46 -22 90 -34 135h-4c-10 -45 -19 -89 -30 -135l-71 -281h-78z" />
    <glyph glyph-name="uni028E" unicode="&#x28e;" horiz-adv-x="467" 
d="M12 0l194 555c34 96 84 169 182 169c22 0 41 -4 57 -10l-16 -65c-10 3 -25 7 -37 7c-55 0 -90 -44 -110 -104l-22 -65l195 -487h-84l-100 269c-15 42 -31 92 -47 137h-4c-14 -44 -28 -94 -41 -137l-86 -269h-81z" />
    <glyph glyph-name="uni028F" unicode="&#x28f;" horiz-adv-x="415" 
d="M167 0v164l-168 322h88l66 -138c17 -38 35 -73 54 -112h4c18 39 35 74 52 112l66 138h87l-167 -322v-164h-82z" />
    <glyph glyph-name="uni0290" unicode="&#x290;" horiz-adv-x="425" 
d="M431 -183c-89 0 -124 59 -124 147v36h-276v44l256 375h-228v67h332v-44l-256 -375h254v-95c0 -55 12 -88 51 -88c13 0 26 5 36 9l16 -63c-14 -7 -36 -13 -61 -13z" />
    <glyph glyph-name="uni0291" unicode="&#x291;" horiz-adv-x="449" 
d="M238 -81l-48 10c5 25 11 49 18 71h-177v44l256 375h-228v67h327v-44l-255 -375c33 -1 65 -2 98 -3c37 94 85 148 143 148c57 0 91 -33 91 -92c0 -66 -49 -120 -155 -120h-51c-7 -24 -13 -51 -19 -81zM329 63c53 0 82 29 82 59c0 23 -12 40 -41 40c-30 0 -63 -31 -91 -99
h50z" />
    <glyph glyph-name="uni0292" unicode="&#x292;" horiz-adv-x="425" 
d="M200 -217c-97 0 -155 38 -197 78l41 52c35 -32 78 -62 149 -62s130 59 130 149c0 82 -48 132 -134 132c-28 0 -40 -6 -63 -16l-33 45l192 258h-241v67h341v-44l-188 -253c129 14 209 -69 209 -187c0 -140 -99 -219 -206 -219z" />
    <glyph glyph-name="uni0294" unicode="&#x294;" horiz-adv-x="417" 
d="M146 0v324c116 67 168 122 168 206c0 77 -46 126 -126 126c-68 0 -113 -35 -146 -73l-44 54c41 44 102 87 196 87c113 0 203 -65 203 -192c0 -114 -71 -179 -169 -245v-287h-82z" />
    <glyph glyph-name="uni0295" unicode="&#x295;" horiz-adv-x="443" 
d="M200 0v287c-98 66 -169 131 -169 245c0 127 95 192 213 192c89 0 147 -43 186 -87l-44 -54c-31 38 -73 73 -136 73c-86 0 -136 -49 -136 -126c0 -84 52 -139 168 -206v-324h-82z" />
    <glyph glyph-name="uni02A1" unicode="&#x2a1;" horiz-adv-x="441" 
d="M158 0v257h-151v62l76 5h89c107 67 156 132 156 206c0 77 -45 126 -125 126c-68 0 -113 -35 -146 -73l-44 54c41 44 101 87 196 87c113 0 203 -65 203 -192c0 -85 -57 -152 -134 -208h144v-67h-182v-257h-82z" />
    <glyph glyph-name="uni02A2" unicode="&#x2a2;" horiz-adv-x="441" 
d="M200 0v257h-181v67h144c-77 56 -134 123 -134 208c0 127 94 192 213 192c89 0 146 -43 186 -87l-44 -54c-31 38 -73 73 -136 73c-86 0 -136 -49 -136 -126c0 -74 50 -139 157 -206h89l76 -5v-62h-152v-257h-82z" />
    <glyph glyph-name="uni01C2" unicode="&#x1c2;" horiz-adv-x="288" 
d="M6 331v43l77 4h37v372h58v-372h103v-47h-103v-123h103v-47h-103v-411h-58v411h-114v42l77 5h37v123h-114z" />
    <glyph glyph-name="uni0298" unicode="&#x298;" horiz-adv-x="525" 
d="M263 -12c-125 0 -204 114 -204 371c0 238 79 365 204 365c124 0 203 -127 203 -365c0 -257 -79 -371 -203 -371zM263 56c70 0 125 80 125 303c0 204 -55 297 -125 297c-71 0 -126 -93 -126 -297c0 -223 55 -303 126 -303zM263 312c-26 0 -48 21 -48 47c0 28 22 47 48 47
c25 0 47 -19 47 -47c0 -26 -22 -47 -47 -47z" />
    <glyph glyph-name="f_f_i" unicode="&#xfb03;" horiz-adv-x="823" 
d="M381 0v419h-203v-419h-82v419h-66v62l66 5v64c0 101 50 164 151 164c32 0 65 -7 89 -18l-17 -62c-21 9 -41 13 -65 13c-48 0 -76 -35 -76 -99v-62h203v77c0 99 45 161 142 161c30 0 59 -7 81 -16l-18 -63c-18 8 -37 12 -55 12c-46 0 -68 -32 -68 -94v-77h103v-67h-103
v-419h-82zM659 0v486h82v-486h-82zM701 586c-32 0 -57 22 -57 53c0 32 25 53 57 53s57 -21 57 -53c0 -31 -25 -53 -57 -53z" />
    <glyph glyph-name="f_f_l" unicode="&#xfb04;" horiz-adv-x="832" 
d="M381 0v419h-203v-419h-82v419h-66v62l66 5v64c0 101 50 164 151 164c32 0 65 -7 89 -18l-17 -62c-21 9 -41 13 -65 13c-48 0 -76 -35 -76 -99v-62h203v77c0 99 45 161 142 161c30 0 59 -7 81 -16l-18 -63c-18 8 -37 12 -55 12c-46 0 -68 -32 -68 -94v-77h103v-67h-103
v-419h-82zM746 -12c-62 0 -87 39 -87 110v614h82v-620c0 -26 11 -36 23 -36c5 0 9 0 18 2l11 -62c-11 -5 -25 -8 -47 -8z" />
    <glyph glyph-name="I.a" horiz-adv-x="343" 
d="M46 0v71h84v515h-84v70h250v-70h-83v-515h83v-71h-250z" />
    <glyph glyph-name="Igrave.a" horiz-adv-x="343" 
d="M46 0v71h84v515h-84v70h250v-70h-83v-515h83v-71h-250zM189 697l-152 115l47 55l142 -128z" />
    <glyph glyph-name="Iacute.a" horiz-adv-x="343" 
d="M46 0v71h84v515h-84v70h250v-70h-83v-515h83v-71h-250zM155 697l-37 42l142 128l47 -55z" />
    <glyph glyph-name="Icircumflex.a" horiz-adv-x="343" 
d="M46 0v71h84v515h-84v70h250v-70h-83v-515h83v-71h-250zM24 725l105 113h86l105 -113l-36 -26l-110 93h-4l-110 -93z" />
    <glyph glyph-name="Itilde.a" horiz-adv-x="343" 
d="M46 0v71h84v515h-84v70h250v-70h-83v-515h83v-71h-250zM247 709c-75 0 -101 71 -148 71c-25 0 -44 -23 -48 -66l-56 4c4 76 42 123 102 123c75 0 101 -71 148 -71c25 0 43 23 48 66l56 -4c-4 -77 -42 -123 -102 -123z" />
    <glyph glyph-name="Idieresis.a" horiz-adv-x="343" 
d="M46 0v71h84v515h-84v70h250v-70h-83v-515h83v-71h-250zM69 715c-28 0 -49 21 -49 49c0 29 21 49 49 49c29 0 49 -20 49 -49c0 -28 -20 -49 -49 -49zM275 715c-29 0 -49 21 -49 49c0 29 20 49 49 49c28 0 49 -20 49 -49c0 -28 -21 -49 -49 -49z" />
    <glyph glyph-name="Imacron.a" horiz-adv-x="343" 
d="M46 0v71h84v515h-84v70h250v-70h-83v-515h83v-71h-250zM38 735v57h268v-57h-268z" />
    <glyph glyph-name="Idotaccent.a" horiz-adv-x="343" 
d="M46 0v71h84v515h-84v70h250v-70h-83v-515h83v-71h-250zM172 714c-32 0 -57 22 -57 54c0 31 25 53 57 53s57 -22 57 -53c0 -32 -25 -54 -57 -54z" />
    <glyph glyph-name="uni01CF.a" horiz-adv-x="343" 
d="M46 0v71h84v515h-84v70h250v-70h-83v-515h83v-71h-250zM129 706l-105 113l36 26l110 -92h4l110 92l36 -26l-105 -113h-86z" />
    <glyph glyph-name="uni1EC8.a" horiz-adv-x="343" 
d="M46 0v71h84v515h-84v70h250v-70h-83v-515h83v-71h-250zM140 698l-9 38c32 9 56 21 56 46c0 26 -27 40 -83 42l9 48c87 -3 138 -30 138 -81c0 -58 -53 -83 -111 -93z" />
    <glyph glyph-name="uni1ECA.a" horiz-adv-x="343" 
d="M46 0v71h84v515h-84v70h250v-70h-83v-515h83v-71h-250zM173 -206c-31 0 -54 22 -54 54c0 31 23 54 54 54s54 -23 54 -54c0 -32 -23 -54 -54 -54z" />
    <glyph glyph-name="Iogonek.a" horiz-adv-x="343" 
d="M177 -212c-52 0 -95 30 -95 87c0 54 36 99 68 125h-104v71h84v515h-84v70h250v-70h-83v-515h83v-71h-87c-39 -31 -63 -69 -63 -107c0 -31 24 -46 48 -46c16 0 28 5 40 14l23 -45c-19 -15 -53 -28 -80 -28z" />
    <glyph glyph-name="uni012C.a" horiz-adv-x="343" 
d="M46 0v71h84v515h-84v70h250v-70h-83v-515h83v-71h-250zM172 705c-93 0 -138 59 -146 129l50 8c8 -47 39 -84 96 -84s88 37 96 84l50 -8c-8 -70 -53 -129 -146 -129z" />
    <glyph glyph-name="uni014A.a" horiz-adv-x="647" 
d="M425 -165c-29 0 -54 6 -71 12l16 66c13 -4 29 -9 46 -9c49 0 60 38 60 96h-5l-238 413l-71 135h-4c5 -66 11 -136 11 -205v-343h-79v656h86l237 -412l71 -136h4c-4 66 -10 140 -10 209v339h79v-659c0 -100 -38 -162 -132 -162z" />
    <glyph glyph-name="a.a" horiz-adv-x="555" 
d="M248 -12c-122 0 -201 92 -201 254c0 158 101 256 212 256c54 0 94 -20 138 -59h2l7 47h67v-486h-68l-7 57h-3c-38 -37 -90 -69 -147 -69zM266 57c45 0 84 22 124 67v254c-41 37 -78 51 -118 51c-78 0 -140 -75 -140 -186c0 -116 49 -186 134 -186z" />
    <glyph glyph-name="agrave.a" horiz-adv-x="555" 
d="M248 -12c-122 0 -201 92 -201 254c0 158 101 256 212 256c54 0 94 -20 138 -59h2l7 47h67v-486h-68l-7 57h-3c-38 -37 -90 -69 -147 -69zM266 57c45 0 84 22 124 67v254c-41 37 -78 51 -118 51c-78 0 -140 -75 -140 -186c0 -116 49 -186 134 -186zM297 573l-157 153
l58 55l141 -167z" />
    <glyph glyph-name="aacute.a" horiz-adv-x="555" 
d="M248 -12c-122 0 -201 92 -201 254c0 158 101 256 212 256c54 0 94 -20 138 -59h2l7 47h67v-486h-68l-7 57h-3c-38 -37 -90 -69 -147 -69zM266 57c45 0 84 22 124 67v254c-41 37 -78 51 -118 51c-78 0 -140 -75 -140 -186c0 -116 49 -186 134 -186zM269 573l-42 41
l141 167l58 -55z" />
    <glyph glyph-name="acircumflex.a" horiz-adv-x="555" 
d="M248 -12c-122 0 -201 92 -201 254c0 158 101 256 212 256c54 0 94 -20 138 -59h2l7 47h67v-486h-68l-7 57h-3c-38 -37 -90 -69 -147 -69zM266 57c45 0 84 22 124 67v254c-41 37 -78 51 -118 51c-78 0 -140 -75 -140 -186c0 -116 49 -186 134 -186zM128 600l114 140h82
l114 -140l-35 -32l-118 113h-4l-118 -113z" />
    <glyph glyph-name="atilde.a" horiz-adv-x="555" 
d="M248 -12c-122 0 -201 92 -201 254c0 158 101 256 212 256c54 0 94 -20 138 -59h2l7 47h67v-486h-68l-7 57h-3c-38 -37 -90 -69 -147 -69zM266 57c45 0 84 22 124 67v254c-41 37 -78 51 -118 51c-78 0 -140 -75 -140 -186c0 -116 49 -186 134 -186zM355 577
c-71 0 -97 84 -143 84c-30 0 -44 -32 -47 -79l-55 3c3 78 32 136 101 136c71 0 97 -84 144 -84c29 0 43 33 46 79l55 -4c-3 -77 -32 -135 -101 -135z" />
    <glyph glyph-name="adieresis.a" horiz-adv-x="555" 
d="M248 -12c-122 0 -201 92 -201 254c0 158 101 256 212 256c54 0 94 -20 138 -59h2l7 47h67v-486h-68l-7 57h-3c-38 -37 -90 -69 -147 -69zM266 57c45 0 84 22 124 67v254c-41 37 -78 51 -118 51c-78 0 -140 -75 -140 -186c0 -116 49 -186 134 -186zM187 587
c-29 0 -50 22 -50 50s21 50 50 50c28 0 49 -22 49 -50s-21 -50 -49 -50zM379 587c-28 0 -49 22 -49 50s21 50 49 50c29 0 50 -22 50 -50s-21 -50 -50 -50z" />
    <glyph glyph-name="amacron.a" horiz-adv-x="555" 
d="M248 -12c-122 0 -201 92 -201 254c0 158 101 256 212 256c54 0 94 -20 138 -59h2l7 47h67v-486h-68l-7 57h-3c-38 -37 -90 -69 -147 -69zM266 57c45 0 84 22 124 67v254c-41 37 -78 51 -118 51c-78 0 -140 -75 -140 -186c0 -116 49 -186 134 -186zM150 601v57h266v-57
h-266z" />
    <glyph glyph-name="abreve.a" horiz-adv-x="555" 
d="M248 -12c-122 0 -201 92 -201 254c0 158 101 256 212 256c54 0 94 -20 138 -59h2l7 47h67v-486h-68l-7 57h-3c-38 -37 -90 -69 -147 -69zM266 57c45 0 84 22 124 67v254c-41 37 -78 51 -118 51c-78 0 -140 -75 -140 -186c0 -116 49 -186 134 -186zM283 571
c-107 0 -151 77 -156 151l51 8c8 -51 40 -104 105 -104s97 53 105 104l51 -8c-5 -74 -49 -151 -156 -151z" />
    <glyph glyph-name="aring.a" horiz-adv-x="555" 
d="M248 -12c-122 0 -201 92 -201 254c0 158 101 256 212 256c54 0 94 -20 138 -59h2l7 47h67v-486h-68l-7 57h-3c-38 -37 -90 -69 -147 -69zM266 57c45 0 84 22 124 67v254c-41 37 -78 51 -118 51c-78 0 -140 -75 -140 -186c0 -116 49 -186 134 -186zM283 554
c-67 0 -110 42 -110 99c0 56 43 98 110 98s110 -42 110 -98c0 -57 -43 -99 -110 -99zM283 591c32 0 57 24 57 62c0 37 -25 61 -57 61s-57 -24 -57 -61c0 -38 25 -62 57 -62z" />
    <glyph glyph-name="uni01CE.a" horiz-adv-x="555" 
d="M248 -12c-122 0 -201 92 -201 254c0 158 101 256 212 256c54 0 94 -20 138 -59h2l7 47h67v-486h-68l-7 57h-3c-38 -37 -90 -69 -147 -69zM266 57c45 0 84 22 124 67v254c-41 37 -78 51 -118 51c-78 0 -140 -75 -140 -186c0 -116 49 -186 134 -186zM242 574l-114 140
l35 32l118 -113h4l118 113l35 -32l-114 -140h-82z" />
    <glyph glyph-name="uni1EA1.a" horiz-adv-x="555" 
d="M248 -12c-122 0 -201 92 -201 254c0 158 101 256 212 256c54 0 94 -20 138 -59h2l7 47h67v-486h-68l-7 57h-3c-38 -37 -90 -69 -147 -69zM266 57c45 0 84 22 124 67v254c-41 37 -78 51 -118 51c-78 0 -140 -75 -140 -186c0 -116 49 -186 134 -186zM284 -206
c-31 0 -54 22 -54 54c0 31 23 54 54 54s54 -23 54 -54c0 -32 -23 -54 -54 -54z" />
    <glyph glyph-name="uni1EA3.a" horiz-adv-x="555" 
d="M248 -12c-122 0 -201 92 -201 254c0 158 101 256 212 256c54 0 94 -20 138 -59h2l7 47h67v-486h-68l-7 57h-3c-38 -37 -90 -69 -147 -69zM266 57c45 0 84 22 124 67v254c-41 37 -78 51 -118 51c-78 0 -140 -75 -140 -186c0 -116 49 -186 134 -186zM251 572l-9 40
c32 8 56 21 56 47c0 29 -27 44 -83 47l5 54c91 -2 143 -35 143 -94c0 -58 -54 -83 -112 -94z" />
    <glyph glyph-name="uni1EA5.a" horiz-adv-x="555" 
d="M248 -12c-122 0 -201 92 -201 254c0 158 101 256 212 256c54 0 94 -20 138 -59h2l7 47h67v-486h-68l-7 57h-3c-38 -37 -90 -69 -147 -69zM266 57c45 0 84 22 124 67v254c-41 37 -78 51 -118 51c-78 0 -140 -75 -140 -186c0 -116 49 -186 134 -186zM178 570l-29 34l100 92
h68l100 -92l-29 -34l-103 72h-4zM382 665l87 120l49 -34l-101 -114z" />
    <glyph glyph-name="uni1EA7.a" horiz-adv-x="555" 
d="M248 -12c-122 0 -201 92 -201 254c0 158 101 256 212 256c54 0 94 -20 138 -59h2l7 47h67v-486h-68l-7 57h-3c-38 -37 -90 -69 -147 -69zM266 57c45 0 84 22 124 67v254c-41 37 -78 51 -118 51c-78 0 -140 -75 -140 -186c0 -116 49 -186 134 -186zM178 570l-29 34l100 92
h68l100 -92l-29 -34l-103 72h-4zM184 668l-35 -31l-113 112l48 36z" />
    <glyph glyph-name="uni1EA9.a" horiz-adv-x="555" 
d="M248 -12c-122 0 -201 92 -201 254c0 158 101 256 212 256c54 0 94 -20 138 -59h2l7 47h67v-486h-68l-7 57h-3c-38 -37 -90 -69 -147 -69zM266 57c45 0 84 22 124 67v254c-41 37 -78 51 -118 51c-78 0 -140 -75 -140 -186c0 -116 49 -186 134 -186zM178 570l-29 34l100 92
h68l100 -92l-29 -34l-103 72h-4zM399 635l-9 35c25 7 42 18 42 39c0 26 -20 39 -69 41l7 41c78 -2 122 -26 122 -73c0 -53 -46 -72 -93 -83z" />
    <glyph glyph-name="uni1EAB.a" horiz-adv-x="555" 
d="M248 -12c-122 0 -201 92 -201 254c0 158 101 256 212 256c54 0 94 -20 138 -59h2l7 47h67v-486h-68l-7 57h-3c-38 -37 -90 -69 -147 -69zM266 57c45 0 84 22 124 67v254c-41 37 -78 51 -118 51c-78 0 -140 -75 -140 -186c0 -116 49 -186 134 -186zM178 570l-29 34l100 88
h68l100 -88l-29 -34l-103 69h-4zM146 714c5 52 25 89 72 89c59 0 88 -42 126 -42c20 0 28 13 33 42l43 -4c-5 -51 -25 -89 -72 -89c-58 0 -88 42 -126 42c-20 0 -28 -13 -33 -42z" />
    <glyph glyph-name="uni1EAD.a" horiz-adv-x="555" 
d="M248 -12c-122 0 -201 92 -201 254c0 158 101 256 212 256c54 0 94 -20 138 -59h2l7 47h67v-486h-68l-7 57h-3c-38 -37 -90 -69 -147 -69zM266 57c45 0 84 22 124 67v254c-41 37 -78 51 -118 51c-78 0 -140 -75 -140 -186c0 -116 49 -186 134 -186zM128 600l114 140h82
l114 -140l-35 -32l-118 113h-4l-118 -113zM284 -206c-31 0 -54 22 -54 54c0 31 23 54 54 54s54 -23 54 -54c0 -32 -23 -54 -54 -54z" />
    <glyph glyph-name="uni1EAF.a" horiz-adv-x="555" 
d="M248 -12c-122 0 -201 92 -201 254c0 158 101 256 212 256c54 0 94 -20 138 -59h2l7 47h67v-486h-68l-7 57h-3c-38 -37 -90 -69 -147 -69zM266 57c45 0 84 22 124 67v254c-41 37 -78 51 -118 51c-78 0 -140 -75 -140 -186c0 -116 49 -186 134 -186zM278 679l-39 29l88 124
l52 -40zM283 571c-107 0 -151 77 -156 151l48 8c7 -53 41 -108 108 -108s101 55 108 108l48 -8c-5 -74 -49 -151 -156 -151z" />
    <glyph glyph-name="uni1EB1.a" horiz-adv-x="555" 
d="M248 -12c-122 0 -201 92 -201 254c0 158 101 256 212 256c54 0 94 -20 138 -59h2l7 47h67v-486h-68l-7 57h-3c-38 -37 -90 -69 -147 -69zM266 57c45 0 84 22 124 67v254c-41 37 -78 51 -118 51c-78 0 -140 -75 -140 -186c0 -116 49 -186 134 -186zM288 679l-101 113
l52 40l88 -124zM283 571c-107 0 -151 77 -156 151l48 8c7 -53 41 -108 108 -108s101 55 108 108l48 -8c-5 -74 -49 -151 -156 -151z" />
    <glyph glyph-name="uni1EB3.a" horiz-adv-x="555" 
d="M248 -12c-122 0 -201 92 -201 254c0 158 101 256 212 256c54 0 94 -20 138 -59h2l7 47h67v-486h-68l-7 57h-3c-38 -37 -90 -69 -147 -69zM266 57c45 0 84 22 124 67v254c-41 37 -78 51 -118 51c-78 0 -140 -75 -140 -186c0 -116 49 -186 134 -186zM256 682l-8 36
c28 6 48 18 48 39c0 26 -22 39 -76 41l7 50c81 -2 129 -29 129 -82c0 -54 -50 -76 -100 -84zM283 571c-107 0 -151 77 -156 151l48 8c7 -53 41 -108 108 -108s101 55 108 108l48 -8c-5 -74 -49 -151 -156 -151z" />
    <glyph glyph-name="uni1EB5.a" horiz-adv-x="555" 
d="M248 -12c-122 0 -201 92 -201 254c0 158 101 256 212 256c54 0 94 -20 138 -59h2l7 47h67v-486h-68l-7 57h-3c-38 -37 -90 -69 -147 -69zM266 57c45 0 84 22 124 67v254c-41 37 -78 51 -118 51c-78 0 -140 -75 -140 -186c0 -116 49 -186 134 -186zM283 571
c-98 0 -138 56 -144 107l47 8c5 -33 35 -68 97 -68s92 35 97 68l47 -8c-6 -51 -46 -107 -144 -107zM142 714c5 51 27 88 76 88c59 0 88 -42 126 -42c20 0 28 14 33 42l47 -4c-5 -51 -27 -88 -76 -88c-58 0 -88 42 -126 42c-20 0 -28 -14 -33 -43z" />
    <glyph glyph-name="uni1EB7.a" horiz-adv-x="555" 
d="M248 -12c-122 0 -201 92 -201 254c0 158 101 256 212 256c54 0 94 -20 138 -59h2l7 47h67v-486h-68l-7 57h-3c-38 -37 -90 -69 -147 -69zM266 57c45 0 84 22 124 67v254c-41 37 -78 51 -118 51c-78 0 -140 -75 -140 -186c0 -116 49 -186 134 -186zM283 571
c-107 0 -151 77 -156 151l51 8c8 -51 40 -104 105 -104s97 53 105 104l51 -8c-5 -74 -49 -151 -156 -151zM284 -206c-31 0 -54 22 -54 54c0 31 23 54 54 54s54 -23 54 -54c0 -32 -23 -54 -54 -54z" />
    <glyph glyph-name="aogonek.a" horiz-adv-x="555" 
d="M416 -206c-51 0 -91 29 -91 85c0 54 38 94 80 125l-7 53h-3c-38 -37 -90 -69 -147 -69c-122 0 -201 92 -201 254c0 158 101 256 212 256c54 0 94 -20 138 -59h2l7 47h67v-486c-59 -29 -87 -66 -87 -105c0 -31 22 -46 46 -46c16 0 29 5 41 13l21 -41
c-19 -15 -53 -27 -78 -27zM266 57c45 0 84 22 124 67v254c-41 37 -78 51 -118 51c-78 0 -140 -75 -140 -186c0 -116 49 -186 134 -186z" />
    <glyph glyph-name="g.a" horiz-adv-x="559" 
d="M259 -216c-60 0 -123 19 -174 53l30 58c48 -32 98 -45 144 -45c89 0 131 50 134 128l1 92c-37 -36 -87 -65 -144 -65c-122 0 -200 92 -200 245c0 152 101 248 211 248c55 0 95 -20 136 -57h2l7 45h69v-510c0 -120 -78 -192 -216 -192zM268 73c45 0 83 22 125 67v238
c-42 37 -79 51 -119 51c-78 0 -140 -74 -140 -178c0 -109 49 -178 134 -178z" />
    <glyph glyph-name="uni01F5.a" horiz-adv-x="559" 
d="M259 -216c-60 0 -123 19 -174 53l30 58c48 -32 98 -45 144 -45c89 0 131 50 134 128l1 92c-37 -36 -87 -65 -144 -65c-122 0 -200 92 -200 245c0 152 101 248 211 248c55 0 95 -20 136 -57h2l7 45h69v-510c0 -120 -78 -192 -216 -192zM268 73c45 0 83 22 125 67v238
c-42 37 -79 51 -119 51c-78 0 -140 -74 -140 -178c0 -109 49 -178 134 -178zM273 573l-42 41l141 167l58 -55z" />
    <glyph glyph-name="gcircumflex.a" horiz-adv-x="559" 
d="M259 -216c-60 0 -123 19 -174 53l30 58c48 -32 98 -45 144 -45c89 0 131 50 134 128l1 92c-37 -36 -87 -65 -144 -65c-122 0 -200 92 -200 245c0 152 101 248 211 248c55 0 95 -20 136 -57h2l7 45h69v-510c0 -120 -78 -192 -216 -192zM268 73c45 0 83 22 125 67v238
c-42 37 -79 51 -119 51c-78 0 -140 -74 -140 -178c0 -109 49 -178 134 -178zM133 600l114 140h82l114 -140l-35 -32l-118 113h-4l-118 -113z" />
    <glyph glyph-name="gbreve.a" horiz-adv-x="559" 
d="M259 -216c-60 0 -123 19 -174 53l30 58c48 -32 98 -45 144 -45c89 0 131 50 134 128l1 92c-37 -36 -87 -65 -144 -65c-122 0 -200 92 -200 245c0 152 101 248 211 248c55 0 95 -20 136 -57h2l7 45h69v-510c0 -120 -78 -192 -216 -192zM268 73c45 0 83 22 125 67v238
c-42 37 -79 51 -119 51c-78 0 -140 -74 -140 -178c0 -109 49 -178 134 -178zM288 571c-107 0 -151 77 -156 151l51 8c8 -51 40 -104 105 -104s97 53 105 104l51 -8c-5 -74 -49 -151 -156 -151z" />
    <glyph glyph-name="gdotaccent.a" horiz-adv-x="559" 
d="M259 -216c-60 0 -123 19 -174 53l30 58c48 -32 98 -45 144 -45c89 0 131 50 134 128l1 92c-37 -36 -87 -65 -144 -65c-122 0 -200 92 -200 245c0 152 101 248 211 248c55 0 95 -20 136 -57h2l7 45h69v-510c0 -120 -78 -192 -216 -192zM268 73c45 0 83 22 125 67v238
c-42 37 -79 51 -119 51c-78 0 -140 -74 -140 -178c0 -109 49 -178 134 -178zM288 586c-31 0 -54 22 -54 54c0 31 23 54 54 54s54 -23 54 -54c0 -32 -23 -54 -54 -54z" />
    <glyph glyph-name="uni0123.a" horiz-adv-x="559" 
d="M259 -216c-60 0 -123 19 -174 53l30 58c48 -32 98 -45 144 -45c89 0 131 50 134 128l1 92c-37 -36 -87 -65 -144 -65c-122 0 -200 92 -200 245c0 152 101 248 211 248c55 0 95 -20 136 -57h2l7 45h69v-510c0 -120 -78 -192 -216 -192zM268 73c45 0 83 22 125 67v238
c-42 37 -79 51 -119 51c-78 0 -140 -74 -140 -178c0 -109 49 -178 134 -178zM327 575c-87 10 -117 32 -117 77c0 58 59 86 165 92l8 -41c-84 -5 -109 -20 -109 -48c0 -26 25 -38 71 -42z" />
    <glyph glyph-name="gcaron.a" horiz-adv-x="559" 
d="M259 -216c-60 0 -123 19 -174 53l30 58c48 -32 98 -45 144 -45c89 0 131 50 134 128l1 92c-37 -36 -87 -65 -144 -65c-122 0 -200 92 -200 245c0 152 101 248 211 248c55 0 95 -20 136 -57h2l7 45h69v-510c0 -120 -78 -192 -216 -192zM268 73c45 0 83 22 125 67v238
c-42 37 -79 51 -119 51c-78 0 -140 -74 -140 -178c0 -109 49 -178 134 -178zM247 574l-114 140l35 32l118 -113h4l118 113l35 -32l-114 -140h-82z" />
    <glyph glyph-name="uni1E21.a" horiz-adv-x="559" 
d="M259 -216c-60 0 -123 19 -174 53l30 58c48 -32 98 -45 144 -45c89 0 131 50 134 128l1 92c-37 -36 -87 -65 -144 -65c-122 0 -200 92 -200 245c0 152 101 248 211 248c55 0 95 -20 136 -57h2l7 45h69v-510c0 -120 -78 -192 -216 -192zM268 73c45 0 83 22 125 67v238
c-42 37 -79 51 -119 51c-78 0 -140 -74 -140 -178c0 -109 49 -178 134 -178zM155 601v57h266v-57h-266z" />
    <glyph glyph-name="uni00670303.a" horiz-adv-x="559" 
d="M259 -216c-60 0 -123 19 -174 53l30 58c48 -32 98 -45 144 -45c89 0 131 50 134 128l1 92c-37 -36 -87 -65 -144 -65c-122 0 -200 92 -200 245c0 152 101 248 211 248c55 0 95 -20 136 -57h2l7 45h69v-510c0 -120 -78 -192 -216 -192zM268 73c45 0 83 22 125 67v238
c-42 37 -79 51 -119 51c-78 0 -140 -74 -140 -178c0 -109 49 -178 134 -178zM360 577c-71 0 -97 84 -143 84c-30 0 -44 -32 -47 -79l-55 3c3 78 32 136 101 136c71 0 97 -84 144 -84c29 0 43 33 46 79l55 -4c-3 -77 -32 -135 -101 -135z" />
    <glyph glyph-name="l.a" horiz-adv-x="246" 
d="M82 0v712h82v-712h-82z" />
    <glyph glyph-name="lacute.a" horiz-adv-x="246" 
d="M82 0v712h82v-712h-82zM104 749l-37 42l142 128l47 -55z" />
    <glyph glyph-name="lcaron.a" horiz-adv-x="265" 
d="M82 0v712h82v-712h-82zM221 548l-4 212h59l-1 -57l-14 -155h-40z" />
    <glyph glyph-name="ldot.a" horiz-adv-x="362" 
d="M82 0v712h82v-712h-82zM304 263c-33 0 -60 26 -60 62c0 38 27 64 60 64c32 0 59 -26 59 -64c0 -36 -27 -62 -59 -62z" />
    <glyph glyph-name="uni013C.a" horiz-adv-x="246" 
d="M82 0v712h82v-712h-82zM36 -226l-8 40c84 6 109 21 109 48c0 26 -25 38 -71 42l18 38c87 -10 117 -32 117 -77c0 -58 -59 -86 -165 -91z" />
    <glyph glyph-name="uni1E37.a" horiz-adv-x="246" 
d="M82 0v712h82v-712h-82zM123 -206c-31 0 -54 22 -54 54c0 31 23 54 54 54s54 -23 54 -54c0 -32 -23 -54 -54 -54z" />
    <glyph glyph-name="uni1E39.a" horiz-adv-x="246" 
d="M82 0v712h82v-712h-82zM-10 822v57h266v-57h-266zM123 -206c-31 0 -54 22 -54 54c0 31 23 54 54 54s54 -23 54 -54c0 -32 -23 -54 -54 -54z" />
    <glyph glyph-name="uni1E3B.a" horiz-adv-x="246" 
d="M82 0v712h82v-712h-82zM-10 -170v57h266v-57h-266z" />
    <glyph glyph-name="lslash.a" horiz-adv-x="257" 
d="M29 295l-30 53l87 53v311h82v-268l54 35l30 -53l-84 -52v-374h-82v331z" />
    <glyph glyph-name="fl.a" horiz-adv-x="556" 
d="M96 0v419h-66v62l66 5v77c0 99 45 161 142 161c30 0 59 -7 81 -16l-18 -63c-18 8 -37 12 -55 12c-46 0 -68 -32 -68 -94v-77h103v-67h-103v-419h-82zM392 0v712h82v-712h-82z" />
    <glyph glyph-name="Alpha" unicode="&#x391;" horiz-adv-x="544" 
d="M203 367l-31 -100h197l-31 100c-24 73 -45 145 -66 221h-4c-20 -76 -41 -148 -65 -221zM3 0l222 656h94l222 -656h-89l-62 200h-239l-63 -200h-85z" />
    <glyph glyph-name="Beta" unicode="&#x392;" horiz-adv-x="588" 
d="M90 0v656h195c133 0 225 -45 225 -160c0 -65 -34 -123 -96 -143v-4c79 -15 134 -67 134 -157c0 -129 -102 -192 -249 -192h-209zM173 377h97c112 0 158 41 158 108c0 76 -52 105 -154 105h-101v-213zM173 66h114c113 0 179 41 179 129c0 81 -64 118 -179 118h-114v-247z
" />
    <glyph glyph-name="Gamma" unicode="&#x393;" horiz-adv-x="498" 
d="M90 0v656h378v-70h-295v-586h-83z" />
    <glyph glyph-name="uni0394" unicode="&#x394;" horiz-adv-x="588" 
d="M30 0v50l216 606h96l216 -606v-50h-528zM120 71h346l-102 300l-69 210h-4l-69 -210z" />
    <glyph glyph-name="Epsilon" unicode="&#x395;" horiz-adv-x="527" 
d="M90 0v656h378v-70h-295v-206h249v-71h-249v-238h305v-71h-388z" />
    <glyph glyph-name="Zeta" unicode="&#x396;" horiz-adv-x="539" 
d="M45 0v50l345 536h-314v70h418v-49l-346 -536h349v-71h-452z" />
    <glyph glyph-name="Eta" unicode="&#x397;" horiz-adv-x="652" 
d="M90 0v656h83v-275h305v275h84v-656h-84v309h-305v-309h-83z" />
    <glyph glyph-name="Theta" unicode="&#x398;" horiz-adv-x="664" 
d="M220 309v72h224v-72h-224zM332 -12c-165 0 -280 132 -280 343c0 210 115 337 280 337s281 -128 281 -337c0 -211 -116 -343 -281 -343zM332 61c117 0 194 106 194 270c0 163 -77 264 -194 264s-194 -101 -194 -264c0 -164 77 -270 194 -270z" />
    <glyph glyph-name="Iota" unicode="&#x399;" horiz-adv-x="263" 
d="M90 0v656h83v-656h-83z" />
    <glyph glyph-name="Kappa" unicode="&#x39a;" horiz-adv-x="579" 
d="M90 0v656h83v-329h3l273 329h94l-205 -250l237 -406h-93l-196 341l-113 -133v-208h-83z" />
    <glyph glyph-name="Lambda" unicode="&#x39b;" horiz-adv-x="515" 
d="M0 0l209 656h96l210 -656h-88l-106 355c-23 77 -39 140 -64 217h-4c-24 -77 -40 -140 -63 -217l-105 -355h-85z" />
    <glyph glyph-name="Mu" unicode="&#x39c;" horiz-adv-x="727" 
d="M90 0v656h100l126 -350c16 -45 31 -92 47 -137h4c16 45 29 92 45 137l124 350h101v-656h-78v361c0 58 7 136 11 194h-4l-52 -149l-124 -340h-55l-124 340l-52 149h-4c4 -58 10 -136 10 -194v-361h-75z" />
    <glyph glyph-name="Nu" unicode="&#x39d;" horiz-adv-x="647" 
d="M90 0v656h86l237 -412l71 -136h4c-4 66 -10 140 -10 209v339h79v-656h-86l-238 413l-71 135h-4c5 -66 11 -136 11 -205v-343h-79z" />
    <glyph glyph-name="Xi" unicode="&#x39e;" horiz-adv-x="533" 
d="M49 0v71h435v-71h-435zM124 309v71h285v-71h-285zM59 586v70h415v-70h-415z" />
    <glyph glyph-name="Omicron" unicode="&#x39f;" horiz-adv-x="664" 
d="M332 -12c-165 0 -280 132 -280 343c0 210 115 337 280 337s281 -128 281 -337c0 -211 -116 -343 -281 -343zM332 61c117 0 194 106 194 270c0 163 -77 264 -194 264s-194 -101 -194 -264c0 -164 77 -270 194 -270z" />
    <glyph glyph-name="Pi" unicode="&#x3a0;" horiz-adv-x="645" 
d="M90 0v656h465v-656h-83v586h-299v-586h-83z" />
    <glyph glyph-name="Rho" unicode="&#x3a1;" horiz-adv-x="566" 
d="M90 0v656h187c147 0 246 -49 246 -193c0 -138 -98 -203 -242 -203h-108v-260h-83zM173 328h98c114 0 169 42 169 135c0 95 -58 126 -173 126h-94v-261z" />
    <glyph glyph-name="Sigma" unicode="&#x3a3;" horiz-adv-x="538" 
d="M44 0v50l226 283l-222 274v49h423v-70h-318l201 -251l-204 -264h351v-71h-457z" />
    <glyph glyph-name="Tau" unicode="&#x3a4;" horiz-adv-x="536" 
d="M226 0v586h-198v70h480v-70h-198v-586h-84z" />
    <glyph glyph-name="Upsilon" unicode="&#x3a5;" horiz-adv-x="476" 
d="M196 0v254l-197 402h89l85 -185c21 -48 41 -94 63 -143h4c23 49 46 95 66 143l84 185h87l-197 -402v-254h-84z" />
    <glyph glyph-name="Phi" unicode="&#x3a6;" horiz-adv-x="719" 
d="M590 331c0 111 -75 183 -193 190v-385c118 7 193 83 193 195zM129 331c0 -112 75 -188 193 -195v385c-118 -7 -193 -79 -193 -190zM322 -22v93c-165 8 -274 104 -274 260c0 155 109 247 274 255v92h75v-92c165 -8 274 -100 274 -255c0 -156 -109 -252 -274 -260v-93h-75z
" />
    <glyph glyph-name="Chi" unicode="&#x3a7;" horiz-adv-x="513" 
d="M15 0l191 339l-178 317h92l89 -168c17 -30 31 -57 51 -95h4c18 38 31 65 47 95l87 168h88l-179 -321l191 -335h-92l-96 177c-17 32 -35 65 -56 105h-4c-19 -40 -36 -73 -52 -105l-95 -177h-88z" />
    <glyph glyph-name="Psi" unicode="&#x3a8;" horiz-adv-x="699" 
d="M310 0v245c-155 7 -247 82 -247 250v161h82v-157c0 -126 56 -182 165 -187v344h79v-344c109 6 164 61 164 187v157h83v-161c0 -168 -93 -243 -247 -250v-245h-79z" />
    <glyph glyph-name="uni03A9" unicode="&#x3a9;" horiz-adv-x="678" 
d="M45 0v68h131v4c-57 56 -117 147 -117 279c0 184 110 317 280 317s281 -133 281 -317c0 -132 -61 -223 -118 -279v-4h131v-68h-233v61c75 59 134 147 134 285c0 142 -73 249 -195 249s-194 -107 -194 -249c0 -138 58 -226 133 -285v-61h-233z" />
    <glyph glyph-name="Alphatonos" unicode="&#x386;" horiz-adv-x="566" 
d="M225 367l-31 -100h197l-31 100c-24 73 -45 145 -66 221h-4c-20 -76 -41 -148 -65 -221zM25 0l222 656h94l222 -656h-89l-62 200h-239l-63 -200h-85zM6 475l29 195l76 -11l-50 -195z" />
    <glyph glyph-name="Epsilontonos" unicode="&#x388;" horiz-adv-x="591" 
d="M154 0v656h378v-70h-295v-206h249v-71h-249v-238h305v-71h-388zM-19 475l29 195l76 -11l-50 -195z" />
    <glyph glyph-name="Etatonos" unicode="&#x389;" horiz-adv-x="716" 
d="M154 0v656h83v-275h305v275h84v-656h-84v309h-305v-309h-83zM-19 475l29 195l76 -11l-50 -195z" />
    <glyph glyph-name="Iotatonos" unicode="&#x38a;" horiz-adv-x="327" 
d="M154 0v656h83v-656h-83zM-19 475l29 195l76 -11l-50 -195z" />
    <glyph glyph-name="Iotadieresis" unicode="&#x3aa;" horiz-adv-x="263" 
d="M90 0v656h83v-656h-83zM28 715c-28 0 -49 21 -49 49c0 29 21 49 49 49c29 0 49 -20 49 -49c0 -28 -20 -49 -49 -49zM234 715c-29 0 -49 21 -49 49c0 29 20 49 49 49c28 0 49 -20 49 -49c0 -28 -21 -49 -49 -49z" />
    <glyph glyph-name="Omicrontonos" unicode="&#x38c;" horiz-adv-x="711" 
d="M379 -12c-165 0 -280 132 -280 343c0 210 115 337 280 337s281 -128 281 -337c0 -211 -116 -343 -281 -343zM379 61c117 0 194 106 194 270c0 163 -77 264 -194 264s-194 -101 -194 -264c0 -164 77 -270 194 -270zM-19 475l29 195l76 -11l-50 -195z" />
    <glyph glyph-name="Upsilontonos" unicode="&#x38e;" horiz-adv-x="600" 
d="M320 0v254l-197 402h89l85 -185c21 -48 41 -94 63 -143h4c23 49 46 95 66 143l84 185h87l-197 -402v-254h-84zM-19 475l29 195l76 -11l-50 -195z" />
    <glyph glyph-name="Upsilondieresis" unicode="&#x3ab;" horiz-adv-x="476" 
d="M196 0v254l-197 402h89l85 -185c21 -48 41 -94 63 -143h4c23 49 46 95 66 143l84 185h87l-197 -402v-254h-84zM135 715c-28 0 -49 21 -49 49c0 29 21 49 49 49c29 0 49 -20 49 -49c0 -28 -20 -49 -49 -49zM341 715c-29 0 -49 21 -49 49c0 29 20 49 49 49
c28 0 49 -20 49 -49c0 -28 -21 -49 -49 -49z" />
    <glyph glyph-name="Omegatonos" unicode="&#x38f;" horiz-adv-x="723" 
d="M92 0v68h131v4c-57 56 -117 147 -117 279c0 184 110 317 280 317s281 -133 281 -317c0 -132 -61 -223 -118 -279v-4h131v-68h-233v61c75 59 134 147 134 285c0 142 -73 249 -195 249s-194 -107 -194 -249c0 -138 58 -226 133 -285v-61h-233zM-23 475l29 195l76 -11
l-50 -195z" />
    <glyph glyph-name="alpha" unicode="&#x3b1;" horiz-adv-x="560" 
d="M233 -12c-111 0 -187 87 -187 246c0 167 101 264 213 264c60 0 122 -35 150 -127h2l21 115h81c-26 -128 -61 -290 -61 -379c0 -33 22 -51 48 -51c11 0 24 4 34 8l12 -63c-14 -6 -34 -13 -63 -13c-58 0 -96 31 -96 99h-3c-37 -66 -88 -99 -151 -99zM250 57
c64 0 126 69 132 151l8 91c-27 106 -77 130 -122 130c-70 0 -137 -66 -137 -194c0 -113 44 -178 119 -178z" />
    <glyph glyph-name="beta" unicode="&#x3b2;" horiz-adv-x="565" 
d="M79 -179v670c0 134 64 233 200 233c95 0 183 -56 183 -173c0 -72 -35 -128 -96 -166v-4c95 -13 155 -86 155 -188c0 -131 -92 -205 -190 -205c-61 0 -124 19 -174 74c3 -82 4 -159 5 -241h-83zM312 57c70 0 127 52 127 141c0 77 -45 136 -136 136c-17 0 -34 -2 -50 -6
l-13 63c103 21 142 90 142 154c0 75 -47 112 -101 112c-75 0 -120 -62 -121 -177c-2 -117 -3 -231 -3 -347c47 -60 104 -76 155 -76z" />
    <glyph glyph-name="gamma" unicode="&#x3b3;" horiz-adv-x="484" 
d="M196 -179c4 44 5 67 5 121c0 161 -97 406 -195 535l83 21c60 -84 132 -249 160 -401h4c63 122 117 254 128 389h83c-26 -164 -73 -286 -193 -481c8 -58 10 -128 10 -184h-85z" />
    <glyph glyph-name="delta" unicode="&#x3b4;" horiz-adv-x="531" 
d="M269 -12c-111 0 -217 82 -217 221c0 117 82 195 187 227c-70 50 -134 103 -134 179c0 58 49 109 159 109c61 0 129 -13 209 -39l-20 -66c-83 30 -143 41 -190 41c-56 0 -80 -23 -80 -50c0 -53 67 -92 146 -150c83 -61 155 -124 155 -241c0 -138 -79 -231 -215 -231z
M270 56c88 0 133 65 133 162c0 81 -48 132 -107 177c-102 -23 -164 -90 -164 -184c0 -95 66 -155 138 -155z" />
    <glyph glyph-name="epsilon" unicode="&#x3b5;" horiz-adv-x="448" 
d="M251 -12c-120 0 -205 55 -205 146c0 70 45 106 101 121v4c-51 18 -77 63 -77 108c0 89 86 131 186 131c58 0 112 -20 157 -53l-33 -55c-38 28 -77 43 -122 43c-60 0 -106 -26 -106 -76c0 -44 33 -75 111 -75c19 0 36 1 61 3v-64c-29 2 -52 2 -76 2
c-80 0 -120 -29 -120 -82c0 -54 49 -87 132 -87c47 0 87 13 133 49l35 -55c-59 -45 -109 -60 -177 -60z" />
    <glyph glyph-name="zeta" unicode="&#x3b6;" horiz-adv-x="424" 
d="M360 -184l-66 27c35 43 48 61 48 88c0 30 -20 42 -111 61c-98 20 -183 71 -183 230c0 150 146 335 268 428c-55 0 -173 -1 -237 -5v67h330v-67h-5c-124 -87 -271 -282 -271 -419c0 -115 56 -152 146 -168c94 -18 137 -42 137 -108c0 -30 -16 -79 -56 -134z" />
    <glyph glyph-name="eta" unicode="&#x3b7;" horiz-adv-x="541" 
d="M382 -179c4 159 6 336 6 476c0 91 -22 130 -79 130c-53 0 -90 -27 -145 -109v-318h-82v353c0 38 -1 82 -7 133h75l7 -101h3c50 75 101 113 173 113c94 0 132 -66 132 -190v-487h-83z" />
    <glyph glyph-name="theta" unicode="&#x3b8;" horiz-adv-x="522" 
d="M261 -12c-125 0 -202 114 -202 371c0 238 77 365 202 365s202 -127 202 -365c0 -257 -77 -371 -202 -371zM261 656c-66 0 -116 -77 -121 -266h242c-5 189 -55 266 -121 266zM261 56c67 0 117 70 121 275h-242c4 -205 54 -275 121 -275z" />
    <glyph glyph-name="iota" unicode="&#x3b9;" horiz-adv-x="262" 
d="M175 -12c-68 0 -93 41 -93 113v385h83c-2 -131 -6 -274 -6 -391c0 -27 13 -39 34 -39c9 0 18 2 30 6l11 -62c-15 -7 -32 -12 -59 -12z" />
    <glyph glyph-name="kappa" unicode="&#x3ba;" horiz-adv-x="494" 
d="M406 -8c-52 59 -115 157 -162 246c-15 -18 -30 -38 -45 -59c-29 -39 -39 -90 -40 -154v-25h-77v353c0 38 -1 90 -9 133h81c7 -26 9 -70 9 -113v-152h4c77 133 185 251 289 277l8 -78c-54 -17 -109 -58 -169 -123c49 -96 129 -217 202 -297z" />
    <glyph glyph-name="lambda" unicode="&#x3bb;" horiz-adv-x="494" 
d="M103 -8l-87 8l211 497l-6 21c-27 89 -60 136 -115 136c-27 0 -45 -8 -63 -16l-20 68c23 10 48 18 92 18c96 0 145 -71 188 -210l184 -514h-87l-134 403h-4z" />
    <glyph glyph-name="uni03BC" unicode="&#x3bc;" horiz-adv-x="562" 
d="M82 -179v665h82v-297c0 -86 26 -130 89 -130c44 0 84 15 129 95v332h83c-2 -131 -6 -274 -6 -391c0 -27 15 -39 36 -39c8 0 18 2 29 6l11 -62c-14 -7 -31 -12 -58 -12c-55 0 -81 29 -88 94h-2c-35 -62 -82 -92 -135 -92c-39 0 -71 9 -94 47c1 -96 2 -139 7 -216h-83z" />
    <glyph glyph-name="nu" unicode="&#x3bd;" horiz-adv-x="474" 
d="M193 0c-36 178 -104 353 -187 477l83 21c67 -104 129 -282 157 -413h4c59 124 109 270 121 401h83c-26 -169 -81 -314 -180 -486h-81z" />
    <glyph glyph-name="xi" unicode="&#x3be;" horiz-adv-x="431" 
d="M367 -184l-66 27c35 43 48 61 48 88c0 30 -22 44 -111 61c-103 20 -189 65 -189 193c0 96 69 170 149 194v4c-59 24 -101 74 -101 144c0 55 27 100 72 123c-53 0 -80 -1 -141 -5v67h388v-67h-114c-64 0 -122 -43 -122 -120c0 -70 65 -122 124 -122c26 0 39 1 65 6v-70
c-26 6 -44 6 -70 6c-83 0 -165 -55 -165 -149c0 -96 66 -122 156 -138c96 -18 134 -42 134 -108c0 -30 -17 -79 -57 -134z" />
    <glyph glyph-name="omicron" unicode="&#x3bf;" horiz-adv-x="535" 
d="M267 -12c-121 0 -221 92 -221 254c0 164 100 256 221 256c122 0 222 -92 222 -256c0 -162 -100 -254 -222 -254zM267 56c86 0 137 74 137 186c0 113 -51 188 -137 188s-136 -75 -136 -188c0 -112 50 -186 136 -186z" />
    <glyph glyph-name="pi" unicode="&#x3c0;" horiz-adv-x="586" 
d="M485 -12c-77 0 -106 43 -106 122c0 50 4 202 5 308h-172c0 -136 -15 -287 -29 -423l-83 5c22 137 35 287 35 418h-113v63l70 5h469v-68h-97c-6 -110 -8 -267 -8 -314c0 -34 15 -48 46 -48c8 0 21 2 39 6l11 -63c-17 -6 -39 -11 -67 -11z" />
    <glyph glyph-name="rho" unicode="&#x3c1;" horiz-adv-x="549" 
d="M78 -179v427c0 169 96 250 214 250c136 0 210 -94 210 -248c0 -165 -98 -262 -200 -262c-52 0 -102 17 -147 69c3 -87 5 -150 6 -236h-83zM287 57c72 0 130 73 130 193c0 107 -38 179 -128 179c-71 0 -132 -60 -132 -182v-124c45 -55 88 -66 130 -66z" />
    <glyph glyph-name="sigma" unicode="&#x3c3;" horiz-adv-x="546" 
d="M264 -12c-118 0 -218 89 -218 250c0 170 107 248 222 248h266v-70c-55 4 -99 7 -154 8v-4c60 -34 96 -102 96 -193c0 -151 -93 -239 -212 -239zM265 56c76 0 131 69 131 178c0 97 -47 184 -130 184c-77 0 -135 -59 -135 -180c0 -112 57 -182 134 -182z" />
    <glyph glyph-name="tau" unicode="&#x3c4;" horiz-adv-x="460" 
d="M288 -12c-74 0 -99 43 -99 122v309h-163v62l70 5h338v-67h-164c-3 -109 -4 -217 -4 -315c0 -34 14 -48 41 -48c15 0 31 4 47 8l12 -63c-19 -6 -47 -13 -78 -13z" />
    <glyph glyph-name="upsilon" unicode="&#x3c5;" horiz-adv-x="510" 
d="M249 -12c-116 0 -185 64 -185 192c0 58 4 115 4 173c0 38 -1 82 -8 133h80c7 -34 8 -70 8 -113c0 -55 -6 -137 -6 -197c0 -87 50 -120 108 -120c70 0 122 58 122 184c0 74 -10 150 -40 239l80 19c28 -84 43 -169 43 -255c0 -165 -84 -255 -206 -255z" />
    <glyph glyph-name="phi" unicode="&#x3c6;" horiz-adv-x="680" 
d="M131 244c0 -116 77 -186 171 -190v378c-94 -4 -171 -73 -171 -188zM549 244c0 115 -70 184 -171 188v-378c95 4 171 74 171 190zM302 -179v170c-132 4 -256 94 -256 253c0 158 124 247 256 251v127h76v-127c135 -4 256 -93 256 -251c0 -159 -124 -249 -256 -253v-170h-76
z" />
    <glyph glyph-name="chi" unicode="&#x3c7;" horiz-adv-x="481" 
d="M92 -191l-83 12l193 342l-190 314l82 21l147 -260h4l125 248h87l-173 -321l204 -335l-80 -21l-163 287h-4z" />
    <glyph glyph-name="psi" unicode="&#x3c8;" horiz-adv-x="689" 
d="M304 -179v167c-164 2 -236 97 -236 235v130c0 38 -1 82 -7 133h80c5 -34 6 -70 6 -113c0 -54 -2 -124 -2 -155c0 -98 52 -163 159 -163v567h77v-567c107 4 168 70 168 208c0 73 -9 130 -40 216l80 19c30 -81 44 -148 44 -232c0 -174 -93 -274 -252 -278v-167h-77z" />
    <glyph glyph-name="omega" unicode="&#x3c9;" horiz-adv-x="701" 
d="M220 -12c-97 0 -169 80 -169 241c0 103 39 193 90 269l75 -33c-55 -80 -86 -149 -86 -251c0 -101 40 -158 94 -158c47 0 88 32 88 122c0 40 -3 78 -8 130h90c-5 -52 -8 -90 -8 -130c0 -93 41 -122 87 -122c54 0 93 55 93 171c0 99 -23 158 -78 240l74 31
c53 -77 88 -153 88 -266c0 -163 -66 -244 -167 -244c-55 0 -107 27 -131 88h-4c-25 -61 -73 -88 -128 -88z" />
    <glyph glyph-name="uni03C2" unicode="&#x3c2;" horiz-adv-x="432" 
d="M316 -180l-66 26c35 44 53 70 53 99c0 32 -14 52 -71 69c-91 31 -186 81 -186 240c0 156 101 244 217 244c65 0 107 -26 140 -57l-42 -54c-28 25 -55 43 -93 43c-81 0 -137 -70 -137 -176c0 -114 64 -148 138 -173c80 -26 108 -51 108 -118c0 -34 -20 -88 -61 -143z" />
    <glyph glyph-name="uni03D0" unicode="&#x3d0;" horiz-adv-x="560" 
d="M305 -12c-104 0 -227 61 -227 238v265c0 134 63 231 196 231c92 0 182 -54 182 -171c0 -72 -37 -130 -112 -166v-4c108 -10 172 -87 172 -192c0 -126 -93 -201 -211 -201zM158 480c0 -43 -1 -78 -1 -110c164 32 219 94 219 174c0 76 -44 110 -97 110
c-75 0 -119 -59 -121 -174zM303 60c76 0 131 52 131 134c0 75 -42 141 -141 141c-21 0 -59 -6 -137 -28v-69c0 -143 92 -178 147 -178z" />
    <glyph glyph-name="uni03D1" unicode="&#x3d1;" horiz-adv-x="522" 
d="M145 541c0 -84 47 -171 237 -145c-6 191 -60 261 -141 260c-55 0 -96 -46 -96 -115zM259 -12c-108 0 -171 60 -171 181c0 58 0 87 -8 122h78c8 -22 7 -59 7 -112c0 -93 43 -123 97 -123c67 0 117 56 120 285c-246 -33 -316 99 -316 201c0 108 77 182 172 182
c148 0 225 -124 225 -362c0 -279 -81 -374 -204 -374z" />
    <glyph glyph-name="uni03D5" unicode="&#x3d5;" horiz-adv-x="680" 
d="M303 -179v170c-135 4 -257 86 -257 252c0 100 46 187 107 259l67 -48c-58 -69 -90 -129 -90 -220c0 -112 73 -175 173 -180v242c0 138 62 202 148 202c110 0 183 -93 183 -244c0 -164 -121 -259 -256 -263c1 -57 3 -114 4 -170h-79zM376 299c0 -81 1 -163 2 -245
c98 5 171 76 171 196c0 110 -44 179 -102 179c-40 0 -71 -41 -71 -130z" />
    <glyph glyph-name="alphatonos" unicode="&#x3ac;" horiz-adv-x="560" 
d="M233 -12c-111 0 -187 87 -187 246c0 167 101 264 213 264c60 0 122 -35 150 -127h2l21 115h81c-26 -128 -61 -290 -61 -379c0 -33 22 -51 48 -51c11 0 24 4 34 8l12 -63c-14 -6 -34 -13 -63 -13c-58 0 -96 31 -96 99h-3c-37 -66 -88 -99 -151 -99zM250 57
c64 0 126 69 132 151l8 91c-27 106 -77 130 -122 130c-70 0 -137 -66 -137 -194c0 -113 44 -178 119 -178zM251 569l43 201l85 -15l-71 -197z" />
    <glyph glyph-name="epsilontonos" unicode="&#x3ad;" horiz-adv-x="448" 
d="M251 -12c-120 0 -205 55 -205 146c0 70 45 106 101 121v4c-51 18 -77 63 -77 108c0 89 86 131 186 131c58 0 112 -20 157 -53l-33 -55c-38 28 -77 43 -122 43c-60 0 -106 -26 -106 -76c0 -44 33 -75 111 -75c19 0 36 1 61 3v-64c-29 2 -52 2 -76 2
c-80 0 -120 -29 -120 -82c0 -54 49 -87 132 -87c47 0 87 13 133 49l35 -55c-59 -45 -109 -60 -177 -60zM214 569l43 201l85 -15l-71 -197z" />
    </font>
</defs>
</svg>
