<?xml version="1.0" standalone="no"?>
<!DOCTYPE svg PUBLIC "-//W3C//DTD SVG 1.1//EN" "http://www.w3.org/Graphics/SVG/1.1/DTD/svg11.dtd" >
<svg xmlns="http://www.w3.org/2000/svg" xmlns:xlink="http://www.w3.org/1999/xlink" version="1.1">
<metadata>
Created by FontForge 20170924 at Mon Aug 31 14:45:02 2015
 By www-data
Copyright 2010, 2012, 2014 Adobe Systems Incorporated (http://www.adobe.com/), with Reserved Font Name 'Source'.
</metadata>
<defs>
<font id="SourceSansPro-Semibold" horiz-adv-x="0" >
  <font-face 
    font-family="Source Sans Pro"
    font-weight="600"
    font-stretch="normal"
    units-per-em="1000"
    panose-1="2 11 6 3 3 4 3 2 2 4"
    ascent="750"
    descent="-250"
    x-height="491"
    cap-height="654"
    bbox="-456 -305 2158 989"
    underline-thickness="50"
    underline-position="-100"
    stemh="92"
    stemv="116"
    unicode-range="U+0020-1F16B"
  />
<missing-glyph horiz-adv-x="672" 
d="M84 0v660h504v-660h-504zM230 75h210l-56 104l-46 100h-4l-47 -100zM334 401h4l46 94l48 89h-193l49 -89zM166 133l111 207l-111 209v-416zM505 133v416l-110 -209z" />
    <glyph glyph-name="f_f" unicode="ff" horiz-adv-x="618" 
d="M394 0v400h-186v-400h-115v400h-66v86l66 5v43c0 101 51 174 170 174c37 0 72 -7 96 -18l-22 -86c-19 9 -36 13 -62 13c-41 0 -67 -28 -67 -83v-43h186v51c0 102 46 176 162 176c36 0 68 -8 90 -17l-22 -86c-17 8 -36 12 -53 12c-41 0 -62 -26 -62 -83v-53h96v-91h-96
v-400h-115z" />
    <glyph glyph-name="f_t" unicode="ft" horiz-adv-x="642" 
d="M93 0v400h-66v86l66 5v51c0 102 47 176 163 176c35 0 68 -8 90 -17l-22 -86c-18 8 -37 12 -54 12c-40 0 -62 -26 -62 -83v-53h169l14 134h95v-134h126v-91h-126v-234c0 -58 23 -86 70 -86c17 0 37 5 51 11l20 -85c-27 -9 -61 -18 -101 -18c-113 0 -155 72 -155 178v234
h-163v-400h-115z" />
    <glyph glyph-name="f_f_t" unicode="fft" horiz-adv-x="942" 
d="M93 0v400h-66v86l66 5v43c0 101 51 174 170 174c37 0 72 -7 96 -18l-22 -86c-19 9 -36 13 -62 13c-41 0 -67 -28 -67 -83v-43h186v51c0 102 46 176 162 176c36 0 68 -8 90 -17l-22 -86c-17 8 -36 12 -53 12c-41 0 -62 -26 -62 -83v-53h169l14 134h95v-134h125v-91h-125
v-234c0 -58 23 -86 70 -86c17 0 37 5 51 11l20 -85c-27 -9 -61 -18 -101 -18c-113 0 -155 72 -155 178v234h-163v-400h-115v400h-186v-400h-115z" />
    <glyph glyph-name=".notdef" horiz-adv-x="672" 
d="M84 0v660h504v-660h-504zM230 75h210l-56 104l-46 100h-4l-47 -100zM334 401h4l46 94l48 89h-193l49 -89zM166 133l111 207l-111 209v-416zM505 133v416l-110 -209z" />
    <glyph glyph-name="space" unicode=" " horiz-adv-x="200" 
 />
    <glyph glyph-name="A" unicode="A" horiz-adv-x="558" 
d="M217 348l-23 -80h167l-23 80c-21 69 -40 144 -59 216h-4c-18 -73 -37 -147 -58 -216zM-2 0l213 654h136l213 -654h-122l-51 177h-220l-51 -177h-118z" />
    <glyph glyph-name="B" unicode="B" horiz-adv-x="597" 
d="M83 0v654h209c135 0 234 -41 234 -161c0 -62 -34 -122 -91 -142v-4c72 -16 125 -67 125 -155c0 -131 -107 -192 -251 -192h-226zM199 384h83c91 0 130 36 130 92c0 64 -43 88 -128 88h-85v-180zM199 90h98c96 0 150 35 150 108c0 69 -52 99 -150 99h-98v-207z" />
    <glyph glyph-name="C" unicode="C" horiz-adv-x="576" 
d="M344 -12c-165 0 -295 120 -295 337c0 214 134 341 299 341c82 0 148 -39 189 -83l-62 -75c-34 34 -73 57 -124 57c-107 0 -183 -90 -183 -237c0 -149 70 -239 180 -239c58 0 103 27 140 67l62 -73c-53 -61 -122 -95 -206 -95z" />
    <glyph glyph-name="D" unicode="D" horiz-adv-x="625" 
d="M83 0v654h175c200 0 318 -108 318 -324c0 -217 -118 -330 -312 -330h-181zM199 94h51c132 0 207 75 207 236c0 160 -75 230 -207 230h-51v-466z" />
    <glyph glyph-name="E" unicode="E" horiz-adv-x="538" 
d="M83 0v654h394v-98h-278v-167h235v-98h-235v-193h288v-98h-404z" />
    <glyph glyph-name="F" unicode="F" horiz-adv-x="510" 
d="M83 0v654h395v-98h-279v-185h238v-98h-238v-273h-116z" />
    <glyph glyph-name="G" unicode="G" horiz-adv-x="628" 
d="M357 -12c-177 0 -308 120 -308 337c0 214 135 341 309 341c93 0 157 -41 198 -83l-62 -75c-33 32 -71 57 -132 57c-116 0 -194 -90 -194 -237c0 -149 69 -239 200 -239c37 0 73 10 94 29v141h-124v95h228v-288c-44 -44 -120 -78 -209 -78z" />
    <glyph glyph-name="H" unicode="H" horiz-adv-x="663" 
d="M83 0v654h116v-263h265v263h116v-654h-116v290h-265v-290h-116z" />
    <glyph glyph-name="I" unicode="I" horiz-adv-x="282" 
d="M83 0v654h116v-654h-116z" />
    <glyph glyph-name="J" unicode="J" horiz-adv-x="494" 
d="M219 -12c-91 0 -154 38 -195 111l80 59c26 -48 62 -69 102 -69c61 0 92 33 92 126v439h116v-449c0 -119 -58 -217 -195 -217z" />
    <glyph glyph-name="K" unicode="K" horiz-adv-x="597" 
d="M83 0v654h116v-297h3l233 297h129l-201 -255l235 -399h-128l-177 308l-94 -117v-191h-116z" />
    <glyph glyph-name="L" unicode="L" horiz-adv-x="502" 
d="M83 0v654h116v-556h272v-98h-388z" />
    <glyph glyph-name="M" unicode="M" horiz-adv-x="745" 
d="M83 0v654h131l116 -320c14 -41 28 -85 42 -128h4c14 43 27 87 41 128l113 320h132v-654h-107v299c0 61 9 148 15 208h-4l-53 -152l-107 -294h-69l-108 294l-52 152h-4c5 -60 15 -147 15 -208v-299h-105z" />
    <glyph glyph-name="N" unicode="N" horiz-adv-x="656" 
d="M83 0v654h119l204 -368l67 -139h4c-5 67 -15 150 -15 223v284h111v-654h-119l-204 368l-67 139h-4c5 -69 15 -148 15 -221v-286h-111z" />
    <glyph glyph-name="O" unicode="O" horiz-adv-x="674" 
d="M337 -12c-170 0 -288 130 -288 342c0 211 118 336 288 336c171 0 289 -125 289 -336c0 -212 -118 -342 -289 -342zM337 89c103 0 169 94 169 241c0 146 -66 235 -169 235s-169 -89 -169 -235c0 -147 66 -241 169 -241z" />
    <glyph glyph-name="P" unicode="P" horiz-adv-x="582" 
d="M83 0v654h206c145 0 253 -50 253 -202c0 -145 -108 -212 -249 -212h-94v-240h-116zM199 333h85c97 0 144 39 144 119c0 82 -51 109 -148 109h-81v-228z" />
    <glyph glyph-name="Q" unicode="Q" horiz-adv-x="674" 
d="M337 83c103 0 169 94 169 247c0 146 -66 235 -169 235s-169 -89 -169 -235c0 -153 66 -247 169 -247zM545 -174c-130 0 -220 70 -262 167c-141 25 -234 148 -234 337c0 211 118 336 288 336c171 0 289 -125 289 -336c0 -182 -87 -304 -220 -334c30 -52 89 -75 152 -75
c29 0 52 4 71 10l21 -86c-22 -10 -60 -19 -105 -19z" />
    <glyph glyph-name="R" unicode="R" horiz-adv-x="592" 
d="M83 0v654h221c136 0 240 -48 240 -194c0 -100 -52 -160 -130 -187l156 -273h-130l-141 256h-100v-256h-116zM199 348h93c89 0 138 38 138 112c0 75 -49 101 -138 101h-93v-213z" />
    <glyph glyph-name="S" unicode="S" horiz-adv-x="545" 
d="M274 -12c-88 0 -174 35 -236 96l68 79c47 -44 110 -74 170 -74c74 0 114 33 114 84c0 54 -42 71 -101 96l-90 39c-64 27 -132 78 -132 174c0 104 92 184 220 184c76 0 150 -32 201 -83l-59 -74c-42 35 -86 56 -142 56c-62 0 -103 -29 -103 -77c0 -51 50 -70 104 -92
l89 -37c77 -33 132 -82 132 -177c0 -106 -88 -194 -235 -194z" />
    <glyph glyph-name="T" unicode="T" horiz-adv-x="546" 
d="M215 0v556h-189v98h494v-98h-189v-556h-116z" />
    <glyph glyph-name="U" unicode="U" horiz-adv-x="655" 
d="M328 -12c-151 0 -248 84 -248 299v367h116v-376c0 -142 53 -189 132 -189c80 0 136 47 136 189v376h111v-367c0 -215 -95 -299 -247 -299z" />
    <glyph glyph-name="V" unicode="V" horiz-adv-x="536" 
d="M200 0l-204 654h123l92 -329c21 -74 36 -138 58 -213h4c22 75 37 139 57 213l91 329h119l-203 -654h-137z" />
    <glyph glyph-name="W" unicode="W" horiz-adv-x="800" 
d="M148 0l-130 654h119l57 -330c11 -70 22 -140 32 -209h4c14 69 28 140 43 209l80 330h101l80 -330c15 -68 29 -139 44 -209h4c10 70 21 140 31 209l57 330h111l-125 -654h-144l-81 344c-11 51 -21 101 -29 151h-4c-9 -50 -19 -100 -30 -151l-79 -344h-141z" />
    <glyph glyph-name="X" unicode="X" horiz-adv-x="541" 
d="M13 0l186 337l-174 317h129l72 -145c16 -30 30 -61 50 -100h4c16 39 29 70 44 100l69 145h123l-174 -322l186 -332h-129l-80 154c-17 34 -33 67 -53 107h-4c-17 -40 -32 -73 -48 -107l-78 -154h-123z" />
    <glyph glyph-name="Y" unicode="Y" horiz-adv-x="501" 
d="M192 0v243l-196 411h124l71 -167c19 -49 37 -94 58 -144h4c21 50 41 95 60 144l71 167h121l-197 -411v-243h-116z" />
    <glyph glyph-name="Z" unicode="Z" horiz-adv-x="540" 
d="M40 0v70l316 486h-287v98h431v-70l-317 -486h319v-98h-462z" />
    <glyph glyph-name="a" unicode="a" horiz-adv-x="516" 
d="M192 -12c-86 0 -145 58 -145 144c0 105 87 160 289 182c-2 52 -23 96 -90 96c-48 0 -94 -22 -138 -48l-42 77c54 34 124 64 202 64c122 0 183 -75 183 -212v-291h-95l-8 54h-4c-44 -37 -94 -66 -152 -66zM229 78c40 0 70 20 107 54v110c-134 -17 -178 -52 -178 -101
c0 -44 30 -63 71 -63z" />
    <glyph glyph-name="b" unicode="b" horiz-adv-x="563" 
d="M311 -12c-45 0 -93 23 -134 64h-3l-10 -52h-91v706h115v-182l-3 -82c41 36 92 61 142 61c123 0 194 -98 194 -249c0 -169 -101 -266 -210 -266zM287 83c65 0 115 58 115 169c0 98 -32 156 -106 156c-36 0 -70 -18 -108 -55v-229c35 -30 70 -41 99 -41z" />
    <glyph glyph-name="c" unicode="c" horiz-adv-x="462" 
d="M278 -12c-134 0 -237 94 -237 257c0 164 115 258 246 258c63 0 108 -24 144 -55l-56 -75c-26 23 -51 36 -82 36c-79 0 -134 -65 -134 -164c0 -98 54 -163 131 -163c38 0 73 19 101 42l47 -76c-46 -40 -104 -60 -160 -60z" />
    <glyph glyph-name="d" unicode="d" horiz-adv-x="564" 
d="M245 -12c-123 0 -202 95 -202 257c0 160 101 258 208 258c56 0 91 -21 129 -54l-4 79v178h115v-706h-95l-8 53h-4c-36 -36 -86 -65 -139 -65zM273 83c38 0 70 17 103 55v229c-34 30 -67 41 -100 41c-63 0 -114 -59 -114 -162c0 -106 40 -163 111 -163z" />
    <glyph glyph-name="e" unicode="e" horiz-adv-x="507" 
d="M283 -12c-136 0 -242 95 -242 257c0 160 111 258 226 258c133 0 203 -96 203 -233c0 -22 -2 -44 -5 -56h-312c10 -87 66 -137 145 -137c42 0 78 13 114 36l39 -72c-47 -31 -106 -53 -168 -53zM152 292h218c0 76 -33 122 -100 122c-58 0 -108 -43 -118 -122z" />
    <glyph glyph-name="f" unicode="f" horiz-adv-x="317" 
d="M93 0v400h-66v86l66 5v51c0 102 47 176 163 176c35 0 68 -8 90 -17l-22 -86c-18 8 -37 12 -54 12c-40 0 -62 -26 -62 -83v-53h96v-91h-96v-400h-115z" />
    <glyph glyph-name="g" unicode="g" horiz-adv-x="520" 
d="M244 -217c-117 0 -204 42 -204 128c0 41 25 77 70 105v4c-25 16 -44 42 -44 82c0 38 26 71 54 91v4c-33 25 -64 72 -64 130c0 113 91 176 194 176c27 0 52 -5 72 -12h176v-85h-90c16 -19 28 -49 28 -83c0 -109 -82 -167 -186 -167c-21 0 -45 4 -67 13
c-15 -13 -24 -25 -24 -47c0 -28 20 -45 80 -45h87c118 0 180 -36 180 -121c0 -97 -102 -173 -262 -173zM250 228c47 0 85 36 85 99c0 61 -37 97 -85 97s-86 -35 -86 -97c0 -63 38 -99 86 -99zM262 -142c79 0 133 37 133 79c0 38 -31 49 -87 49h-67c-27 0 -48 2 -67 7
c-26 -20 -38 -42 -38 -65c0 -44 48 -70 126 -70z" />
    <glyph glyph-name="h" unicode="h" horiz-adv-x="558" 
d="M73 0v706h115v-182l-4 -95c41 39 90 74 157 74c105 0 151 -71 151 -195v-308h-115v293c0 81 -23 111 -77 111c-43 0 -71 -21 -112 -61v-343h-115z" />
    <glyph glyph-name="i" unicode="i" horiz-adv-x="262" 
d="M73 0v491h115v-491h-115zM131 577c-41 0 -71 27 -71 65c0 39 30 66 71 66s71 -27 71 -66c0 -38 -30 -65 -71 -65z" />
    <glyph glyph-name="j" unicode="j" horiz-adv-x="263" 
d="M34 -206c-36 0 -61 6 -80 13l22 86c13 -4 27 -8 42 -8c44 0 56 31 56 88v518h116v-516c0 -104 -40 -181 -156 -181zM132 577c-40 0 -71 27 -71 65c0 39 31 66 71 66c41 0 72 -27 72 -66c0 -38 -31 -65 -72 -65z" />
    <glyph glyph-name="k" unicode="k" horiz-adv-x="522" 
d="M73 0v706h113v-441h3l182 226h126l-168 -200l185 -291h-125l-126 213l-77 -88v-125h-113z" />
    <glyph glyph-name="l" unicode="l" horiz-adv-x="271" 
d="M185 -12c-82 0 -112 53 -112 138v580h115v-586c0 -28 13 -38 25 -38c5 0 9 0 18 2l15 -86c-14 -6 -34 -10 -61 -10z" />
    <glyph glyph-name="m" unicode="m" horiz-adv-x="843" 
d="M73 0v491h95l8 -67h4c41 44 89 79 150 79c72 0 113 -33 136 -88c47 50 96 88 158 88c104 0 152 -71 152 -195v-308h-116v293c0 81 -24 111 -75 111c-31 0 -65 -20 -103 -61v-343h-115v293c0 81 -24 111 -76 111c-30 0 -65 -20 -103 -61v-343h-115z" />
    <glyph glyph-name="n" unicode="n" horiz-adv-x="560" 
d="M73 0v491h95l8 -66h4c44 43 94 78 161 78c105 0 151 -71 151 -195v-308h-115v293c0 81 -23 111 -77 111c-43 0 -71 -21 -112 -61v-343h-115z" />
    <glyph glyph-name="o" unicode="o" horiz-adv-x="549" 
d="M274 -12c-122 0 -233 94 -233 257c0 164 111 258 233 258c123 0 234 -94 234 -258c0 -163 -111 -257 -234 -257zM274 82c72 0 116 65 116 163c0 99 -44 164 -116 164s-115 -65 -115 -164c0 -98 43 -163 115 -163z" />
    <glyph glyph-name="p" unicode="p" horiz-adv-x="564" 
d="M73 -194v685h95l8 -52h4c41 35 94 64 148 64c122 0 193 -98 193 -250c0 -168 -101 -265 -210 -265c-43 0 -86 20 -126 54l3 -82v-154h-115zM287 83c65 0 115 58 115 169c0 98 -32 156 -106 156c-36 0 -70 -18 -108 -55v-229c36 -30 70 -41 99 -41z" />
    <glyph glyph-name="q" unicode="q" horiz-adv-x="564" 
d="M376 -194v161l4 82c-36 -35 -85 -61 -135 -61c-123 0 -202 95 -202 257c0 160 101 258 208 258c55 0 95 -19 136 -59h3l10 47h91v-685h-115zM273 83c38 0 70 17 103 55v229c-34 30 -67 41 -100 41c-63 0 -114 -59 -114 -162c0 -106 40 -163 111 -163z" />
    <glyph glyph-name="r" unicode="r" horiz-adv-x="373" 
d="M73 0v491h95l8 -87h4c35 64 87 99 139 99c25 0 41 -3 56 -10l-20 -100c-17 5 -30 8 -51 8c-39 0 -86 -27 -116 -101v-300h-115z" />
    <glyph glyph-name="s" unicode="s" horiz-adv-x="431" 
d="M210 -12c-67 0 -138 29 -186 68l54 74c44 -34 86 -55 136 -55c53 0 78 25 78 59c0 41 -53 59 -105 79c-65 24 -138 61 -138 143c0 86 69 147 179 147c68 0 123 -28 163 -59l-53 -70c-34 25 -69 42 -108 42c-49 0 -72 -23 -72 -54c0 -39 49 -54 102 -73
c67 -25 141 -57 141 -149c0 -84 -67 -152 -191 -152z" />
    <glyph glyph-name="t" unicode="t" horiz-adv-x="361" 
d="M246 -12c-114 0 -156 72 -156 178v234h-70v86l76 5l14 134h96v-134h125v-91h-125v-234c0 -58 22 -86 69 -86c17 0 37 5 51 11l20 -85c-27 -9 -61 -18 -100 -18z" />
    <glyph glyph-name="u" unicode="u" horiz-adv-x="556" 
d="M219 -12c-105 0 -151 71 -151 195v308h115v-293c0 -81 23 -111 76 -111c43 0 72 20 109 68v336h115v-491h-94l-9 72h-3c-43 -51 -91 -84 -158 -84z" />
    <glyph glyph-name="v" unicode="v" horiz-adv-x="495" 
d="M183 0l-171 491h117l78 -255c13 -48 28 -98 41 -148h4c14 50 28 100 42 148l78 255h111l-167 -491h-133z" />
    <glyph glyph-name="w" unicode="w" horiz-adv-x="748" 
d="M154 0l-130 491h116l59 -255c10 -47 17 -93 26 -141h4c9 48 19 95 31 141l64 255h105l65 -255c12 -47 22 -93 33 -141h4c9 48 17 94 26 141l59 255h108l-125 -491h-137l-57 229c-11 46 -19 91 -30 143h-4c-9 -52 -18 -98 -29 -144l-56 -228h-132z" />
    <glyph glyph-name="x" unicode="x" horiz-adv-x="481" 
d="M14 0l156 256l-146 235h124l55 -93c14 -27 30 -56 45 -83h4c12 27 26 56 38 83l47 93h119l-145 -248l156 -243h-124l-60 97c-16 29 -33 59 -50 87h-4c-14 -28 -29 -57 -43 -87l-52 -97h-120z" />
    <glyph glyph-name="y" unicode="y" horiz-adv-x="495" 
d="M106 -202c-27 0 -46 4 -64 10l21 90c9 -3 23 -7 35 -7c52 0 82 35 98 84l9 31l-193 485h117l85 -241c14 -43 28 -92 43 -138h4c12 45 25 94 37 138l74 241h111l-178 -513c-41 -111 -92 -180 -199 -180z" />
    <glyph glyph-name="z" unicode="z" horiz-adv-x="443" 
d="M34 0v62l232 338h-206v91h350v-61l-231 -338h239v-92h-384z" />
    <glyph glyph-name="Agrave" unicode="&#xc0;" horiz-adv-x="558" 
d="M217 348l-23 -80h167l-23 80c-21 69 -40 144 -59 216h-4c-18 -73 -37 -147 -58 -216zM-2 0l213 654h136l213 -654h-122l-51 177h-220l-51 -177h-118zM291 688l-168 117l62 76l157 -135z" />
    <glyph glyph-name="Aacute" unicode="&#xc1;" horiz-adv-x="558" 
d="M217 348l-23 -80h167l-23 80c-21 69 -40 144 -59 216h-4c-18 -73 -37 -147 -58 -216zM-2 0l213 654h136l213 -654h-122l-51 177h-220l-51 -177h-118zM263 688l-51 58l157 135l62 -76z" />
    <glyph glyph-name="Acircumflex" unicode="&#xc2;" horiz-adv-x="558" 
d="M217 348l-23 -80h167l-23 80c-21 69 -40 144 -59 216h-4c-18 -73 -37 -147 -58 -216zM-2 0l213 654h136l213 -654h-122l-51 177h-220l-51 -177h-118zM118 725l97 111h124l97 -111l-50 -33l-107 88h-4l-107 -88z" />
    <glyph glyph-name="Atilde" unicode="&#xc3;" horiz-adv-x="558" 
d="M217 348l-23 -80h167l-23 80c-21 69 -40 144 -59 216h-4c-18 -73 -37 -147 -58 -216zM-2 0l213 654h136l213 -654h-122l-51 177h-220l-51 -177h-118zM350 700c-73 0 -103 64 -143 64c-22 0 -38 -17 -42 -57l-76 6c5 89 50 133 115 133c73 0 103 -64 143 -64
c22 0 37 18 42 58l76 -6c-5 -89 -50 -134 -115 -134z" />
    <glyph glyph-name="Adieresis" unicode="&#xc4;" horiz-adv-x="558" 
d="M217 348l-23 -80h167l-23 80c-21 69 -40 144 -59 216h-4c-18 -73 -37 -147 -58 -216zM-2 0l213 654h136l213 -654h-122l-51 177h-220l-51 -177h-118zM170 708c-35 0 -59 25 -59 59c0 35 24 60 59 60s60 -25 60 -60c0 -34 -25 -59 -60 -59zM384 708c-35 0 -60 25 -60 59
c0 35 25 60 60 60s59 -25 59 -60c0 -34 -24 -59 -59 -59z" />
    <glyph glyph-name="Amacron" unicode="&#x100;" horiz-adv-x="558" 
d="M217 348l-23 -80h167l-23 80c-21 69 -40 144 -59 216h-4c-18 -73 -37 -147 -58 -216zM-2 0l213 654h136l213 -654h-122l-51 177h-220l-51 -177h-118zM134 728v76h286v-76h-286z" />
    <glyph glyph-name="Abreve" unicode="&#x102;" horiz-adv-x="558" 
d="M217 348l-23 -80h167l-23 80c-21 69 -40 144 -59 216h-4c-18 -73 -37 -147 -58 -216zM-2 0l213 654h136l213 -654h-122l-51 177h-220l-51 -177h-118zM277 701c-96 0 -146 53 -155 133l66 11c8 -44 38 -75 89 -75s81 31 89 75l66 -11c-9 -80 -59 -133 -155 -133z" />
    <glyph glyph-name="Aring" unicode="&#xc5;" horiz-adv-x="558" 
d="M217 348l-23 -80h167l-23 80c-21 69 -40 144 -59 216h-4c-18 -73 -37 -147 -58 -216zM-2 0l213 654h136l213 -654h-122l-51 177h-220l-51 -177h-118zM277 698c-62 0 -106 37 -106 94c0 58 44 95 106 95c61 0 106 -37 106 -95c0 -57 -45 -94 -106 -94zM277 744
c25 0 46 18 46 48s-21 49 -46 49c-26 0 -47 -19 -47 -49s21 -48 47 -48z" />
    <glyph glyph-name="uni01CD" unicode="&#x1cd;" horiz-adv-x="558" 
d="M217 348l-23 -80h167l-23 80c-21 69 -40 144 -59 216h-4c-18 -73 -37 -147 -58 -216zM-2 0l213 654h136l213 -654h-122l-51 177h-220l-51 -177h-118zM215 704l-97 112l50 32l107 -88h4l107 88l50 -32l-97 -112h-124z" />
    <glyph glyph-name="uni1EA0" unicode="&#x1ea0;" horiz-adv-x="558" 
d="M217 348l-23 -80h167l-23 80c-21 69 -40 144 -59 216h-4c-18 -73 -37 -147 -58 -216zM-2 0l213 654h136l213 -654h-122l-51 177h-220l-51 -177h-118zM277 -217c-40 0 -68 27 -68 66c0 38 28 65 68 65s68 -27 68 -65c0 -39 -28 -66 -68 -66z" />
    <glyph glyph-name="uni1EA2" unicode="&#x1ea2;" horiz-adv-x="558" 
d="M217 348l-23 -80h167l-23 80c-21 69 -40 144 -59 216h-4c-18 -73 -37 -147 -58 -216zM-2 0l213 654h136l213 -654h-122l-51 177h-220l-51 -177h-118zM239 694l-10 49c28 6 50 16 50 37c0 23 -24 35 -81 38l13 61c106 -3 154 -34 154 -86c0 -63 -59 -91 -126 -99z" />
    <glyph glyph-name="uni1EA4" unicode="&#x1ea4;" horiz-adv-x="558" 
d="M217 348l-23 -80h167l-23 80c-21 69 -40 144 -59 216h-4c-18 -73 -37 -147 -58 -216zM-2 0l213 654h136l213 -654h-122l-51 177h-220l-51 -177h-118zM182 692l-46 33l91 95h100l91 -95l-46 -33l-93 70h-4zM414 761l-37 41l98 90l42 -50z" />
    <glyph glyph-name="uni1EA6" unicode="&#x1ea6;" horiz-adv-x="558" 
d="M217 348l-23 -80h167l-23 80c-21 69 -40 144 -59 216h-4c-18 -73 -37 -147 -58 -216zM-2 0l213 654h136l213 -654h-122l-51 177h-220l-51 -177h-118zM182 692l-46 33l91 95h100l91 -95l-46 -33l-93 70h-4zM177 800l-37 -39l-95 83l42 48z" />
    <glyph glyph-name="uni1EA8" unicode="&#x1ea8;" horiz-adv-x="558" 
d="M217 348l-23 -80h167l-23 80c-21 69 -40 144 -59 216h-4c-18 -73 -37 -147 -58 -216zM-2 0l213 654h136l213 -654h-122l-51 177h-220l-51 -177h-118zM182 692l-46 33l91 95h100l91 -95l-46 -33l-93 70h-4zM403 752l-11 41c22 5 39 13 39 32c0 22 -19 32 -68 35l11 52
c94 -4 133 -32 133 -77c0 -55 -47 -77 -104 -83z" />
    <glyph glyph-name="uni1EAA" unicode="&#x1eaa;" horiz-adv-x="558" 
d="M217 348l-23 -80h167l-23 80c-21 69 -40 144 -59 216h-4c-18 -73 -37 -147 -58 -216zM-2 0l213 654h136l213 -654h-122l-51 177h-220l-51 -177h-118zM182 692l-46 33l91 89h100l91 -89l-46 -33l-93 64h-4zM128 850c3 64 31 101 86 101c59 0 85 -47 119 -47
c21 0 31 15 35 43l58 -7c-3 -64 -31 -101 -86 -101c-59 0 -85 47 -119 47c-21 0 -31 -15 -35 -43z" />
    <glyph glyph-name="uni1EAC" unicode="&#x1eac;" horiz-adv-x="558" 
d="M217 348l-23 -80h167l-23 80c-21 69 -40 144 -59 216h-4c-18 -73 -37 -147 -58 -216zM-2 0l213 654h136l213 -654h-122l-51 177h-220l-51 -177h-118zM118 725l97 111h124l97 -111l-50 -33l-107 88h-4l-107 -88zM277 -217c-40 0 -68 27 -68 66c0 38 28 65 68 65
s68 -27 68 -65c0 -39 -28 -66 -68 -66z" />
    <glyph glyph-name="uni1EAE" unicode="&#x1eae;" horiz-adv-x="558" 
d="M217 348l-23 -80h167l-23 80c-21 69 -40 144 -59 216h-4c-18 -73 -37 -147 -58 -216zM-2 0l213 654h136l213 -654h-122l-51 177h-220l-51 -177h-118zM230 842l95 127l73 -47l-111 -118zM277 701c-96 0 -146 53 -155 133l60 11c9 -48 41 -81 95 -81s86 33 95 81l60 -11
c-9 -80 -59 -133 -155 -133z" />
    <glyph glyph-name="uni1EB0" unicode="&#x1eb0;" horiz-adv-x="558" 
d="M217 348l-23 -80h167l-23 80c-21 69 -40 144 -59 216h-4c-18 -73 -37 -147 -58 -216zM-2 0l213 654h136l213 -654h-122l-51 177h-220l-51 -177h-118zM324 842l-57 -38l-111 118l73 47zM277 701c-96 0 -146 53 -155 133l60 11c9 -48 41 -81 95 -81s86 33 95 81l60 -11
c-9 -80 -59 -133 -155 -133z" />
    <glyph glyph-name="uni1EB2" unicode="&#x1eb2;" horiz-adv-x="558" 
d="M217 348l-23 -80h167l-23 80c-21 69 -40 144 -59 216h-4c-18 -73 -37 -147 -58 -216zM-2 0l213 654h136l213 -654h-122l-51 177h-220l-51 -177h-118zM249 803l-11 41c22 5 39 13 39 32c0 22 -19 32 -68 36l11 51c94 -3 133 -31 133 -77c0 -55 -47 -76 -104 -83zM277 701
c-96 0 -146 53 -155 133l60 11c9 -48 41 -81 95 -81s86 33 95 81l60 -11c-9 -80 -59 -133 -155 -133z" />
    <glyph glyph-name="uni1EB4" unicode="&#x1eb4;" horiz-adv-x="558" 
d="M217 348l-23 -80h167l-23 80c-21 69 -40 144 -59 216h-4c-18 -73 -37 -147 -58 -216zM-2 0l213 654h136l213 -654h-122l-51 177h-220l-51 -177h-118zM277 705c-96 0 -143 47 -150 109l58 10c8 -32 34 -61 92 -61s84 29 92 61l58 -10c-7 -62 -54 -109 -150 -109zM128 856
c3 64 31 101 86 101c59 0 85 -47 119 -47c21 0 31 15 35 43l58 -7c-3 -64 -31 -101 -86 -101c-59 0 -85 47 -119 47c-21 0 -31 -15 -35 -43z" />
    <glyph glyph-name="uni1EB6" unicode="&#x1eb6;" horiz-adv-x="558" 
d="M217 348l-23 -80h167l-23 80c-21 69 -40 144 -59 216h-4c-18 -73 -37 -147 -58 -216zM-2 0l213 654h136l213 -654h-122l-51 177h-220l-51 -177h-118zM277 701c-96 0 -146 53 -155 133l66 11c8 -44 38 -75 89 -75s81 31 89 75l66 -11c-9 -80 -59 -133 -155 -133zM277 -217
c-40 0 -68 27 -68 66c0 38 28 65 68 65s68 -27 68 -65c0 -39 -28 -66 -68 -66z" />
    <glyph glyph-name="Aogonek" unicode="&#x104;" horiz-adv-x="558" 
d="M494 -218c-58 0 -105 32 -105 91c0 58 45 106 78 127h-29l-51 177h-220l-51 -177h-118l213 654h136l213 -654c-50 -12 -85 -58 -85 -98c0 -28 20 -42 43 -42c16 0 29 5 40 14l28 -60c-22 -18 -61 -32 -92 -32zM217 348l-23 -80h167l-23 80c-21 69 -40 144 -59 216h-4
c-18 -73 -37 -147 -58 -216z" />
    <glyph glyph-name="AE" unicode="&#xc6;" horiz-adv-x="834" 
d="M297 366l-51 -105h148v304h-4c-32 -67 -62 -135 -93 -199zM-3 0l327 654h449v-98h-263v-167h221v-98h-221v-193h273v-98h-389v170h-192l-83 -170h-122z" />
    <glyph glyph-name="uni01FC" unicode="&#x1fc;" horiz-adv-x="834" 
d="M297 366l-51 -105h148v304h-4c-32 -67 -62 -135 -93 -199zM-3 0l327 654h449v-98h-263v-167h221v-98h-221v-193h273v-98h-389v170h-192l-83 -170h-122zM536 701l-51 58l157 135l62 -76z" />
    <glyph glyph-name="uni01E2" unicode="&#x1e2;" horiz-adv-x="834" 
d="M297 366l-51 -105h148v304h-4c-32 -67 -62 -135 -93 -199zM-3 0l327 654h449v-98h-263v-167h221v-98h-221v-193h273v-98h-389v170h-192l-83 -170h-122zM407 741v76h286v-76h-286z" />
    <glyph glyph-name="uni0243" unicode="&#x243;" horiz-adv-x="616" 
d="M104 0v176h-76v54l76 5v419h209c134 0 233 -42 233 -158c0 -59 -35 -113 -112 -133v-4c94 -17 147 -69 147 -161c0 -135 -107 -198 -251 -198h-226zM220 389h82c92 0 133 35 133 96c0 60 -45 85 -130 85h-85v-181zM220 84h98c96 0 152 41 152 122c0 77 -55 112 -152 112
h-98v-83h138v-59h-138v-92z" />
    <glyph glyph-name="uni1E06" unicode="&#x1e06;" horiz-adv-x="597" 
d="M83 0v654h209c135 0 234 -41 234 -161c0 -62 -34 -122 -91 -142v-4c72 -16 125 -67 125 -155c0 -131 -107 -192 -251 -192h-226zM199 384h83c91 0 130 36 130 92c0 64 -43 88 -128 88h-85v-180zM199 90h98c96 0 150 35 150 108c0 69 -52 99 -150 99h-98v-207zM167 -180
v76h280v-76h-280z" />
    <glyph glyph-name="Ccedilla" unicode="&#xc7;" horiz-adv-x="576" 
d="M252 -233l-10 50c81 5 106 18 106 47c0 23 -18 37 -77 45l39 81c-148 15 -261 133 -261 335c0 214 134 341 299 341c82 0 148 -39 189 -83l-62 -75c-34 34 -73 57 -124 57c-107 0 -183 -90 -183 -237c0 -149 70 -239 180 -239c58 0 103 27 140 67l62 -73
c-45 -52 -101 -84 -169 -93l-23 -52c48 -12 75 -32 75 -73c0 -63 -66 -93 -181 -98z" />
    <glyph glyph-name="Cacute" unicode="&#x106;" horiz-adv-x="576" 
d="M344 -12c-165 0 -295 120 -295 337c0 214 134 341 299 341c82 0 148 -39 189 -83l-62 -75c-34 34 -73 57 -124 57c-107 0 -183 -90 -183 -237c0 -149 70 -239 180 -239c58 0 103 27 140 67l62 -73c-53 -61 -122 -95 -206 -95zM323 688l-51 58l157 135l62 -76z" />
    <glyph glyph-name="Ccircumflex" unicode="&#x108;" horiz-adv-x="576" 
d="M344 -12c-165 0 -295 120 -295 337c0 214 134 341 299 341c82 0 148 -39 189 -83l-62 -75c-34 34 -73 57 -124 57c-107 0 -183 -90 -183 -237c0 -149 70 -239 180 -239c58 0 103 27 140 67l62 -73c-53 -61 -122 -95 -206 -95zM178 725l97 111h124l97 -111l-50 -33
l-107 88h-4l-107 -88z" />
    <glyph glyph-name="Ccaron" unicode="&#x10c;" horiz-adv-x="576" 
d="M344 -12c-165 0 -295 120 -295 337c0 214 134 341 299 341c82 0 148 -39 189 -83l-62 -75c-34 34 -73 57 -124 57c-107 0 -183 -90 -183 -237c0 -149 70 -239 180 -239c58 0 103 27 140 67l62 -73c-53 -61 -122 -95 -206 -95zM275 704l-97 112l50 32l107 -88h4l107 88
l50 -32l-97 -112h-124z" />
    <glyph glyph-name="Cdotaccent" unicode="&#x10a;" horiz-adv-x="576" 
d="M344 -12c-165 0 -295 120 -295 337c0 214 134 341 299 341c82 0 148 -39 189 -83l-62 -75c-34 34 -73 57 -124 57c-107 0 -183 -90 -183 -237c0 -149 70 -239 180 -239c58 0 103 27 140 67l62 -73c-53 -61 -122 -95 -206 -95zM337 707c-41 0 -71 27 -71 66
c0 38 30 65 71 65s71 -27 71 -65c0 -39 -30 -66 -71 -66z" />
    <glyph glyph-name="Dcaron" unicode="&#x10e;" horiz-adv-x="625" 
d="M83 0v654h175c200 0 318 -108 318 -324c0 -217 -118 -330 -312 -330h-181zM199 94h51c132 0 207 75 207 236c0 160 -75 230 -207 230h-51v-466zM251 704l-97 112l50 32l107 -88h4l107 88l50 -32l-97 -112h-124z" />
    <glyph glyph-name="uni1E0C" unicode="&#x1e0c;" horiz-adv-x="625" 
d="M83 0v654h175c200 0 318 -108 318 -324c0 -217 -118 -330 -312 -330h-181zM199 94h51c132 0 207 75 207 236c0 160 -75 230 -207 230h-51v-466zM309 -217c-40 0 -68 27 -68 66c0 38 28 65 68 65s68 -27 68 -65c0 -39 -28 -66 -68 -66z" />
    <glyph glyph-name="uni1E0E" unicode="&#x1e0e;" horiz-adv-x="625" 
d="M83 0v654h175c200 0 318 -108 318 -324c0 -217 -118 -330 -312 -330h-181zM199 94h51c132 0 207 75 207 236c0 160 -75 230 -207 230h-51v-466zM169 -180v76h280v-76h-280z" />
    <glyph glyph-name="Dcroat" unicode="&#x110;" horiz-adv-x="649" 
d="M30 311v55l77 4v284h175c200 0 318 -108 318 -324c0 -217 -118 -330 -312 -330h-181v311h-77zM223 94h51c132 0 207 75 207 236c0 160 -75 230 -207 230h-51v-190h137v-59h-137v-217z" />
    <glyph glyph-name="Egrave" unicode="&#xc8;" horiz-adv-x="538" 
d="M83 0v654h394v-98h-278v-167h235v-98h-235v-193h288v-98h-404zM300 688l-168 117l62 76l157 -135z" />
    <glyph glyph-name="Eacute" unicode="&#xc9;" horiz-adv-x="538" 
d="M83 0v654h394v-98h-278v-167h235v-98h-235v-193h288v-98h-404zM272 688l-51 58l157 135l62 -76z" />
    <glyph glyph-name="Ecircumflex" unicode="&#xca;" horiz-adv-x="538" 
d="M83 0v654h394v-98h-278v-167h235v-98h-235v-193h288v-98h-404zM127 725l97 111h124l97 -111l-50 -33l-107 88h-4l-107 -88z" />
    <glyph glyph-name="Ecaron" unicode="&#x11a;" horiz-adv-x="538" 
d="M83 0v654h394v-98h-278v-167h235v-98h-235v-193h288v-98h-404zM224 704l-97 112l50 32l107 -88h4l107 88l50 -32l-97 -112h-124z" />
    <glyph glyph-name="Edieresis" unicode="&#xcb;" horiz-adv-x="538" 
d="M83 0v654h394v-98h-278v-167h235v-98h-235v-193h288v-98h-404zM179 708c-35 0 -59 25 -59 59c0 35 24 60 59 60s60 -25 60 -60c0 -34 -25 -59 -60 -59zM393 708c-35 0 -60 25 -60 59c0 35 25 60 60 60s59 -25 59 -60c0 -34 -24 -59 -59 -59z" />
    <glyph glyph-name="Emacron" unicode="&#x112;" horiz-adv-x="538" 
d="M83 0v654h394v-98h-278v-167h235v-98h-235v-193h288v-98h-404zM143 728v76h286v-76h-286z" />
    <glyph glyph-name="Ebreve" unicode="&#x114;" horiz-adv-x="538" 
d="M83 0v654h394v-98h-278v-167h235v-98h-235v-193h288v-98h-404zM286 701c-96 0 -146 53 -155 133l66 11c8 -44 38 -75 89 -75s81 31 89 75l66 -11c-9 -80 -59 -133 -155 -133z" />
    <glyph glyph-name="Edotaccent" unicode="&#x116;" horiz-adv-x="538" 
d="M83 0v654h394v-98h-278v-167h235v-98h-235v-193h288v-98h-404zM286 707c-41 0 -71 27 -71 66c0 38 30 65 71 65s71 -27 71 -65c0 -39 -30 -66 -71 -66z" />
    <glyph glyph-name="uni1EB8" unicode="&#x1eb8;" horiz-adv-x="538" 
d="M83 0v654h394v-98h-278v-167h235v-98h-235v-193h288v-98h-404zM295 -217c-40 0 -68 27 -68 66c0 38 28 65 68 65s68 -27 68 -65c0 -39 -28 -66 -68 -66z" />
    <glyph glyph-name="uni1EBA" unicode="&#x1eba;" horiz-adv-x="538" 
d="M83 0v654h394v-98h-278v-167h235v-98h-235v-193h288v-98h-404zM248 694l-10 49c28 6 50 16 50 37c0 23 -24 35 -81 38l13 61c106 -3 154 -34 154 -86c0 -63 -59 -91 -126 -99z" />
    <glyph glyph-name="uni1EBC" unicode="&#x1ebc;" horiz-adv-x="538" 
d="M83 0v654h394v-98h-278v-167h235v-98h-235v-193h288v-98h-404zM359 700c-73 0 -103 64 -143 64c-22 0 -38 -17 -42 -57l-76 6c5 89 50 133 115 133c73 0 103 -64 143 -64c22 0 37 18 42 58l76 -6c-5 -89 -50 -134 -115 -134z" />
    <glyph glyph-name="uni1EBE" unicode="&#x1ebe;" horiz-adv-x="538" 
d="M83 0v654h394v-98h-278v-167h235v-98h-235v-193h288v-98h-404zM191 692l-46 33l91 95h100l91 -95l-46 -33l-93 70h-4zM423 761l-37 41l98 90l42 -50z" />
    <glyph glyph-name="uni1EC0" unicode="&#x1ec0;" horiz-adv-x="538" 
d="M83 0v654h394v-98h-278v-167h235v-98h-235v-193h288v-98h-404zM191 692l-46 33l91 95h100l91 -95l-46 -33l-93 70h-4zM186 800l-37 -39l-95 83l42 48z" />
    <glyph glyph-name="uni1EC2" unicode="&#x1ec2;" horiz-adv-x="538" 
d="M83 0v654h394v-98h-278v-167h235v-98h-235v-193h288v-98h-404zM191 692l-46 33l91 95h100l91 -95l-46 -33l-93 70h-4zM412 752l-11 41c22 5 39 13 39 32c0 22 -19 32 -68 35l11 52c94 -4 133 -32 133 -77c0 -55 -47 -77 -104 -83z" />
    <glyph glyph-name="uni1EC4" unicode="&#x1ec4;" horiz-adv-x="538" 
d="M83 0v654h394v-98h-278v-167h235v-98h-235v-193h288v-98h-404zM191 692l-46 33l91 89h100l91 -89l-46 -33l-93 64h-4zM137 850c3 64 31 101 86 101c59 0 85 -47 119 -47c21 0 31 15 35 43l58 -7c-3 -64 -31 -101 -86 -101c-59 0 -85 47 -119 47c-21 0 -31 -15 -35 -43z
" />
    <glyph glyph-name="uni1EC6" unicode="&#x1ec6;" horiz-adv-x="538" 
d="M83 0v654h394v-98h-278v-167h235v-98h-235v-193h288v-98h-404zM127 725l97 111h124l97 -111l-50 -33l-107 88h-4l-107 -88zM295 -217c-40 0 -68 27 -68 66c0 38 28 65 68 65s68 -27 68 -65c0 -39 -28 -66 -68 -66z" />
    <glyph glyph-name="Eogonek" unicode="&#x118;" horiz-adv-x="538" 
d="M412 -218c-58 0 -105 32 -105 91c0 58 41 105 77 127h-301v654h394v-98h-278v-167h235v-98h-235v-193h288v-98h-5c-45 -4 -88 -50 -88 -98c0 -29 22 -42 44 -42c15 0 27 6 38 14l29 -60c-23 -18 -62 -32 -93 -32z" />
    <glyph glyph-name="uni1E16" unicode="&#x1e16;" horiz-adv-x="538" 
d="M83 0v654h394v-98h-278v-167h235v-98h-235v-193h288v-98h-404zM260 830l-40 53l139 105l49 -65zM142 728v76h286v-76h-286z" />
    <glyph glyph-name="uni01F4" unicode="&#x1f4;" horiz-adv-x="628" 
d="M357 -12c-177 0 -308 120 -308 337c0 214 135 341 309 341c93 0 157 -41 198 -83l-62 -75c-33 32 -71 57 -132 57c-116 0 -194 -90 -194 -237c0 -149 69 -239 200 -239c37 0 73 10 94 29v141h-124v95h228v-288c-44 -44 -120 -78 -209 -78zM346 688l-51 58l157 135l62 -76
z" />
    <glyph glyph-name="Gcircumflex" unicode="&#x11c;" horiz-adv-x="628" 
d="M357 -12c-177 0 -308 120 -308 337c0 214 135 341 309 341c93 0 157 -41 198 -83l-62 -75c-33 32 -71 57 -132 57c-116 0 -194 -90 -194 -237c0 -149 69 -239 200 -239c37 0 73 10 94 29v141h-124v95h228v-288c-44 -44 -120 -78 -209 -78zM201 725l97 111h124l97 -111
l-50 -33l-107 88h-4l-107 -88z" />
    <glyph glyph-name="Gbreve" unicode="&#x11e;" horiz-adv-x="628" 
d="M357 -12c-177 0 -308 120 -308 337c0 214 135 341 309 341c93 0 157 -41 198 -83l-62 -75c-33 32 -71 57 -132 57c-116 0 -194 -90 -194 -237c0 -149 69 -239 200 -239c37 0 73 10 94 29v141h-124v95h228v-288c-44 -44 -120 -78 -209 -78zM360 701
c-96 0 -146 53 -155 133l66 11c8 -44 38 -75 89 -75s81 31 89 75l66 -11c-9 -80 -59 -133 -155 -133z" />
    <glyph glyph-name="Gdotaccent" unicode="&#x120;" horiz-adv-x="628" 
d="M357 -12c-177 0 -308 120 -308 337c0 214 135 341 309 341c93 0 157 -41 198 -83l-62 -75c-33 32 -71 57 -132 57c-116 0 -194 -90 -194 -237c0 -149 69 -239 200 -239c37 0 73 10 94 29v141h-124v95h228v-288c-44 -44 -120 -78 -209 -78zM360 707c-41 0 -71 27 -71 66
c0 38 30 65 71 65s71 -27 71 -65c0 -39 -30 -66 -71 -66z" />
    <glyph glyph-name="uni0122" unicode="&#x122;" horiz-adv-x="628" 
d="M357 -12c-177 0 -308 120 -308 337c0 214 135 341 309 341c93 0 157 -41 198 -83l-62 -75c-33 32 -71 57 -132 57c-116 0 -194 -90 -194 -237c0 -149 69 -239 200 -239c37 0 73 10 94 29v141h-124v95h228v-288c-44 -44 -120 -78 -209 -78zM262 -233l-10 50
c81 5 106 18 106 43c0 23 -22 35 -68 39l24 46c97 -9 129 -33 129 -80c0 -63 -66 -93 -181 -98z" />
    <glyph glyph-name="Gcaron" unicode="&#x1e6;" horiz-adv-x="628" 
d="M357 -12c-177 0 -308 120 -308 337c0 214 135 341 309 341c93 0 157 -41 198 -83l-62 -75c-33 32 -71 57 -132 57c-116 0 -194 -90 -194 -237c0 -149 69 -239 200 -239c37 0 73 10 94 29v141h-124v95h228v-288c-44 -44 -120 -78 -209 -78zM298 704l-97 112l50 32l107 -88
h4l107 88l50 -32l-97 -112h-124z" />
    <glyph glyph-name="uni1E20" unicode="&#x1e20;" horiz-adv-x="628" 
d="M357 -12c-177 0 -308 120 -308 337c0 214 135 341 309 341c93 0 157 -41 198 -83l-62 -75c-33 32 -71 57 -132 57c-116 0 -194 -90 -194 -237c0 -149 69 -239 200 -239c37 0 73 10 94 29v141h-124v95h228v-288c-44 -44 -120 -78 -209 -78zM217 728v76h286v-76h-286z" />
    <glyph glyph-name="uni00470303" horiz-adv-x="628" 
d="M357 -12c-177 0 -308 120 -308 337c0 214 135 341 309 341c93 0 157 -41 198 -83l-62 -75c-33 32 -71 57 -132 57c-116 0 -194 -90 -194 -237c0 -149 69 -239 200 -239c37 0 73 10 94 29v141h-124v95h228v-288c-44 -44 -120 -78 -209 -78zM433 700c-73 0 -103 64 -143 64
c-22 0 -38 -17 -42 -57l-76 6c5 89 50 133 115 133c73 0 103 -64 143 -64c22 0 37 18 42 58l76 -6c-5 -89 -50 -134 -115 -134z" />
    <glyph glyph-name="uni0193" unicode="&#x193;" horiz-adv-x="628" 
d="M357 -12c-177 0 -308 120 -308 337c0 214 135 341 309 341c26 0 50 -3 71 -7c-2 9 -3 18 -3 27c0 70 50 125 129 125c34 0 55 -6 74 -13l-21 -86c-11 4 -19 8 -31 8c-32 0 -53 -20 -53 -51c0 -28 13 -46 32 -72l-62 -75c-33 24 -71 43 -132 43c-116 0 -194 -90 -194 -237
c0 -149 69 -239 200 -239c37 0 73 10 94 29v141h-124v95h228v-288c-44 -44 -120 -78 -209 -78z" />
    <glyph glyph-name="Hcircumflex" unicode="&#x124;" horiz-adv-x="663" 
d="M83 0v654h116v-263h265v263h116v-654h-116v290h-265v-290h-116zM172 725l97 111h124l97 -111l-50 -33l-107 88h-4l-107 -88z" />
    <glyph glyph-name="uni1E24" unicode="&#x1e24;" horiz-adv-x="663" 
d="M83 0v654h116v-263h265v263h116v-654h-116v290h-265v-290h-116zM331 -217c-40 0 -68 27 -68 66c0 38 28 65 68 65s68 -27 68 -65c0 -39 -28 -66 -68 -66z" />
    <glyph glyph-name="uni1E2A" unicode="&#x1e2a;" horiz-adv-x="663" 
d="M83 0v654h116v-263h265v263h116v-654h-116v290h-265v-290h-116zM331 -233c-111 0 -158 73 -163 155l68 11c7 -47 36 -92 95 -92s88 45 95 92l68 -11c-5 -82 -52 -155 -163 -155z" />
    <glyph glyph-name="Hbar" unicode="&#x126;" horiz-adv-x="700" 
d="M28 489v54l75 5v106h116v-106h265v106h116v-106h71v-59h-71v-489h-116v290h-265v-290h-116v489h-75zM219 391h265v98h-265v-98z" />
    <glyph glyph-name="Igrave" unicode="&#xcc;" horiz-adv-x="282" 
d="M83 0v654h116v-654h-116zM155 688l-168 117l62 76l157 -135z" />
    <glyph glyph-name="Iacute" unicode="&#xcd;" horiz-adv-x="282" 
d="M83 0v654h116v-654h-116zM127 688l-51 58l157 135l62 -76z" />
    <glyph glyph-name="Icircumflex" unicode="&#xce;" horiz-adv-x="282" 
d="M83 0v654h116v-654h-116zM-18 725l97 111h124l97 -111l-50 -33l-107 88h-4l-107 -88z" />
    <glyph glyph-name="Itilde" unicode="&#x128;" horiz-adv-x="282" 
d="M83 0v654h116v-654h-116zM214 700c-73 0 -103 64 -143 64c-22 0 -38 -17 -42 -57l-76 6c5 89 50 133 115 133c73 0 103 -64 143 -64c22 0 37 18 42 58l76 -6c-5 -89 -50 -134 -115 -134z" />
    <glyph glyph-name="Idieresis" unicode="&#xcf;" horiz-adv-x="282" 
d="M83 0v654h116v-654h-116zM34 708c-35 0 -59 25 -59 59c0 35 24 60 59 60s60 -25 60 -60c0 -34 -25 -59 -60 -59zM248 708c-35 0 -60 25 -60 59c0 35 25 60 60 60s59 -25 59 -60c0 -34 -24 -59 -59 -59z" />
    <glyph glyph-name="Imacron" unicode="&#x12a;" horiz-adv-x="282" 
d="M83 0v654h116v-654h-116zM-2 728v76h286v-76h-286z" />
    <glyph glyph-name="Idotaccent" unicode="&#x130;" horiz-adv-x="282" 
d="M83 0v654h116v-654h-116zM141 707c-41 0 -71 27 -71 66c0 38 30 65 71 65s71 -27 71 -65c0 -39 -30 -66 -71 -66z" />
    <glyph glyph-name="uni01CF" unicode="&#x1cf;" horiz-adv-x="282" 
d="M83 0v654h116v-654h-116zM79 704l-97 112l50 32l107 -88h4l107 88l50 -32l-97 -112h-124z" />
    <glyph glyph-name="uni1EC8" unicode="&#x1ec8;" horiz-adv-x="282" 
d="M83 0v654h116v-654h-116zM103 694l-10 49c28 6 50 16 50 37c0 23 -24 35 -81 38l13 61c106 -3 154 -34 154 -86c0 -63 -59 -91 -126 -99z" />
    <glyph glyph-name="uni1ECA" unicode="&#x1eca;" horiz-adv-x="282" 
d="M83 0v654h116v-654h-116zM142 -217c-40 0 -68 27 -68 66c0 38 28 65 68 65s68 -27 68 -65c0 -39 -28 -66 -68 -66z" />
    <glyph glyph-name="Iogonek" unicode="&#x12e;" horiz-adv-x="282" 
d="M148 -218c-58 0 -105 32 -105 91c0 61 40 102 70 127h-30v654h116v-654c-47 -27 -70 -61 -70 -98c0 -29 23 -42 44 -42c15 0 29 6 39 14l28 -60c-22 -18 -61 -32 -92 -32z" />
    <glyph glyph-name="uni012C" unicode="&#x12c;" horiz-adv-x="282" 
d="M83 0v654h116v-654h-116zM141 701c-96 0 -146 53 -155 133l66 11c8 -44 38 -75 89 -75s81 31 89 75l66 -11c-9 -80 -59 -133 -155 -133z" />
    <glyph glyph-name="Jcircumflex" unicode="&#x134;" horiz-adv-x="494" 
d="M219 -12c-91 0 -154 38 -195 111l80 59c26 -48 62 -69 102 -69c61 0 92 33 92 126v439h116v-449c0 -119 -58 -217 -195 -217zM195 725l97 111h124l97 -111l-50 -33l-107 88h-4l-107 -88z" />
    <glyph glyph-name="uni0136" unicode="&#x136;" horiz-adv-x="597" 
d="M83 0v654h116v-297h3l233 297h129l-201 -255l235 -399h-128l-177 308l-94 -117v-191h-116zM235 -233l-10 50c81 5 106 18 106 43c0 23 -22 35 -68 39l24 46c97 -9 129 -33 129 -80c0 -63 -66 -93 -181 -98z" />
    <glyph glyph-name="uni1E32" unicode="&#x1e32;" horiz-adv-x="597" 
d="M83 0v654h116v-297h3l233 297h129l-201 -255l235 -399h-128l-177 308l-94 -117v-191h-116zM330 -217c-40 0 -68 27 -68 66c0 38 28 65 68 65s68 -27 68 -65c0 -39 -28 -66 -68 -66z" />
    <glyph glyph-name="uni1E34" unicode="&#x1e34;" horiz-adv-x="597" 
d="M83 0v654h116v-297h3l233 297h129l-201 -255l235 -399h-128l-177 308l-94 -117v-191h-116zM188 -180v76h280v-76h-280z" />
    <glyph glyph-name="Lacute" unicode="&#x139;" horiz-adv-x="502" 
d="M83 0v654h116v-556h272v-98h-388zM130 688l-51 58l157 135l62 -76z" />
    <glyph glyph-name="Lcaron" unicode="&#x13d;" horiz-adv-x="502" 
d="M83 0v654h116v-556h272v-98h-388zM343 512l-5 217h77l-1 -63l-19 -154h-52z" />
    <glyph glyph-name="uni013B" unicode="&#x13b;" horiz-adv-x="502" 
d="M83 0v654h116v-556h272v-98h-388zM195 -233l-10 50c81 5 106 18 106 43c0 23 -22 35 -68 39l24 46c97 -9 129 -33 129 -80c0 -63 -66 -93 -181 -98z" />
    <glyph glyph-name="Ldot" unicode="&#x13f;" horiz-adv-x="502" 
d="M83 0v654h116v-556h272v-98h-388zM394 249c-42 0 -75 33 -75 78s33 78 75 78s74 -33 74 -78s-32 -78 -74 -78z" />
    <glyph glyph-name="uni1E36" unicode="&#x1e36;" horiz-adv-x="502" 
d="M83 0v654h116v-556h272v-98h-388zM289 -217c-40 0 -68 27 -68 66c0 38 28 65 68 65s68 -27 68 -65c0 -39 -28 -66 -68 -66z" />
    <glyph glyph-name="uni1E38" unicode="&#x1e38;" horiz-adv-x="502" 
d="M83 0v654h116v-556h272v-98h-388zM1 728v76h286v-76h-286zM289 -217c-40 0 -68 27 -68 66c0 38 28 65 68 65s68 -27 68 -65c0 -39 -28 -66 -68 -66z" />
    <glyph glyph-name="uni1E3A" unicode="&#x1e3a;" horiz-adv-x="502" 
d="M83 0v654h116v-556h272v-98h-388zM149 -180v76h280v-76h-280z" />
    <glyph glyph-name="Lslash" unicode="&#x141;" horiz-adv-x="507" 
d="M26 188l-41 70l104 58v338h116v-286l167 92l40 -71l-207 -112v-179h272v-98h-388v225z" />
    <glyph glyph-name="uni1E3E" unicode="&#x1e3e;" horiz-adv-x="745" 
d="M83 0v654h131l116 -320c14 -41 28 -85 42 -128h4c14 43 27 87 41 128l113 320h132v-654h-107v299c0 61 9 148 15 208h-4l-53 -152l-107 -294h-69l-108 294l-52 152h-4c5 -60 15 -147 15 -208v-299h-105zM358 688l-51 58l157 135l62 -76z" />
    <glyph glyph-name="uni1E40" unicode="&#x1e40;" horiz-adv-x="745" 
d="M83 0v654h131l116 -320c14 -41 28 -85 42 -128h4c14 43 27 87 41 128l113 320h132v-654h-107v299c0 61 9 148 15 208h-4l-53 -152l-107 -294h-69l-108 294l-52 152h-4c5 -60 15 -147 15 -208v-299h-105zM372 707c-41 0 -71 27 -71 66c0 38 30 65 71 65s71 -27 71 -65
c0 -39 -30 -66 -71 -66z" />
    <glyph glyph-name="uni1E42" unicode="&#x1e42;" horiz-adv-x="745" 
d="M83 0v654h131l116 -320c14 -41 28 -85 42 -128h4c14 43 27 87 41 128l113 320h132v-654h-107v299c0 61 9 148 15 208h-4l-53 -152l-107 -294h-69l-108 294l-52 152h-4c5 -60 15 -147 15 -208v-299h-105zM374 -217c-40 0 -68 27 -68 66c0 38 28 65 68 65s68 -27 68 -65
c0 -39 -28 -66 -68 -66z" />
    <glyph glyph-name="Nacute" unicode="&#x143;" horiz-adv-x="656" 
d="M83 0v654h119l204 -368l67 -139h4c-5 67 -15 150 -15 223v284h111v-654h-119l-204 368l-67 139h-4c5 -69 15 -148 15 -221v-286h-111zM316 688l-51 58l157 135l62 -76z" />
    <glyph glyph-name="uni01F8" unicode="&#x1f8;" horiz-adv-x="656" 
d="M83 0v654h119l204 -368l67 -139h4c-5 67 -15 150 -15 223v284h111v-654h-119l-204 368l-67 139h-4c5 -69 15 -148 15 -221v-286h-111zM344 688l-168 117l62 76l157 -135z" />
    <glyph glyph-name="Ncaron" unicode="&#x147;" horiz-adv-x="656" 
d="M83 0v654h119l204 -368l67 -139h4c-5 67 -15 150 -15 223v284h111v-654h-119l-204 368l-67 139h-4c5 -69 15 -148 15 -221v-286h-111zM268 704l-97 112l50 32l107 -88h4l107 88l50 -32l-97 -112h-124z" />
    <glyph glyph-name="Ntilde" unicode="&#xd1;" horiz-adv-x="656" 
d="M83 0v654h119l204 -368l67 -139h4c-5 67 -15 150 -15 223v284h111v-654h-119l-204 368l-67 139h-4c5 -69 15 -148 15 -221v-286h-111zM403 700c-73 0 -103 64 -143 64c-22 0 -38 -17 -42 -57l-76 6c5 89 50 133 115 133c73 0 103 -64 143 -64c22 0 37 18 42 58l76 -6
c-5 -89 -50 -134 -115 -134z" />
    <glyph glyph-name="uni0145" unicode="&#x145;" horiz-adv-x="656" 
d="M83 0v654h119l204 -368l67 -139h4c-5 67 -15 150 -15 223v284h111v-654h-119l-204 368l-67 139h-4c5 -69 15 -148 15 -221v-286h-111zM242 -233l-10 50c81 5 106 18 106 43c0 23 -22 35 -68 39l24 46c97 -9 129 -33 129 -80c0 -63 -66 -93 -181 -98z" />
    <glyph glyph-name="uni1E44" unicode="&#x1e44;" horiz-adv-x="656" 
d="M83 0v654h119l204 -368l67 -139h4c-5 67 -15 150 -15 223v284h111v-654h-119l-204 368l-67 139h-4c5 -69 15 -148 15 -221v-286h-111zM330 707c-41 0 -71 27 -71 66c0 38 30 65 71 65s71 -27 71 -65c0 -39 -30 -66 -71 -66z" />
    <glyph glyph-name="uni1E46" unicode="&#x1e46;" horiz-adv-x="656" 
d="M83 0v654h119l204 -368l67 -139h4c-5 67 -15 150 -15 223v284h111v-654h-119l-204 368l-67 139h-4c5 -69 15 -148 15 -221v-286h-111zM336 -217c-40 0 -68 27 -68 66c0 38 28 65 68 65s68 -27 68 -65c0 -39 -28 -66 -68 -66z" />
    <glyph glyph-name="uni1E48" unicode="&#x1e48;" horiz-adv-x="656" 
d="M83 0v654h119l204 -368l67 -139h4c-5 67 -15 150 -15 223v284h111v-654h-119l-204 368l-67 139h-4c5 -69 15 -148 15 -221v-286h-111zM196 -180v76h280v-76h-280z" />
    <glyph glyph-name="Ograve" unicode="&#xd2;" horiz-adv-x="674" 
d="M337 -12c-170 0 -288 130 -288 342c0 211 118 336 288 336c171 0 289 -125 289 -336c0 -212 -118 -342 -289 -342zM337 89c103 0 169 94 169 241c0 146 -66 235 -169 235s-169 -89 -169 -235c0 -147 66 -241 169 -241zM351 688l-168 117l62 76l157 -135z" />
    <glyph glyph-name="Oacute" unicode="&#xd3;" horiz-adv-x="674" 
d="M337 -12c-170 0 -288 130 -288 342c0 211 118 336 288 336c171 0 289 -125 289 -336c0 -212 -118 -342 -289 -342zM337 89c103 0 169 94 169 241c0 146 -66 235 -169 235s-169 -89 -169 -235c0 -147 66 -241 169 -241zM323 688l-51 58l157 135l62 -76z" />
    <glyph glyph-name="Ocircumflex" unicode="&#xd4;" horiz-adv-x="674" 
d="M337 -12c-170 0 -288 130 -288 342c0 211 118 336 288 336c171 0 289 -125 289 -336c0 -212 -118 -342 -289 -342zM337 89c103 0 169 94 169 241c0 146 -66 235 -169 235s-169 -89 -169 -235c0 -147 66 -241 169 -241zM178 725l97 111h124l97 -111l-50 -33l-107 88h-4
l-107 -88z" />
    <glyph glyph-name="Otilde" unicode="&#xd5;" horiz-adv-x="674" 
d="M337 -12c-170 0 -288 130 -288 342c0 211 118 336 288 336c171 0 289 -125 289 -336c0 -212 -118 -342 -289 -342zM337 89c103 0 169 94 169 241c0 146 -66 235 -169 235s-169 -89 -169 -235c0 -147 66 -241 169 -241zM410 700c-73 0 -103 64 -143 64
c-22 0 -38 -17 -42 -57l-76 6c5 89 50 133 115 133c73 0 103 -64 143 -64c22 0 37 18 42 58l76 -6c-5 -89 -50 -134 -115 -134z" />
    <glyph glyph-name="Odieresis" unicode="&#xd6;" horiz-adv-x="674" 
d="M337 -12c-170 0 -288 130 -288 342c0 211 118 336 288 336c171 0 289 -125 289 -336c0 -212 -118 -342 -289 -342zM337 89c103 0 169 94 169 241c0 146 -66 235 -169 235s-169 -89 -169 -235c0 -147 66 -241 169 -241zM230 708c-35 0 -59 25 -59 59c0 35 24 60 59 60
s60 -25 60 -60c0 -34 -25 -59 -60 -59zM444 708c-35 0 -60 25 -60 59c0 35 25 60 60 60s59 -25 59 -60c0 -34 -24 -59 -59 -59z" />
    <glyph glyph-name="Omacron" unicode="&#x14c;" horiz-adv-x="674" 
d="M337 -12c-170 0 -288 130 -288 342c0 211 118 336 288 336c171 0 289 -125 289 -336c0 -212 -118 -342 -289 -342zM337 89c103 0 169 94 169 241c0 146 -66 235 -169 235s-169 -89 -169 -235c0 -147 66 -241 169 -241zM194 728v76h286v-76h-286z" />
    <glyph glyph-name="Ohungarumlaut" unicode="&#x150;" horiz-adv-x="674" 
d="M337 -12c-170 0 -288 130 -288 342c0 211 118 336 288 336c171 0 289 -125 289 -336c0 -212 -118 -342 -289 -342zM337 89c103 0 169 94 169 241c0 146 -66 235 -169 235s-169 -89 -169 -235c0 -147 66 -241 169 -241zM218 726l97 157l75 -43l-114 -142zM392 726l97 157
l75 -43l-114 -142z" />
    <glyph glyph-name="uni01D1" unicode="&#x1d1;" horiz-adv-x="674" 
d="M337 -12c-170 0 -288 130 -288 342c0 211 118 336 288 336c171 0 289 -125 289 -336c0 -212 -118 -342 -289 -342zM337 89c103 0 169 94 169 241c0 146 -66 235 -169 235s-169 -89 -169 -235c0 -147 66 -241 169 -241zM275 704l-97 112l50 32l107 -88h4l107 88l50 -32
l-97 -112h-124z" />
    <glyph glyph-name="uni1ECC" unicode="&#x1ecc;" horiz-adv-x="674" 
d="M337 -12c-170 0 -288 130 -288 342c0 211 118 336 288 336c171 0 289 -125 289 -336c0 -212 -118 -342 -289 -342zM337 89c103 0 169 94 169 241c0 146 -66 235 -169 235s-169 -89 -169 -235c0 -147 66 -241 169 -241zM337 -217c-40 0 -68 27 -68 66c0 38 28 65 68 65
s68 -27 68 -65c0 -39 -28 -66 -68 -66z" />
    <glyph glyph-name="uni1ECE" unicode="&#x1ece;" horiz-adv-x="674" 
d="M337 -12c-170 0 -288 130 -288 342c0 211 118 336 288 336c171 0 289 -125 289 -336c0 -212 -118 -342 -289 -342zM337 89c103 0 169 94 169 241c0 146 -66 235 -169 235s-169 -89 -169 -235c0 -147 66 -241 169 -241zM299 694l-10 49c28 6 50 16 50 37
c0 23 -24 35 -81 38l13 61c106 -3 154 -34 154 -86c0 -63 -59 -91 -126 -99z" />
    <glyph glyph-name="uni1ED0" unicode="&#x1ed0;" horiz-adv-x="674" 
d="M337 -12c-170 0 -288 130 -288 342c0 211 118 336 288 336c171 0 289 -125 289 -336c0 -212 -118 -342 -289 -342zM337 89c103 0 169 94 169 241c0 146 -66 235 -169 235s-169 -89 -169 -235c0 -147 66 -241 169 -241zM242 692l-46 33l91 95h100l91 -95l-46 -33l-93 70
h-4zM474 761l-37 41l98 90l42 -50z" />
    <glyph glyph-name="uni1ED2" unicode="&#x1ed2;" horiz-adv-x="674" 
d="M337 -12c-170 0 -288 130 -288 342c0 211 118 336 288 336c171 0 289 -125 289 -336c0 -212 -118 -342 -289 -342zM337 89c103 0 169 94 169 241c0 146 -66 235 -169 235s-169 -89 -169 -235c0 -147 66 -241 169 -241zM242 692l-46 33l91 95h100l91 -95l-46 -33l-93 70
h-4zM237 800l-37 -39l-95 83l42 48z" />
    <glyph glyph-name="uni1ED4" unicode="&#x1ed4;" horiz-adv-x="674" 
d="M337 -12c-170 0 -288 130 -288 342c0 211 118 336 288 336c171 0 289 -125 289 -336c0 -212 -118 -342 -289 -342zM337 89c103 0 169 94 169 241c0 146 -66 235 -169 235s-169 -89 -169 -235c0 -147 66 -241 169 -241zM242 692l-46 33l91 95h100l91 -95l-46 -33l-93 70
h-4zM463 752l-11 41c22 5 39 13 39 32c0 22 -19 32 -68 35l11 52c94 -4 133 -32 133 -77c0 -55 -47 -77 -104 -83z" />
    <glyph glyph-name="uni1ED6" unicode="&#x1ed6;" horiz-adv-x="674" 
d="M337 -12c-170 0 -288 130 -288 342c0 211 118 336 288 336c171 0 289 -125 289 -336c0 -212 -118 -342 -289 -342zM337 89c103 0 169 94 169 241c0 146 -66 235 -169 235s-169 -89 -169 -235c0 -147 66 -241 169 -241zM242 692l-46 33l91 89h100l91 -89l-46 -33l-93 64
h-4zM188 850c3 64 31 101 86 101c59 0 85 -47 119 -47c21 0 31 15 35 43l58 -7c-3 -64 -31 -101 -86 -101c-59 0 -85 47 -119 47c-21 0 -31 -15 -35 -43z" />
    <glyph glyph-name="uni1ED8" unicode="&#x1ed8;" horiz-adv-x="674" 
d="M337 -12c-170 0 -288 130 -288 342c0 211 118 336 288 336c171 0 289 -125 289 -336c0 -212 -118 -342 -289 -342zM337 89c103 0 169 94 169 241c0 146 -66 235 -169 235s-169 -89 -169 -235c0 -147 66 -241 169 -241zM178 725l97 111h124l97 -111l-50 -33l-107 88h-4
l-107 -88zM337 -217c-40 0 -68 27 -68 66c0 38 28 65 68 65s68 -27 68 -65c0 -39 -28 -66 -68 -66z" />
    <glyph glyph-name="uni014E" unicode="&#x14e;" horiz-adv-x="674" 
d="M337 -12c-170 0 -288 130 -288 342c0 211 118 336 288 336c171 0 289 -125 289 -336c0 -212 -118 -342 -289 -342zM337 89c103 0 169 94 169 241c0 146 -66 235 -169 235s-169 -89 -169 -235c0 -147 66 -241 169 -241zM337 701c-96 0 -146 53 -155 133l66 11
c8 -44 38 -75 89 -75s81 31 89 75l66 -11c-9 -80 -59 -133 -155 -133z" />
    <glyph glyph-name="uni1E52" unicode="&#x1e52;" horiz-adv-x="674" 
d="M337 -12c-170 0 -288 130 -288 342c0 211 118 336 288 336c171 0 289 -125 289 -336c0 -212 -118 -342 -289 -342zM337 89c103 0 169 94 169 241c0 146 -66 235 -169 235s-169 -89 -169 -235c0 -147 66 -241 169 -241zM312 830l-40 53l139 105l49 -65zM194 728v76h286
v-76h-286z" />
    <glyph glyph-name="Oslash" unicode="&#xd8;" horiz-adv-x="674" 
d="M339 -12c-66 0 -124 19 -170 56l-63 -80l-61 48l70 89c-41 57 -64 135 -64 229c0 211 118 336 288 336c68 0 128 -20 175 -57l64 81l62 -48l-72 -91c38 -56 60 -131 60 -221c0 -212 -118 -342 -289 -342zM170 330c0 -50 8 -95 22 -131l254 323c-28 28 -64 43 -107 43
c-103 0 -169 -89 -169 -235zM339 89c103 0 169 94 169 241c0 46 -7 87 -19 120l-252 -320c27 -27 62 -41 102 -41z" />
    <glyph glyph-name="OE" unicode="&#x152;" horiz-adv-x="859" 
d="M371 0c-192 0 -322 113 -322 330c0 216 130 324 328 324h421v-98h-262v-167h220v-98h-220v-193h272v-98h-437zM384 94h36v466h-36c-135 0 -216 -68 -216 -230s81 -236 216 -236z" />
    <glyph glyph-name="Ohorn" unicode="&#x1a0;" horiz-adv-x="674" 
d="M339 -12c-170 0 -288 130 -288 342c0 211 118 336 288 336c50 0 96 -11 135 -31c46 11 70 32 70 77c0 23 -7 46 -15 62l87 36c15 -22 27 -55 27 -90c0 -69 -40 -108 -111 -127c61 -58 96 -147 96 -263c0 -212 -118 -342 -289 -342zM339 89c103 0 169 94 169 241
c0 146 -66 235 -169 235s-169 -89 -169 -235c0 -147 66 -241 169 -241z" />
    <glyph glyph-name="uni1EDA" unicode="&#x1eda;" horiz-adv-x="674" 
d="M339 -12c-170 0 -288 130 -288 342c0 211 118 336 288 336c50 0 96 -11 135 -31c46 11 70 32 70 77c0 23 -7 46 -15 62l87 36c15 -22 27 -55 27 -90c0 -69 -40 -108 -111 -127c61 -58 96 -147 96 -263c0 -212 -118 -342 -289 -342zM339 89c103 0 169 94 169 241
c0 146 -66 235 -169 235s-169 -89 -169 -235c0 -147 66 -241 169 -241zM323 688l-51 58l157 135l62 -76z" />
    <glyph glyph-name="uni1EDC" unicode="&#x1edc;" horiz-adv-x="674" 
d="M339 -12c-170 0 -288 130 -288 342c0 211 118 336 288 336c50 0 96 -11 135 -31c46 11 70 32 70 77c0 23 -7 46 -15 62l87 36c15 -22 27 -55 27 -90c0 -69 -40 -108 -111 -127c61 -58 96 -147 96 -263c0 -212 -118 -342 -289 -342zM339 89c103 0 169 94 169 241
c0 146 -66 235 -169 235s-169 -89 -169 -235c0 -147 66 -241 169 -241zM351 688l-168 117l62 76l157 -135z" />
    <glyph glyph-name="uni1EDE" unicode="&#x1ede;" horiz-adv-x="674" 
d="M339 -12c-170 0 -288 130 -288 342c0 211 118 336 288 336c50 0 96 -11 135 -31c46 11 70 32 70 77c0 23 -7 46 -15 62l87 36c15 -22 27 -55 27 -90c0 -69 -40 -108 -111 -127c61 -58 96 -147 96 -263c0 -212 -118 -342 -289 -342zM339 89c103 0 169 94 169 241
c0 146 -66 235 -169 235s-169 -89 -169 -235c0 -147 66 -241 169 -241zM299 694l-10 49c28 6 50 16 50 37c0 23 -24 35 -81 38l13 61c106 -3 154 -34 154 -86c0 -63 -59 -91 -126 -99z" />
    <glyph glyph-name="uni1EE0" unicode="&#x1ee0;" horiz-adv-x="674" 
d="M339 -12c-170 0 -288 130 -288 342c0 211 118 336 288 336c50 0 96 -11 135 -31c46 11 70 32 70 77c0 23 -7 46 -15 62l87 36c15 -22 27 -55 27 -90c0 -69 -40 -108 -111 -127c61 -58 96 -147 96 -263c0 -212 -118 -342 -289 -342zM339 89c103 0 169 94 169 241
c0 146 -66 235 -169 235s-169 -89 -169 -235c0 -147 66 -241 169 -241zM398 700c-73 0 -103 64 -143 64c-22 0 -38 -17 -42 -57l-76 6c5 89 50 133 115 133c73 0 103 -64 143 -64c22 0 37 18 42 58l76 -6c-5 -89 -50 -134 -115 -134z" />
    <glyph glyph-name="uni1EE2" unicode="&#x1ee2;" horiz-adv-x="674" 
d="M339 -12c-170 0 -288 130 -288 342c0 211 118 336 288 336c50 0 96 -11 135 -31c46 11 70 32 70 77c0 23 -7 46 -15 62l87 36c15 -22 27 -55 27 -90c0 -69 -40 -108 -111 -127c61 -58 96 -147 96 -263c0 -212 -118 -342 -289 -342zM339 89c103 0 169 94 169 241
c0 146 -66 235 -169 235s-169 -89 -169 -235c0 -147 66 -241 169 -241zM337 -217c-40 0 -68 27 -68 66c0 38 28 65 68 65s68 -27 68 -65c0 -39 -28 -66 -68 -66z" />
    <glyph glyph-name="uni01EA" unicode="&#x1ea;" horiz-adv-x="674" 
d="M364 -218c-58 0 -105 32 -105 91c0 48 30 89 63 116c-168 9 -273 138 -273 341c0 211 118 336 288 336c171 0 289 -125 289 -336c0 -182 -76 -277 -206 -336c-52 -23 -74 -62 -74 -92c0 -29 22 -42 44 -42c15 0 27 6 38 14l29 -60c-23 -18 -62 -32 -93 -32zM337 89
c103 0 169 94 169 241c0 146 -66 235 -169 235s-169 -89 -169 -235c0 -147 66 -241 169 -241z" />
    <glyph glyph-name="Racute" unicode="&#x154;" horiz-adv-x="592" 
d="M83 0v654h221c136 0 240 -48 240 -194c0 -100 -52 -160 -130 -187l156 -273h-130l-141 256h-100v-256h-116zM199 348h93c89 0 138 38 138 112c0 75 -49 101 -138 101h-93v-213zM284 688l-51 58l157 135l62 -76z" />
    <glyph glyph-name="Rcaron" unicode="&#x158;" horiz-adv-x="592" 
d="M83 0v654h221c136 0 240 -48 240 -194c0 -100 -52 -160 -130 -187l156 -273h-130l-141 256h-100v-256h-116zM199 348h93c89 0 138 38 138 112c0 75 -49 101 -138 101h-93v-213zM236 704l-97 112l50 32l107 -88h4l107 88l50 -32l-97 -112h-124z" />
    <glyph glyph-name="uni1E58" unicode="&#x1e58;" horiz-adv-x="592" 
d="M83 0v654h221c136 0 240 -48 240 -194c0 -100 -52 -160 -130 -187l156 -273h-130l-141 256h-100v-256h-116zM199 348h93c89 0 138 38 138 112c0 75 -49 101 -138 101h-93v-213zM299 707c-41 0 -71 27 -71 66c0 38 30 65 71 65s71 -27 71 -65c0 -39 -30 -66 -71 -66z" />
    <glyph glyph-name="uni0156" unicode="&#x156;" horiz-adv-x="592" 
d="M83 0v654h221c136 0 240 -48 240 -194c0 -100 -52 -160 -130 -187l156 -273h-130l-141 256h-100v-256h-116zM199 348h93c89 0 138 38 138 112c0 75 -49 101 -138 101h-93v-213zM221 -233l-10 50c81 5 106 18 106 43c0 23 -22 35 -68 39l24 46c97 -9 129 -33 129 -80
c0 -63 -66 -93 -181 -98z" />
    <glyph glyph-name="uni1E5A" unicode="&#x1e5a;" horiz-adv-x="592" 
d="M83 0v654h221c136 0 240 -48 240 -194c0 -100 -52 -160 -130 -187l156 -273h-130l-141 256h-100v-256h-116zM199 348h93c89 0 138 38 138 112c0 75 -49 101 -138 101h-93v-213zM315 -217c-40 0 -68 27 -68 66c0 38 28 65 68 65s68 -27 68 -65c0 -39 -28 -66 -68 -66z" />
    <glyph glyph-name="uni1E5C" unicode="&#x1e5c;" horiz-adv-x="592" 
d="M83 0v654h221c136 0 240 -48 240 -194c0 -100 -52 -160 -130 -187l156 -273h-130l-141 256h-100v-256h-116zM199 348h93c89 0 138 38 138 112c0 75 -49 101 -138 101h-93v-213zM155 728v76h286v-76h-286zM315 -217c-40 0 -68 27 -68 66c0 38 28 65 68 65s68 -27 68 -65
c0 -39 -28 -66 -68 -66z" />
    <glyph glyph-name="uni1E5E" unicode="&#x1e5e;" horiz-adv-x="592" 
d="M83 0v654h221c136 0 240 -48 240 -194c0 -100 -52 -160 -130 -187l156 -273h-130l-141 256h-100v-256h-116zM199 348h93c89 0 138 38 138 112c0 75 -49 101 -138 101h-93v-213zM175 -180v76h280v-76h-280z" />
    <glyph glyph-name="Sacute" unicode="&#x15a;" horiz-adv-x="545" 
d="M274 -12c-88 0 -174 35 -236 96l68 79c47 -44 110 -74 170 -74c74 0 114 33 114 84c0 54 -42 71 -101 96l-90 39c-64 27 -132 78 -132 174c0 104 92 184 220 184c76 0 150 -32 201 -83l-59 -74c-42 35 -86 56 -142 56c-62 0 -103 -29 -103 -77c0 -51 50 -70 104 -92
l89 -37c77 -33 132 -82 132 -177c0 -106 -88 -194 -235 -194zM271 688l-51 58l157 135l62 -76z" />
    <glyph glyph-name="Scircumflex" unicode="&#x15c;" horiz-adv-x="545" 
d="M274 -12c-88 0 -174 35 -236 96l68 79c47 -44 110 -74 170 -74c74 0 114 33 114 84c0 54 -42 71 -101 96l-90 39c-64 27 -132 78 -132 174c0 104 92 184 220 184c76 0 150 -32 201 -83l-59 -74c-42 35 -86 56 -142 56c-62 0 -103 -29 -103 -77c0 -51 50 -70 104 -92
l89 -37c77 -33 132 -82 132 -177c0 -106 -88 -194 -235 -194zM126 725l97 111h124l97 -111l-50 -33l-107 88h-4l-107 -88z" />
    <glyph glyph-name="Scaron" unicode="&#x160;" horiz-adv-x="545" 
d="M274 -12c-88 0 -174 35 -236 96l68 79c47 -44 110 -74 170 -74c74 0 114 33 114 84c0 54 -42 71 -101 96l-90 39c-64 27 -132 78 -132 174c0 104 92 184 220 184c76 0 150 -32 201 -83l-59 -74c-42 35 -86 56 -142 56c-62 0 -103 -29 -103 -77c0 -51 50 -70 104 -92
l89 -37c77 -33 132 -82 132 -177c0 -106 -88 -194 -235 -194zM223 704l-97 112l50 32l107 -88h4l107 88l50 -32l-97 -112h-124z" />
    <glyph glyph-name="uni015E" unicode="&#x15e;" horiz-adv-x="545" 
d="M182 -233l-10 50c81 5 106 18 106 47c0 23 -18 37 -77 45l39 81c-76 7 -148 41 -202 94l68 79c47 -44 110 -74 170 -74c74 0 114 33 114 84c0 54 -42 71 -101 96l-90 39c-64 27 -132 78 -132 174c0 104 92 184 220 184c76 0 150 -32 201 -83l-59 -74
c-42 35 -86 56 -142 56c-62 0 -103 -29 -103 -77c0 -51 50 -70 104 -92l89 -37c77 -33 132 -82 132 -177c0 -97 -73 -178 -198 -192l-23 -52c48 -12 75 -32 75 -73c0 -63 -66 -93 -181 -98z" />
    <glyph glyph-name="uni0218" unicode="&#x218;" horiz-adv-x="545" 
d="M274 -12c-88 0 -174 35 -236 96l68 79c47 -44 110 -74 170 -74c74 0 114 33 114 84c0 54 -42 71 -101 96l-90 39c-64 27 -132 78 -132 174c0 104 92 184 220 184c76 0 150 -32 201 -83l-59 -74c-42 35 -86 56 -142 56c-62 0 -103 -29 -103 -77c0 -51 50 -70 104 -92
l89 -37c77 -33 132 -82 132 -177c0 -106 -88 -194 -235 -194zM182 -233l-10 50c81 5 106 18 106 43c0 23 -22 35 -68 39l24 46c97 -9 129 -33 129 -80c0 -63 -66 -93 -181 -98z" />
    <glyph glyph-name="uni1E60" unicode="&#x1e60;" horiz-adv-x="545" 
d="M274 -12c-88 0 -174 35 -236 96l68 79c47 -44 110 -74 170 -74c74 0 114 33 114 84c0 54 -42 71 -101 96l-90 39c-64 27 -132 78 -132 174c0 104 92 184 220 184c76 0 150 -32 201 -83l-59 -74c-42 35 -86 56 -142 56c-62 0 -103 -29 -103 -77c0 -51 50 -70 104 -92
l89 -37c77 -33 132 -82 132 -177c0 -106 -88 -194 -235 -194zM285 707c-41 0 -71 27 -71 66c0 38 30 65 71 65s71 -27 71 -65c0 -39 -30 -66 -71 -66z" />
    <glyph glyph-name="uni1E62" unicode="&#x1e62;" horiz-adv-x="545" 
d="M274 -12c-88 0 -174 35 -236 96l68 79c47 -44 110 -74 170 -74c74 0 114 33 114 84c0 54 -42 71 -101 96l-90 39c-64 27 -132 78 -132 174c0 104 92 184 220 184c76 0 150 -32 201 -83l-59 -74c-42 35 -86 56 -142 56c-62 0 -103 -29 -103 -77c0 -51 50 -70 104 -92
l89 -37c77 -33 132 -82 132 -177c0 -106 -88 -194 -235 -194zM276 -217c-40 0 -68 27 -68 66c0 38 28 65 68 65s68 -27 68 -65c0 -39 -28 -66 -68 -66z" />
    <glyph glyph-name="uni1E9E" unicode="&#x1e9e;" horiz-adv-x="686" 
d="M448 -12c-81 0 -144 33 -183 74l63 72c35 -37 69 -51 108 -51c56 0 90 38 90 92c0 51 -40 95 -171 117l-8 70l123 139c-19 38 -59 70 -119 70c-96 0 -149 -57 -149 -176v-395h-116v413c0 151 90 253 268 253c121 0 200 -68 233 -169l-123 -137c118 -29 181 -89 181 -186
c0 -105 -73 -186 -197 -186z" />
    <glyph glyph-name="Tcaron" unicode="&#x164;" horiz-adv-x="546" 
d="M215 0v556h-189v98h494v-98h-189v-556h-116zM211 704l-97 112l50 32l107 -88h4l107 88l50 -32l-97 -112h-124z" />
    <glyph glyph-name="uni0162" unicode="&#x162;" horiz-adv-x="546" 
d="M215 0v556h-189v98h494v-98h-189v-556h-19l-28 -62c48 -12 75 -32 75 -73c0 -63 -66 -93 -181 -98l-10 50c81 5 106 18 106 47c0 23 -18 37 -77 45l45 91h-27z" />
    <glyph glyph-name="uni021A" unicode="&#x21a;" horiz-adv-x="546" 
d="M215 0v556h-189v98h494v-98h-189v-556h-116zM180 -233l-10 50c81 5 106 18 106 43c0 23 -22 35 -68 39l24 46c97 -9 129 -33 129 -80c0 -63 -66 -93 -181 -98z" />
    <glyph glyph-name="uni1E6C" unicode="&#x1e6c;" horiz-adv-x="546" 
d="M215 0v556h-189v98h494v-98h-189v-556h-116zM274 -217c-40 0 -68 27 -68 66c0 38 28 65 68 65s68 -27 68 -65c0 -39 -28 -66 -68 -66z" />
    <glyph glyph-name="uni1E6E" unicode="&#x1e6e;" horiz-adv-x="546" 
d="M215 0v556h-189v98h494v-98h-189v-556h-116zM134 -180v76h280v-76h-280z" />
    <glyph glyph-name="uni0166" unicode="&#x166;" horiz-adv-x="546" 
d="M215 0v299h-121v55l92 4h29v198h-189v98h494v-98h-189v-198h121v-59h-121v-299h-116z" />
    <glyph glyph-name="Ugrave" unicode="&#xd9;" horiz-adv-x="655" 
d="M328 -12c-151 0 -248 84 -248 299v367h116v-376c0 -142 53 -189 132 -189c80 0 136 47 136 189v376h111v-367c0 -215 -95 -299 -247 -299zM342 688l-168 117l62 76l157 -135z" />
    <glyph glyph-name="Uacute" unicode="&#xda;" horiz-adv-x="655" 
d="M328 -12c-151 0 -248 84 -248 299v367h116v-376c0 -142 53 -189 132 -189c80 0 136 47 136 189v376h111v-367c0 -215 -95 -299 -247 -299zM314 688l-51 58l157 135l62 -76z" />
    <glyph glyph-name="Ucircumflex" unicode="&#xdb;" horiz-adv-x="655" 
d="M328 -12c-151 0 -248 84 -248 299v367h116v-376c0 -142 53 -189 132 -189c80 0 136 47 136 189v376h111v-367c0 -215 -95 -299 -247 -299zM169 725l97 111h124l97 -111l-50 -33l-107 88h-4l-107 -88z" />
    <glyph glyph-name="Utilde" unicode="&#x168;" horiz-adv-x="655" 
d="M328 -12c-151 0 -248 84 -248 299v367h116v-376c0 -142 53 -189 132 -189c80 0 136 47 136 189v376h111v-367c0 -215 -95 -299 -247 -299zM401 700c-73 0 -103 64 -143 64c-22 0 -38 -17 -42 -57l-76 6c5 89 50 133 115 133c73 0 103 -64 143 -64c22 0 37 18 42 58l76 -6
c-5 -89 -50 -134 -115 -134z" />
    <glyph glyph-name="Udieresis" unicode="&#xdc;" horiz-adv-x="655" 
d="M328 -12c-151 0 -248 84 -248 299v367h116v-376c0 -142 53 -189 132 -189c80 0 136 47 136 189v376h111v-367c0 -215 -95 -299 -247 -299zM221 708c-35 0 -59 25 -59 59c0 35 24 60 59 60s60 -25 60 -60c0 -34 -25 -59 -60 -59zM435 708c-35 0 -60 25 -60 59
c0 35 25 60 60 60s59 -25 59 -60c0 -34 -24 -59 -59 -59z" />
    <glyph glyph-name="Umacron" unicode="&#x16a;" horiz-adv-x="655" 
d="M328 -12c-151 0 -248 84 -248 299v367h116v-376c0 -142 53 -189 132 -189c80 0 136 47 136 189v376h111v-367c0 -215 -95 -299 -247 -299zM185 728v76h286v-76h-286z" />
    <glyph glyph-name="Ubreve" unicode="&#x16c;" horiz-adv-x="655" 
d="M328 -12c-151 0 -248 84 -248 299v367h116v-376c0 -142 53 -189 132 -189c80 0 136 47 136 189v376h111v-367c0 -215 -95 -299 -247 -299zM328 701c-96 0 -146 53 -155 133l66 11c8 -44 38 -75 89 -75s81 31 89 75l66 -11c-9 -80 -59 -133 -155 -133z" />
    <glyph glyph-name="Uring" unicode="&#x16e;" horiz-adv-x="655" 
d="M328 -12c-151 0 -248 84 -248 299v367h116v-376c0 -142 53 -189 132 -189c80 0 136 47 136 189v376h111v-367c0 -215 -95 -299 -247 -299zM328 698c-62 0 -106 37 -106 94c0 58 44 95 106 95c61 0 106 -37 106 -95c0 -57 -45 -94 -106 -94zM328 744c25 0 46 18 46 48
s-21 49 -46 49c-26 0 -47 -19 -47 -49s21 -48 47 -48z" />
    <glyph glyph-name="Uhungarumlaut" unicode="&#x170;" horiz-adv-x="655" 
d="M328 -12c-151 0 -248 84 -248 299v367h116v-376c0 -142 53 -189 132 -189c80 0 136 47 136 189v376h111v-367c0 -215 -95 -299 -247 -299zM209 726l97 157l75 -43l-114 -142zM383 726l97 157l75 -43l-114 -142z" />
    <glyph glyph-name="uni01D3" unicode="&#x1d3;" horiz-adv-x="655" 
d="M328 -12c-151 0 -248 84 -248 299v367h116v-376c0 -142 53 -189 132 -189c80 0 136 47 136 189v376h111v-367c0 -215 -95 -299 -247 -299zM266 704l-97 112l50 32l107 -88h4l107 88l50 -32l-97 -112h-124z" />
    <glyph glyph-name="uni01D5" unicode="&#x1d5;" horiz-adv-x="655" 
d="M328 -12c-151 0 -248 84 -248 299v367h116v-376c0 -142 53 -189 132 -189c80 0 136 47 136 189v376h111v-367c0 -215 -95 -299 -247 -299zM221 708c-31 0 -53 22 -53 53s22 54 53 54s54 -23 54 -54s-23 -53 -54 -53zM185 866v58h286v-58h-286zM435 708
c-31 0 -54 22 -54 53s23 54 54 54s53 -23 53 -54s-22 -53 -53 -53z" />
    <glyph glyph-name="uni01D7" unicode="&#x1d7;" horiz-adv-x="655" 
d="M328 -12c-151 0 -248 84 -248 299v367h116v-376c0 -142 53 -189 132 -189c80 0 136 47 136 189v376h111v-367c0 -215 -95 -299 -247 -299zM221 708c-31 0 -53 22 -53 53s22 54 53 54s54 -23 54 -54s-23 -53 -54 -53zM281 856l95 133l73 -47l-117 -118zM435 708
c-31 0 -54 22 -54 53s23 54 54 54s53 -23 53 -54s-22 -53 -53 -53z" />
    <glyph glyph-name="uni01D9" unicode="&#x1d9;" horiz-adv-x="655" 
d="M328 -12c-151 0 -248 84 -248 299v367h116v-376c0 -142 53 -189 132 -189c80 0 136 47 136 189v376h111v-367c0 -215 -95 -299 -247 -299zM278 846l-95 100l46 33l97 -74h4l97 74l46 -33l-95 -100h-100zM221 708c-31 0 -53 22 -53 53s22 54 53 54s54 -23 54 -54
s-23 -53 -54 -53zM435 708c-31 0 -54 22 -54 53s23 54 54 54s53 -23 53 -54s-22 -53 -53 -53z" />
    <glyph glyph-name="uni01DB" unicode="&#x1db;" horiz-adv-x="655" 
d="M328 -12c-151 0 -248 84 -248 299v367h116v-376c0 -142 53 -189 132 -189c80 0 136 47 136 189v376h111v-367c0 -215 -95 -299 -247 -299zM375 856l-51 -32l-117 118l73 47zM221 708c-31 0 -53 22 -53 53s22 54 53 54s54 -23 54 -54s-23 -53 -54 -53zM435 708
c-31 0 -54 22 -54 53s23 54 54 54s53 -23 53 -54s-22 -53 -53 -53z" />
    <glyph glyph-name="uni1EE4" unicode="&#x1ee4;" horiz-adv-x="655" 
d="M328 -12c-151 0 -248 84 -248 299v367h116v-376c0 -142 53 -189 132 -189c80 0 136 47 136 189v376h111v-367c0 -215 -95 -299 -247 -299zM328 -217c-40 0 -68 27 -68 66c0 38 28 65 68 65s68 -27 68 -65c0 -39 -28 -66 -68 -66z" />
    <glyph glyph-name="uni1EE6" unicode="&#x1ee6;" horiz-adv-x="655" 
d="M328 -12c-151 0 -248 84 -248 299v367h116v-376c0 -142 53 -189 132 -189c80 0 136 47 136 189v376h111v-367c0 -215 -95 -299 -247 -299zM290 694l-10 49c28 6 50 16 50 37c0 23 -24 35 -81 38l13 61c106 -3 154 -34 154 -86c0 -63 -59 -91 -126 -99z" />
    <glyph glyph-name="Uogonek" unicode="&#x172;" horiz-adv-x="655" 
d="M354 -218c-59 0 -106 32 -106 91s43 96 64 116c-145 7 -232 94 -232 298v367h116v-376c0 -142 53 -189 132 -189c80 0 136 47 136 189v376h111v-367c0 -181 -58 -243 -165 -293c-51 -24 -75 -62 -75 -92c0 -29 22 -42 45 -42c14 0 27 6 38 14l28 -60
c-22 -18 -62 -32 -92 -32z" />
    <glyph glyph-name="Uhorn" unicode="&#x1af;" horiz-adv-x="671" 
d="M328 -12c-151 0 -248 84 -248 299v367h116v-376c0 -142 53 -189 132 -189c80 0 136 47 136 189v376h51c47 4 86 19 86 78c0 23 -7 46 -15 62l88 36c14 -22 26 -55 26 -90c0 -79 -51 -116 -125 -131v-322c0 -215 -95 -299 -247 -299z" />
    <glyph glyph-name="uni1EE8" unicode="&#x1ee8;" horiz-adv-x="671" 
d="M328 -12c-151 0 -248 84 -248 299v367h116v-376c0 -142 53 -189 132 -189c80 0 136 47 136 189v376h51c47 4 86 19 86 78c0 23 -7 46 -15 62l88 36c14 -22 26 -55 26 -90c0 -79 -51 -116 -125 -131v-322c0 -215 -95 -299 -247 -299zM313 688l-51 58l157 135l62 -76z" />
    <glyph glyph-name="uni1EEA" unicode="&#x1eea;" horiz-adv-x="671" 
d="M328 -12c-151 0 -248 84 -248 299v367h116v-376c0 -142 53 -189 132 -189c80 0 136 47 136 189v376h51c47 4 86 19 86 78c0 23 -7 46 -15 62l88 36c14 -22 26 -55 26 -90c0 -79 -51 -116 -125 -131v-322c0 -215 -95 -299 -247 -299zM341 688l-168 117l62 76l157 -135z
" />
    <glyph glyph-name="uni1EEC" unicode="&#x1eec;" horiz-adv-x="671" 
d="M328 -12c-151 0 -248 84 -248 299v367h116v-376c0 -142 53 -189 132 -189c80 0 136 47 136 189v376h51c47 4 86 19 86 78c0 23 -7 46 -15 62l88 36c14 -22 26 -55 26 -90c0 -79 -51 -116 -125 -131v-322c0 -215 -95 -299 -247 -299zM289 694l-10 49c28 6 50 16 50 37
c0 23 -24 35 -81 38l13 61c106 -3 154 -34 154 -86c0 -63 -59 -91 -126 -99z" />
    <glyph glyph-name="uni1EEE" unicode="&#x1eee;" horiz-adv-x="671" 
d="M328 -12c-151 0 -248 84 -248 299v367h116v-376c0 -142 53 -189 132 -189c80 0 136 47 136 189v376h51c47 4 86 19 86 78c0 23 -7 46 -15 62l88 36c14 -22 26 -55 26 -90c0 -79 -51 -116 -125 -131v-322c0 -215 -95 -299 -247 -299zM400 700c-73 0 -103 64 -143 64
c-22 0 -38 -17 -42 -57l-76 6c5 89 50 133 115 133c73 0 103 -64 143 -64c22 0 37 18 42 58l76 -6c-5 -89 -50 -134 -115 -134z" />
    <glyph glyph-name="uni1EF0" unicode="&#x1ef0;" horiz-adv-x="671" 
d="M328 -12c-151 0 -248 84 -248 299v367h116v-376c0 -142 53 -189 132 -189c80 0 136 47 136 189v376h51c47 4 86 19 86 78c0 23 -7 46 -15 62l88 36c14 -22 26 -55 26 -90c0 -79 -51 -116 -125 -131v-322c0 -215 -95 -299 -247 -299zM327 -217c-40 0 -68 27 -68 66
c0 38 28 65 68 65s68 -27 68 -65c0 -39 -28 -66 -68 -66z" />
    <glyph glyph-name="Wgrave" unicode="&#x1e80;" horiz-adv-x="800" 
d="M148 0l-130 654h119l57 -330c11 -70 22 -140 32 -209h4c14 69 28 140 43 209l80 330h101l80 -330c15 -68 29 -139 44 -209h4c10 70 21 140 31 209l57 330h111l-125 -654h-144l-81 344c-11 51 -21 101 -29 151h-4c-9 -50 -19 -100 -30 -151l-79 -344h-141zM414 688
l-168 117l62 76l157 -135z" />
    <glyph glyph-name="Wacute" unicode="&#x1e82;" horiz-adv-x="800" 
d="M148 0l-130 654h119l57 -330c11 -70 22 -140 32 -209h4c14 69 28 140 43 209l80 330h101l80 -330c15 -68 29 -139 44 -209h4c10 70 21 140 31 209l57 330h111l-125 -654h-144l-81 344c-11 51 -21 101 -29 151h-4c-9 -50 -19 -100 -30 -151l-79 -344h-141zM386 688l-51 58
l157 135l62 -76z" />
    <glyph glyph-name="Wcircumflex" unicode="&#x174;" horiz-adv-x="800" 
d="M148 0l-130 654h119l57 -330c11 -70 22 -140 32 -209h4c14 69 28 140 43 209l80 330h101l80 -330c15 -68 29 -139 44 -209h4c10 70 21 140 31 209l57 330h111l-125 -654h-144l-81 344c-11 51 -21 101 -29 151h-4c-9 -50 -19 -100 -30 -151l-79 -344h-141zM241 725l97 111
h124l97 -111l-50 -33l-107 88h-4l-107 -88z" />
    <glyph glyph-name="Wdieresis" unicode="&#x1e84;" horiz-adv-x="800" 
d="M148 0l-130 654h119l57 -330c11 -70 22 -140 32 -209h4c14 69 28 140 43 209l80 330h101l80 -330c15 -68 29 -139 44 -209h4c10 70 21 140 31 209l57 330h111l-125 -654h-144l-81 344c-11 51 -21 101 -29 151h-4c-9 -50 -19 -100 -30 -151l-79 -344h-141zM293 708
c-35 0 -59 25 -59 59c0 35 24 60 59 60s60 -25 60 -60c0 -34 -25 -59 -60 -59zM507 708c-35 0 -60 25 -60 59c0 35 25 60 60 60s59 -25 59 -60c0 -34 -24 -59 -59 -59z" />
    <glyph glyph-name="Ygrave" unicode="&#x1ef2;" horiz-adv-x="501" 
d="M192 0v243l-196 411h124l71 -167c19 -49 37 -94 58 -144h4c21 50 41 95 60 144l71 167h121l-197 -411v-243h-116zM264 688l-168 117l62 76l157 -135z" />
    <glyph glyph-name="Yacute" unicode="&#xdd;" horiz-adv-x="501" 
d="M192 0v243l-196 411h124l71 -167c19 -49 37 -94 58 -144h4c21 50 41 95 60 144l71 167h121l-197 -411v-243h-116zM236 688l-51 58l157 135l62 -76z" />
    <glyph glyph-name="Ycircumflex" unicode="&#x176;" horiz-adv-x="501" 
d="M192 0v243l-196 411h124l71 -167c19 -49 37 -94 58 -144h4c21 50 41 95 60 144l71 167h121l-197 -411v-243h-116zM91 725l97 111h124l97 -111l-50 -33l-107 88h-4l-107 -88z" />
    <glyph glyph-name="Ydieresis" unicode="&#x178;" horiz-adv-x="501" 
d="M192 0v243l-196 411h124l71 -167c19 -49 37 -94 58 -144h4c21 50 41 95 60 144l71 167h121l-197 -411v-243h-116zM143 708c-35 0 -59 25 -59 59c0 35 24 60 59 60s60 -25 60 -60c0 -34 -25 -59 -60 -59zM357 708c-35 0 -60 25 -60 59c0 35 25 60 60 60s59 -25 59 -60
c0 -34 -24 -59 -59 -59z" />
    <glyph glyph-name="uni1E8E" unicode="&#x1e8e;" horiz-adv-x="501" 
d="M192 0v243l-196 411h124l71 -167c19 -49 37 -94 58 -144h4c21 50 41 95 60 144l71 167h121l-197 -411v-243h-116zM250 707c-41 0 -71 27 -71 66c0 38 30 65 71 65s71 -27 71 -65c0 -39 -30 -66 -71 -66z" />
    <glyph glyph-name="uni1EF4" unicode="&#x1ef4;" horiz-adv-x="501" 
d="M192 0v243l-196 411h124l71 -167c19 -49 37 -94 58 -144h4c21 50 41 95 60 144l71 167h121l-197 -411v-243h-116zM252 -217c-40 0 -68 27 -68 66c0 38 28 65 68 65s68 -27 68 -65c0 -39 -28 -66 -68 -66z" />
    <glyph glyph-name="uni1EF6" unicode="&#x1ef6;" horiz-adv-x="501" 
d="M192 0v243l-196 411h124l71 -167c19 -49 37 -94 58 -144h4c21 50 41 95 60 144l71 167h121l-197 -411v-243h-116zM212 694l-10 49c28 6 50 16 50 37c0 23 -24 35 -81 38l13 61c106 -3 154 -34 154 -86c0 -63 -59 -91 -126 -99z" />
    <glyph glyph-name="uni1EF8" unicode="&#x1ef8;" horiz-adv-x="501" 
d="M192 0v243l-196 411h124l71 -167c19 -49 37 -94 58 -144h4c21 50 41 95 60 144l71 167h121l-197 -411v-243h-116zM323 700c-73 0 -103 64 -143 64c-22 0 -38 -17 -42 -57l-76 6c5 89 50 133 115 133c73 0 103 -64 143 -64c22 0 37 18 42 58l76 -6
c-5 -89 -50 -134 -115 -134z" />
    <glyph glyph-name="Zacute" unicode="&#x179;" horiz-adv-x="540" 
d="M40 0v70l316 486h-287v98h431v-70l-317 -486h319v-98h-462zM268 688l-51 58l157 135l62 -76z" />
    <glyph glyph-name="Zcaron" unicode="&#x17d;" horiz-adv-x="540" 
d="M40 0v70l316 486h-287v98h431v-70l-317 -486h319v-98h-462zM220 704l-97 112l50 32l107 -88h4l107 88l50 -32l-97 -112h-124z" />
    <glyph glyph-name="Zdotaccent" unicode="&#x17b;" horiz-adv-x="540" 
d="M40 0v70l316 486h-287v98h431v-70l-317 -486h319v-98h-462zM282 707c-41 0 -71 27 -71 66c0 38 30 65 71 65s71 -27 71 -65c0 -39 -30 -66 -71 -66z" />
    <glyph glyph-name="uni1E92" unicode="&#x1e92;" horiz-adv-x="540" 
d="M40 0v70l316 486h-287v98h431v-70l-317 -486h319v-98h-462zM282 -217c-40 0 -68 27 -68 66c0 38 28 65 68 65s68 -27 68 -65c0 -39 -28 -66 -68 -66z" />
    <glyph glyph-name="uni1E94" unicode="&#x1e94;" horiz-adv-x="540" 
d="M40 0v70l316 486h-287v98h431v-70l-317 -486h319v-98h-462zM142 -180v76h280v-76h-280z" />
    <glyph glyph-name="Eth" unicode="&#xd0;" horiz-adv-x="649" 
d="M30 311v55l77 4v284h175c200 0 318 -108 318 -324c0 -217 -118 -330 -312 -330h-181v311h-77zM223 94h51c132 0 207 75 207 236c0 160 -75 230 -207 230h-51v-190h137v-59h-137v-217z" />
    <glyph glyph-name="Thorn" unicode="&#xde;" horiz-adv-x="600" 
d="M83 0v654h116v-104h104c143 0 249 -51 249 -202c0 -146 -108 -212 -249 -212h-104v-136h-116zM199 229h95c97 0 144 39 144 119c0 81 -49 109 -144 109h-95v-228z" />
    <glyph glyph-name="uni018F" unicode="&#x18f;" horiz-adv-x="667" 
d="M332 -12c-172 0 -278 124 -278 336c0 11 2 24 3 37h445c-8 140 -68 210 -178 210c-64 0 -114 -29 -152 -63l-54 79c50 46 122 79 218 79c171 0 282 -118 282 -338c0 -219 -114 -340 -286 -340zM332 83c93 0 155 64 168 192h-327c6 -127 67 -192 159 -192z" />
    <glyph glyph-name="uni014A" unicode="&#x14a;" horiz-adv-x="651" 
d="M409 -12c-28 0 -65 5 -84 17l26 101c13 -5 26 -9 45 -9c47 0 87 48 87 236c0 173 -55 232 -139 232c-47 0 -109 -34 -145 -89v-476h-116v654h113v-76c48 54 112 88 180 88c129 0 226 -89 226 -333c0 -242 -68 -345 -193 -345z" />
    <glyph glyph-name="uni0132" unicode="&#x132;" horiz-adv-x="565" 
d="M83 0v654h116v-654h-116zM325 -174c-35 0 -61 6 -79 14l21 87c13 -4 27 -7 42 -7c44 0 57 30 57 87v647h116v-646c0 -104 -40 -182 -157 -182z" />
    <glyph glyph-name="agrave" unicode="&#xe0;" horiz-adv-x="516" 
d="M192 -12c-86 0 -145 58 -145 144c0 105 87 160 289 182c-2 52 -23 96 -90 96c-48 0 -94 -22 -138 -48l-42 77c54 34 124 64 202 64c122 0 183 -75 183 -212v-291h-95l-8 54h-4c-44 -37 -94 -66 -152 -66zM229 78c40 0 70 20 107 54v110c-134 -17 -178 -52 -178 -101
c0 -44 30 -63 71 -63zM271 573l-170 155l80 76l147 -174z" />
    <glyph glyph-name="aacute" unicode="&#xe1;" horiz-adv-x="516" 
d="M192 -12c-86 0 -145 58 -145 144c0 105 87 160 289 182c-2 52 -23 96 -90 96c-48 0 -94 -22 -138 -48l-42 77c54 34 124 64 202 64c122 0 183 -75 183 -212v-291h-95l-8 54h-4c-44 -37 -94 -66 -152 -66zM229 78c40 0 70 20 107 54v110c-134 -17 -178 -52 -178 -101
c0 -44 30 -63 71 -63zM267 573l-57 57l147 174l80 -76z" />
    <glyph glyph-name="acircumflex" unicode="&#xe2;" horiz-adv-x="516" 
d="M192 -12c-86 0 -145 58 -145 144c0 105 87 160 289 182c-2 52 -23 96 -90 96c-48 0 -94 -22 -138 -48l-42 77c54 34 124 64 202 64c122 0 183 -75 183 -212v-291h-95l-8 54h-4c-44 -37 -94 -66 -152 -66zM229 78c40 0 70 20 107 54v110c-134 -17 -178 -52 -178 -101
c0 -44 30 -63 71 -63zM100 607l111 135h116l111 -135l-45 -43l-122 103h-4l-122 -103z" />
    <glyph glyph-name="atilde" unicode="&#xe3;" horiz-adv-x="516" 
d="M192 -12c-86 0 -145 58 -145 144c0 105 87 160 289 182c-2 52 -23 96 -90 96c-48 0 -94 -22 -138 -48l-42 77c54 34 124 64 202 64c122 0 183 -75 183 -212v-291h-95l-8 54h-4c-44 -37 -94 -66 -152 -66zM229 78c40 0 70 20 107 54v110c-134 -17 -178 -52 -178 -101
c0 -44 30 -63 71 -63zM338 575c-67 0 -97 74 -136 74c-25 0 -37 -24 -41 -67l-74 4c3 91 40 144 113 144c67 0 97 -74 137 -74c24 0 36 25 40 67l74 -4c-3 -90 -40 -144 -113 -144z" />
    <glyph glyph-name="adieresis" unicode="&#xe4;" horiz-adv-x="516" 
d="M192 -12c-86 0 -145 58 -145 144c0 105 87 160 289 182c-2 52 -23 96 -90 96c-48 0 -94 -22 -138 -48l-42 77c54 34 124 64 202 64c122 0 183 -75 183 -212v-291h-95l-8 54h-4c-44 -37 -94 -66 -152 -66zM229 78c40 0 70 20 107 54v110c-134 -17 -178 -52 -178 -101
c0 -44 30 -63 71 -63zM166 578c-35 0 -61 27 -61 61s26 61 61 61c36 0 61 -27 61 -61s-25 -61 -61 -61zM372 578c-36 0 -61 27 -61 61s25 61 61 61c35 0 61 -27 61 -61s-26 -61 -61 -61z" />
    <glyph glyph-name="amacron" unicode="&#x101;" horiz-adv-x="516" 
d="M192 -12c-86 0 -145 58 -145 144c0 105 87 160 289 182c-2 52 -23 96 -90 96c-48 0 -94 -22 -138 -48l-42 77c54 34 124 64 202 64c122 0 183 -75 183 -212v-291h-95l-8 54h-4c-44 -37 -94 -66 -152 -66zM229 78c40 0 70 20 107 54v110c-134 -17 -178 -52 -178 -101
c0 -44 30 -63 71 -63zM129 596v76h280v-76h-280z" />
    <glyph glyph-name="abreve" unicode="&#x103;" horiz-adv-x="516" 
d="M192 -12c-86 0 -145 58 -145 144c0 105 87 160 289 182c-2 52 -23 96 -90 96c-48 0 -94 -22 -138 -48l-42 77c54 34 124 64 202 64c122 0 183 -75 183 -212v-291h-95l-8 54h-4c-44 -37 -94 -66 -152 -66zM229 78c40 0 70 20 107 54v110c-134 -17 -178 -52 -178 -101
c0 -44 30 -63 71 -63zM269 571c-111 0 -158 73 -163 155l68 11c7 -47 36 -92 95 -92s88 45 95 92l68 -11c-5 -82 -52 -155 -163 -155z" />
    <glyph glyph-name="aring" unicode="&#xe5;" horiz-adv-x="516" 
d="M192 -12c-86 0 -145 58 -145 144c0 105 87 160 289 182c-2 52 -23 96 -90 96c-48 0 -94 -22 -138 -48l-42 77c54 34 124 64 202 64c122 0 183 -75 183 -212v-291h-95l-8 54h-4c-44 -37 -94 -66 -152 -66zM229 78c40 0 70 20 107 54v110c-134 -17 -178 -52 -178 -101
c0 -44 30 -63 71 -63zM269 559c-77 0 -121 44 -121 101c0 58 44 102 121 102s121 -44 121 -102c0 -57 -44 -101 -121 -101zM269 605c28 0 50 22 50 55c0 34 -22 56 -50 56s-50 -22 -50 -56c0 -33 22 -55 50 -55z" />
    <glyph glyph-name="uni01CE" unicode="&#x1ce;" horiz-adv-x="516" 
d="M192 -12c-86 0 -145 58 -145 144c0 105 87 160 289 182c-2 52 -23 96 -90 96c-48 0 -94 -22 -138 -48l-42 77c54 34 124 64 202 64c122 0 183 -75 183 -212v-291h-95l-8 54h-4c-44 -37 -94 -66 -152 -66zM229 78c40 0 70 20 107 54v110c-134 -17 -178 -52 -178 -101
c0 -44 30 -63 71 -63zM211 576l-111 135l45 42l122 -102h4l122 102l45 -42l-111 -135h-116z" />
    <glyph glyph-name="uni1EA1" unicode="&#x1ea1;" horiz-adv-x="516" 
d="M192 -12c-86 0 -145 58 -145 144c0 105 87 160 289 182c-2 52 -23 96 -90 96c-48 0 -94 -22 -138 -48l-42 77c54 34 124 64 202 64c122 0 183 -75 183 -212v-291h-95l-8 54h-4c-44 -37 -94 -66 -152 -66zM229 78c40 0 70 20 107 54v110c-134 -17 -178 -52 -178 -101
c0 -44 30 -63 71 -63zM253 -217c-40 0 -68 27 -68 66c0 38 28 65 68 65s68 -27 68 -65c0 -39 -28 -66 -68 -66z" />
    <glyph glyph-name="uni1EA3" unicode="&#x1ea3;" horiz-adv-x="516" 
d="M192 -12c-86 0 -145 58 -145 144c0 105 87 160 289 182c-2 52 -23 96 -90 96c-48 0 -94 -22 -138 -48l-42 77c54 34 124 64 202 64c122 0 183 -75 183 -212v-291h-95l-8 54h-4c-44 -37 -94 -66 -152 -66zM229 78c40 0 70 20 107 54v110c-134 -17 -178 -52 -178 -101
c0 -44 30 -63 71 -63zM231 570l-10 49c28 7 50 17 50 41c0 26 -24 41 -81 44l7 73c111 -3 161 -43 161 -108c0 -63 -60 -91 -127 -99z" />
    <glyph glyph-name="uni1EA5" unicode="&#x1ea5;" horiz-adv-x="516" 
d="M192 -12c-86 0 -145 58 -145 144c0 105 87 160 289 182c-2 52 -23 96 -90 96c-48 0 -94 -22 -138 -48l-42 77c54 34 124 64 202 64c122 0 183 -75 183 -212v-291h-95l-8 54h-4c-44 -37 -94 -66 -152 -66zM229 78c40 0 70 20 107 54v110c-134 -17 -178 -52 -178 -101
c0 -44 30 -63 71 -63zM164 568l-38 43l97 92h92l97 -92l-38 -43l-103 68h-4zM379 674l83 123l63 -43l-101 -117z" />
    <glyph glyph-name="uni1EA7" unicode="&#x1ea7;" horiz-adv-x="516" 
d="M192 -12c-86 0 -145 58 -145 144c0 105 87 160 289 182c-2 52 -23 96 -90 96c-48 0 -94 -22 -138 -48l-42 77c54 34 124 64 202 64c122 0 183 -75 183 -212v-291h-95l-8 54h-4c-44 -37 -94 -66 -152 -66zM229 78c40 0 70 20 107 54v110c-134 -17 -178 -52 -178 -101
c0 -44 30 -63 71 -63zM164 568l-38 43l97 92h92l97 -92l-38 -43l-103 68h-4zM159 675l-45 -38l-109 116l63 44z" />
    <glyph glyph-name="uni1EA9" unicode="&#x1ea9;" horiz-adv-x="516" 
d="M192 -12c-86 0 -145 58 -145 144c0 105 87 160 289 182c-2 52 -23 96 -90 96c-48 0 -94 -22 -138 -48l-42 77c54 34 124 64 202 64c122 0 183 -75 183 -212v-291h-95l-8 54h-4c-44 -37 -94 -66 -152 -66zM229 78c40 0 70 20 107 54v110c-134 -17 -178 -52 -178 -101
c0 -44 30 -63 71 -63zM164 568l-38 43l97 92h92l97 -92l-38 -43l-103 68h-4zM396 640l-9 42c21 6 36 15 36 34c0 22 -17 34 -67 37l10 52c94 -3 135 -30 135 -77c0 -59 -50 -78 -105 -88z" />
    <glyph glyph-name="uni1EAB" unicode="&#x1eab;" horiz-adv-x="516" 
d="M192 -12c-86 0 -145 58 -145 144c0 105 87 160 289 182c-2 52 -23 96 -90 96c-48 0 -94 -22 -138 -48l-42 77c54 34 124 64 202 64c122 0 183 -75 183 -212v-291h-95l-8 54h-4c-44 -37 -94 -66 -152 -66zM229 78c40 0 70 20 107 54v110c-134 -17 -178 -52 -178 -101
c0 -44 30 -63 71 -63zM164 568l-38 43l97 86h92l97 -86l-38 -43l-103 62h-4zM127 721c6 64 32 100 80 100c57 0 84 -42 118 -42c17 0 26 12 31 40l55 -6c-6 -64 -32 -100 -80 -100c-57 0 -84 42 -118 42c-17 0 -26 -12 -31 -40z" />
    <glyph glyph-name="uni1EAD" unicode="&#x1ead;" horiz-adv-x="516" 
d="M192 -12c-86 0 -145 58 -145 144c0 105 87 160 289 182c-2 52 -23 96 -90 96c-48 0 -94 -22 -138 -48l-42 77c54 34 124 64 202 64c122 0 183 -75 183 -212v-291h-95l-8 54h-4c-44 -37 -94 -66 -152 -66zM229 78c40 0 70 20 107 54v110c-134 -17 -178 -52 -178 -101
c0 -44 30 -63 71 -63zM100 607l111 135h116l111 -135l-45 -43l-122 103h-4l-122 -103zM253 -217c-40 0 -68 27 -68 66c0 38 28 65 68 65s68 -27 68 -65c0 -39 -28 -66 -68 -66z" />
    <glyph glyph-name="uni1EAF" unicode="&#x1eaf;" horiz-adv-x="516" 
d="M192 -12c-86 0 -145 58 -145 144c0 105 87 160 289 182c-2 52 -23 96 -90 96c-48 0 -94 -22 -138 -48l-42 77c54 34 124 64 202 64c122 0 183 -75 183 -212v-291h-95l-8 54h-4c-44 -37 -94 -66 -152 -66zM229 78c40 0 70 20 107 54v110c-134 -17 -178 -52 -178 -101
c0 -44 30 -63 71 -63zM271 689l-52 37l91 132l69 -52zM269 571c-111 0 -158 73 -163 155l62 11c8 -51 39 -98 101 -98s93 47 101 98l62 -11c-5 -82 -52 -155 -163 -155z" />
    <glyph glyph-name="uni1EB1" unicode="&#x1eb1;" horiz-adv-x="516" 
d="M192 -12c-86 0 -145 58 -145 144c0 105 87 160 289 182c-2 52 -23 96 -90 96c-48 0 -94 -22 -138 -48l-42 77c54 34 124 64 202 64c122 0 183 -75 183 -212v-291h-95l-8 54h-4c-44 -37 -94 -66 -152 -66zM229 78c40 0 70 20 107 54v110c-134 -17 -178 -52 -178 -101
c0 -44 30 -63 71 -63zM267 689l-108 117l69 52l91 -132zM269 571c-111 0 -158 73 -163 155l62 11c8 -51 39 -98 101 -98s93 47 101 98l62 -11c-5 -82 -52 -155 -163 -155z" />
    <glyph glyph-name="uni1EB3" unicode="&#x1eb3;" horiz-adv-x="516" 
d="M192 -12c-86 0 -145 58 -145 144c0 105 87 160 289 182c-2 52 -23 96 -90 96c-48 0 -94 -22 -138 -48l-42 77c54 34 124 64 202 64c122 0 183 -75 183 -212v-291h-95l-8 54h-4c-44 -37 -94 -66 -152 -66zM229 78c40 0 70 20 107 54v110c-134 -17 -178 -52 -178 -101
c0 -44 30 -63 71 -63zM238 690l-9 43c24 5 40 14 40 34c0 22 -19 34 -72 37l11 65c96 -3 139 -36 139 -90c0 -60 -52 -81 -109 -89zM269 571c-111 0 -158 73 -163 155l62 11c8 -51 39 -98 101 -98s93 47 101 98l62 -11c-5 -82 -52 -155 -163 -155z" />
    <glyph glyph-name="uni1EB5" unicode="&#x1eb5;" horiz-adv-x="516" 
d="M192 -12c-86 0 -145 58 -145 144c0 105 87 160 289 182c-2 52 -23 96 -90 96c-48 0 -94 -22 -138 -48l-42 77c54 34 124 64 202 64c122 0 183 -75 183 -212v-291h-95l-8 54h-4c-44 -37 -94 -66 -152 -66zM229 78c40 0 70 20 107 54v110c-134 -17 -178 -52 -178 -101
c0 -44 30 -63 71 -63zM269 571c-101 0 -143 55 -149 111l59 10c7 -30 32 -60 90 -60s83 30 90 60l59 -10c-6 -56 -48 -111 -149 -111zM121 720c6 64 35 100 86 100c57 0 84 -42 118 -42c17 0 26 12 31 40l61 -6c-6 -64 -35 -100 -86 -100c-57 0 -84 42 -118 42
c-17 0 -26 -12 -31 -40z" />
    <glyph glyph-name="uni1EB7" unicode="&#x1eb7;" horiz-adv-x="516" 
d="M192 -12c-86 0 -145 58 -145 144c0 105 87 160 289 182c-2 52 -23 96 -90 96c-48 0 -94 -22 -138 -48l-42 77c54 34 124 64 202 64c122 0 183 -75 183 -212v-291h-95l-8 54h-4c-44 -37 -94 -66 -152 -66zM229 78c40 0 70 20 107 54v110c-134 -17 -178 -52 -178 -101
c0 -44 30 -63 71 -63zM269 571c-111 0 -158 73 -163 155l68 11c7 -47 36 -92 95 -92s88 45 95 92l68 -11c-5 -82 -52 -155 -163 -155zM253 -217c-40 0 -68 27 -68 66c0 38 28 65 68 65s68 -27 68 -65c0 -39 -28 -66 -68 -66z" />
    <glyph glyph-name="aogonek" unicode="&#x105;" horiz-adv-x="516" 
d="M382 -208c-55 0 -99 30 -99 88c0 56 43 100 75 121l-10 53h-4c-44 -37 -94 -66 -152 -66c-86 0 -145 58 -145 144c0 105 87 160 289 182c-2 52 -23 96 -90 96c-48 0 -94 -22 -138 -48l-42 77c54 34 124 64 202 64c122 0 183 -75 183 -212v-291c-60 -20 -87 -60 -87 -95
c0 -29 21 -42 44 -42c14 0 27 5 38 13l26 -54c-23 -18 -62 -30 -90 -30zM229 78c40 0 70 20 107 54v110c-134 -17 -178 -52 -178 -101c0 -44 30 -63 71 -63z" />
    <glyph glyph-name="ae" unicode="&#xe6;" horiz-adv-x="785" 
d="M198 -12c-86 0 -146 58 -146 144c0 105 87 161 286 182c-2 52 -21 96 -88 96c-47 0 -93 -22 -136 -48l-42 77c54 34 121 64 193 64c67 0 114 -34 139 -89c40 56 90 89 153 89c125 0 191 -98 191 -235c0 -22 -2 -42 -5 -54h-300c8 -85 64 -134 135 -134c42 0 75 15 111 38
l41 -77c-47 -31 -105 -53 -167 -53c-77 0 -132 37 -171 84c-68 -58 -130 -84 -194 -84zM234 78c39 0 84 22 120 58c-10 23 -15 54 -16 83l-2 23c-125 -17 -172 -51 -172 -101c0 -44 29 -63 70 -63zM443 287h206c0 79 -32 127 -96 127c-56 0 -101 -46 -110 -127z" />
    <glyph glyph-name="uni01FD" unicode="&#x1fd;" horiz-adv-x="785" 
d="M198 -12c-86 0 -146 58 -146 144c0 105 87 161 286 182c-2 52 -21 96 -88 96c-47 0 -93 -22 -136 -48l-42 77c54 34 121 64 193 64c67 0 114 -34 139 -89c40 56 90 89 153 89c125 0 191 -98 191 -235c0 -22 -2 -42 -5 -54h-300c8 -85 64 -134 135 -134c42 0 75 15 111 38
l41 -77c-47 -31 -105 -53 -167 -53c-77 0 -132 37 -171 84c-68 -58 -130 -84 -194 -84zM234 78c39 0 84 22 120 58c-10 23 -15 54 -16 83l-2 23c-125 -17 -172 -51 -172 -101c0 -44 29 -63 70 -63zM443 287h206c0 79 -32 127 -96 127c-56 0 -101 -46 -110 -127zM410 573
l-57 57l147 174l80 -76z" />
    <glyph glyph-name="uni01E3" unicode="&#x1e3;" horiz-adv-x="785" 
d="M198 -12c-86 0 -146 58 -146 144c0 105 87 161 286 182c-2 52 -21 96 -88 96c-47 0 -93 -22 -136 -48l-42 77c54 34 121 64 193 64c67 0 114 -34 139 -89c40 56 90 89 153 89c125 0 191 -98 191 -235c0 -22 -2 -42 -5 -54h-300c8 -85 64 -134 135 -134c42 0 75 15 111 38
l41 -77c-47 -31 -105 -53 -167 -53c-77 0 -132 37 -171 84c-68 -58 -130 -84 -194 -84zM234 78c39 0 84 22 120 58c-10 23 -15 54 -16 83l-2 23c-125 -17 -172 -51 -172 -101c0 -44 29 -63 70 -63zM443 287h206c0 79 -32 127 -96 127c-56 0 -101 -46 -110 -127zM272 596v76
h280v-76h-280z" />
    <glyph glyph-name="uni0180" unicode="&#x180;" horiz-adv-x="558" 
d="M311 -12c-45 0 -93 23 -134 64h-3l-10 -52h-91v564h-71v54l71 5v83h115v-83h176v-59h-176v-84l-3 -82c41 36 92 61 142 61c123 0 194 -91 194 -226c0 -153 -101 -245 -210 -245zM287 83c65 0 115 55 115 148c0 80 -32 133 -106 133c-36 0 -70 -18 -108 -55v-185
c35 -30 70 -41 99 -41z" />
    <glyph glyph-name="uni1E07" unicode="&#x1e07;" horiz-adv-x="563" 
d="M311 -12c-45 0 -93 23 -134 64h-3l-10 -52h-91v706h115v-182l-3 -82c41 36 92 61 142 61c123 0 194 -98 194 -249c0 -169 -101 -266 -210 -266zM287 83c65 0 115 58 115 169c0 98 -32 156 -106 156c-36 0 -70 -18 -108 -55v-229c35 -30 70 -41 99 -41zM149 -180v76h280
v-76h-280z" />
    <glyph glyph-name="ccedilla" unicode="&#xe7;" horiz-adv-x="462" 
d="M183 -233l-10 50c81 5 106 18 106 47c0 23 -18 37 -77 45l40 81c-116 16 -201 107 -201 255c0 164 115 258 246 258c63 0 108 -24 144 -55l-56 -75c-26 23 -51 36 -82 36c-79 0 -134 -65 -134 -164c0 -98 54 -163 131 -163c38 0 73 19 101 42l47 -76
c-37 -32 -81 -51 -126 -57l-23 -53c48 -12 75 -32 75 -73c0 -63 -66 -93 -181 -98z" />
    <glyph glyph-name="cacute" unicode="&#x107;" horiz-adv-x="462" 
d="M278 -12c-134 0 -237 94 -237 257c0 164 115 258 246 258c63 0 108 -24 144 -55l-56 -75c-26 23 -51 36 -82 36c-79 0 -134 -65 -134 -164c0 -98 54 -163 131 -163c38 0 73 19 101 42l47 -76c-46 -40 -104 -60 -160 -60zM283 573l-57 57l147 174l80 -76z" />
    <glyph glyph-name="ccircumflex" unicode="&#x109;" horiz-adv-x="462" 
d="M278 -12c-134 0 -237 94 -237 257c0 164 115 258 246 258c63 0 108 -24 144 -55l-56 -75c-26 23 -51 36 -82 36c-79 0 -134 -65 -134 -164c0 -98 54 -163 131 -163c38 0 73 19 101 42l47 -76c-46 -40 -104 -60 -160 -60zM116 607l111 135h116l111 -135l-45 -43l-122 103
h-4l-122 -103z" />
    <glyph glyph-name="ccaron" unicode="&#x10d;" horiz-adv-x="462" 
d="M278 -12c-134 0 -237 94 -237 257c0 164 115 258 246 258c63 0 108 -24 144 -55l-56 -75c-26 23 -51 36 -82 36c-79 0 -134 -65 -134 -164c0 -98 54 -163 131 -163c38 0 73 19 101 42l47 -76c-46 -40 -104 -60 -160 -60zM227 576l-111 135l45 42l122 -102h4l122 102
l45 -42l-111 -135h-116z" />
    <glyph glyph-name="cdotaccent" unicode="&#x10b;" horiz-adv-x="462" 
d="M278 -12c-134 0 -237 94 -237 257c0 164 115 258 246 258c63 0 108 -24 144 -55l-56 -75c-26 23 -51 36 -82 36c-79 0 -134 -65 -134 -164c0 -98 54 -163 131 -163c38 0 73 19 101 42l47 -76c-46 -40 -104 -60 -160 -60zM285 577c-40 0 -68 27 -68 66c0 38 28 65 68 65
s68 -27 68 -65c0 -39 -28 -66 -68 -66z" />
    <glyph glyph-name="dcaron" unicode="&#x10f;" horiz-adv-x="594" 
d="M245 -12c-123 0 -202 95 -202 257c0 160 101 258 208 258c56 0 91 -21 129 -54l-4 79v178h115v-706h-95l-8 53h-4c-36 -36 -86 -65 -139 -65zM273 83c38 0 70 17 103 55v229c-34 30 -67 41 -100 41c-63 0 -114 -59 -114 -162c0 -106 40 -163 111 -163zM541 548l-5 217h77
l-1 -63l-19 -154h-52z" />
    <glyph glyph-name="uni1E0D" unicode="&#x1e0d;" horiz-adv-x="564" 
d="M245 -12c-123 0 -202 95 -202 257c0 160 101 258 208 258c56 0 91 -21 129 -54l-4 79v178h115v-706h-95l-8 53h-4c-36 -36 -86 -65 -139 -65zM273 83c38 0 70 17 103 55v229c-34 30 -67 41 -100 41c-63 0 -114 -59 -114 -162c0 -106 40 -163 111 -163zM307 -217
c-40 0 -68 27 -68 66c0 38 28 65 68 65s68 -27 68 -65c0 -39 -28 -66 -68 -66z" />
    <glyph glyph-name="uni1E0F" unicode="&#x1e0f;" horiz-adv-x="564" 
d="M245 -12c-123 0 -202 95 -202 257c0 160 101 258 208 258c56 0 91 -21 129 -54l-4 79v178h115v-706h-95l-8 53h-4c-36 -36 -86 -65 -139 -65zM273 83c38 0 70 17 103 55v229c-34 30 -67 41 -100 41c-63 0 -114 -59 -114 -162c0 -106 40 -163 111 -163zM167 -180v76h280
v-76h-280z" />
    <glyph glyph-name="dcroat" unicode="&#x111;" horiz-adv-x="564" 
d="M245 -12c-123 0 -202 90 -202 236c0 142 101 235 208 235c56 0 91 -21 129 -54l-4 79v80h-156v59h156v83h115v-83h70v-54l-70 -5v-564h-97l-8 50h-3c-36 -36 -84 -62 -138 -62zM273 83c38 0 70 17 103 55v185c-34 30 -67 41 -100 41c-63 0 -114 -54 -114 -138
c0 -90 40 -143 111 -143z" />
    <glyph glyph-name="egrave" unicode="&#xe8;" horiz-adv-x="507" 
d="M283 -12c-136 0 -242 95 -242 257c0 160 111 258 226 258c133 0 203 -96 203 -233c0 -22 -2 -44 -5 -56h-312c10 -87 66 -137 145 -137c42 0 78 13 114 36l39 -72c-47 -31 -106 -53 -168 -53zM152 292h218c0 76 -33 122 -100 122c-58 0 -108 -43 -118 -122zM269 573
l-170 155l80 76l147 -174z" />
    <glyph glyph-name="eacute" unicode="&#xe9;" horiz-adv-x="507" 
d="M283 -12c-136 0 -242 95 -242 257c0 160 111 258 226 258c133 0 203 -96 203 -233c0 -22 -2 -44 -5 -56h-312c10 -87 66 -137 145 -137c42 0 78 13 114 36l39 -72c-47 -31 -106 -53 -168 -53zM152 292h218c0 76 -33 122 -100 122c-58 0 -108 -43 -118 -122zM265 573
l-57 57l147 174l80 -76z" />
    <glyph glyph-name="ecircumflex" unicode="&#xea;" horiz-adv-x="507" 
d="M283 -12c-136 0 -242 95 -242 257c0 160 111 258 226 258c133 0 203 -96 203 -233c0 -22 -2 -44 -5 -56h-312c10 -87 66 -137 145 -137c42 0 78 13 114 36l39 -72c-47 -31 -106 -53 -168 -53zM152 292h218c0 76 -33 122 -100 122c-58 0 -108 -43 -118 -122zM98 607
l111 135h116l111 -135l-45 -43l-122 103h-4l-122 -103z" />
    <glyph glyph-name="ecaron" unicode="&#x11b;" horiz-adv-x="507" 
d="M283 -12c-136 0 -242 95 -242 257c0 160 111 258 226 258c133 0 203 -96 203 -233c0 -22 -2 -44 -5 -56h-312c10 -87 66 -137 145 -137c42 0 78 13 114 36l39 -72c-47 -31 -106 -53 -168 -53zM152 292h218c0 76 -33 122 -100 122c-58 0 -108 -43 -118 -122zM209 576
l-111 135l45 42l122 -102h4l122 102l45 -42l-111 -135h-116z" />
    <glyph glyph-name="edieresis" unicode="&#xeb;" horiz-adv-x="507" 
d="M283 -12c-136 0 -242 95 -242 257c0 160 111 258 226 258c133 0 203 -96 203 -233c0 -22 -2 -44 -5 -56h-312c10 -87 66 -137 145 -137c42 0 78 13 114 36l39 -72c-47 -31 -106 -53 -168 -53zM152 292h218c0 76 -33 122 -100 122c-58 0 -108 -43 -118 -122zM164 578
c-35 0 -61 27 -61 61s26 61 61 61c36 0 61 -27 61 -61s-25 -61 -61 -61zM370 578c-36 0 -61 27 -61 61s25 61 61 61c35 0 61 -27 61 -61s-26 -61 -61 -61z" />
    <glyph glyph-name="emacron" unicode="&#x113;" horiz-adv-x="507" 
d="M283 -12c-136 0 -242 95 -242 257c0 160 111 258 226 258c133 0 203 -96 203 -233c0 -22 -2 -44 -5 -56h-312c10 -87 66 -137 145 -137c42 0 78 13 114 36l39 -72c-47 -31 -106 -53 -168 -53zM152 292h218c0 76 -33 122 -100 122c-58 0 -108 -43 -118 -122zM127 596v76
h280v-76h-280z" />
    <glyph glyph-name="ebreve" unicode="&#x115;" horiz-adv-x="507" 
d="M283 -12c-136 0 -242 95 -242 257c0 160 111 258 226 258c133 0 203 -96 203 -233c0 -22 -2 -44 -5 -56h-312c10 -87 66 -137 145 -137c42 0 78 13 114 36l39 -72c-47 -31 -106 -53 -168 -53zM152 292h218c0 76 -33 122 -100 122c-58 0 -108 -43 -118 -122zM267 571
c-111 0 -158 73 -163 155l68 11c7 -47 36 -92 95 -92s88 45 95 92l68 -11c-5 -82 -52 -155 -163 -155z" />
    <glyph glyph-name="edotaccent" unicode="&#x117;" horiz-adv-x="507" 
d="M283 -12c-136 0 -242 95 -242 257c0 160 111 258 226 258c133 0 203 -96 203 -233c0 -22 -2 -44 -5 -56h-312c10 -87 66 -137 145 -137c42 0 78 13 114 36l39 -72c-47 -31 -106 -53 -168 -53zM152 292h218c0 76 -33 122 -100 122c-58 0 -108 -43 -118 -122zM267 577
c-40 0 -68 27 -68 66c0 38 28 65 68 65s68 -27 68 -65c0 -39 -28 -66 -68 -66z" />
    <glyph glyph-name="uni1EB9" unicode="&#x1eb9;" horiz-adv-x="507" 
d="M283 -12c-136 0 -242 95 -242 257c0 160 111 258 226 258c133 0 203 -96 203 -233c0 -22 -2 -44 -5 -56h-312c10 -87 66 -137 145 -137c42 0 78 13 114 36l39 -72c-47 -31 -106 -53 -168 -53zM152 292h218c0 76 -33 122 -100 122c-58 0 -108 -43 -118 -122zM266 -217
c-40 0 -68 27 -68 66c0 38 28 65 68 65s68 -27 68 -65c0 -39 -28 -66 -68 -66z" />
    <glyph glyph-name="uni1EBB" unicode="&#x1ebb;" horiz-adv-x="507" 
d="M283 -12c-136 0 -242 95 -242 257c0 160 111 258 226 258c133 0 203 -96 203 -233c0 -22 -2 -44 -5 -56h-312c10 -87 66 -137 145 -137c42 0 78 13 114 36l39 -72c-47 -31 -106 -53 -168 -53zM152 292h218c0 76 -33 122 -100 122c-58 0 -108 -43 -118 -122zM229 570
l-10 49c28 7 50 17 50 41c0 26 -24 41 -81 44l7 73c111 -3 161 -43 161 -108c0 -63 -60 -91 -127 -99z" />
    <glyph glyph-name="uni1EBD" unicode="&#x1ebd;" horiz-adv-x="507" 
d="M283 -12c-136 0 -242 95 -242 257c0 160 111 258 226 258c133 0 203 -96 203 -233c0 -22 -2 -44 -5 -56h-312c10 -87 66 -137 145 -137c42 0 78 13 114 36l39 -72c-47 -31 -106 -53 -168 -53zM152 292h218c0 76 -33 122 -100 122c-58 0 -108 -43 -118 -122zM336 575
c-67 0 -97 74 -136 74c-25 0 -37 -24 -41 -67l-74 4c3 91 40 144 113 144c67 0 97 -74 137 -74c24 0 36 25 40 67l74 -4c-3 -90 -40 -144 -113 -144z" />
    <glyph glyph-name="uni1EBF" unicode="&#x1ebf;" horiz-adv-x="507" 
d="M283 -12c-136 0 -242 95 -242 257c0 160 111 258 226 258c133 0 203 -96 203 -233c0 -22 -2 -44 -5 -56h-312c10 -87 66 -137 145 -137c42 0 78 13 114 36l39 -72c-47 -31 -106 -53 -168 -53zM152 292h218c0 76 -33 122 -100 122c-58 0 -108 -43 -118 -122zM162 568
l-38 43l97 92h92l97 -92l-38 -43l-103 68h-4zM377 674l83 123l63 -43l-101 -117z" />
    <glyph glyph-name="uni1EC1" unicode="&#x1ec1;" horiz-adv-x="507" 
d="M283 -12c-136 0 -242 95 -242 257c0 160 111 258 226 258c133 0 203 -96 203 -233c0 -22 -2 -44 -5 -56h-312c10 -87 66 -137 145 -137c42 0 78 13 114 36l39 -72c-47 -31 -106 -53 -168 -53zM152 292h218c0 76 -33 122 -100 122c-58 0 -108 -43 -118 -122zM162 568
l-38 43l97 92h92l97 -92l-38 -43l-103 68h-4zM157 675l-45 -38l-109 116l63 44z" />
    <glyph glyph-name="uni1EC3" unicode="&#x1ec3;" horiz-adv-x="507" 
d="M283 -12c-136 0 -242 95 -242 257c0 160 111 258 226 258c133 0 203 -96 203 -233c0 -22 -2 -44 -5 -56h-312c10 -87 66 -137 145 -137c42 0 78 13 114 36l39 -72c-47 -31 -106 -53 -168 -53zM152 292h218c0 76 -33 122 -100 122c-58 0 -108 -43 -118 -122zM162 568
l-38 43l97 92h92l97 -92l-38 -43l-103 68h-4zM394 640l-9 42c21 6 36 15 36 34c0 22 -17 34 -67 37l10 52c94 -3 135 -30 135 -77c0 -59 -50 -78 -105 -88z" />
    <glyph glyph-name="uni1EC5" unicode="&#x1ec5;" horiz-adv-x="507" 
d="M283 -12c-136 0 -242 95 -242 257c0 160 111 258 226 258c133 0 203 -96 203 -233c0 -22 -2 -44 -5 -56h-312c10 -87 66 -137 145 -137c42 0 78 13 114 36l39 -72c-47 -31 -106 -53 -168 -53zM152 292h218c0 76 -33 122 -100 122c-58 0 -108 -43 -118 -122zM162 568
l-38 43l97 86h92l97 -86l-38 -43l-103 62h-4zM125 721c6 64 32 100 80 100c57 0 84 -42 118 -42c17 0 26 12 31 40l55 -6c-6 -64 -32 -100 -80 -100c-57 0 -84 42 -118 42c-17 0 -26 -12 -31 -40z" />
    <glyph glyph-name="uni1EC7" unicode="&#x1ec7;" horiz-adv-x="507" 
d="M283 -12c-136 0 -242 95 -242 257c0 160 111 258 226 258c133 0 203 -96 203 -233c0 -22 -2 -44 -5 -56h-312c10 -87 66 -137 145 -137c42 0 78 13 114 36l39 -72c-47 -31 -106 -53 -168 -53zM152 292h218c0 76 -33 122 -100 122c-58 0 -108 -43 -118 -122zM98 607
l111 135h116l111 -135l-45 -43l-122 103h-4l-122 -103zM266 -217c-40 0 -68 27 -68 66c0 38 28 65 68 65s68 -27 68 -65c0 -39 -28 -66 -68 -66z" />
    <glyph glyph-name="eogonek" unicode="&#x119;" horiz-adv-x="507" 
d="M360 -208c-55 0 -97 30 -97 88c0 49 32 90 58 113c-15 -4 -26 -5 -38 -5c-136 0 -242 95 -242 257c0 160 111 258 226 258c133 0 203 -96 203 -233c0 -22 -2 -44 -5 -56h-312c10 -87 66 -137 145 -137c42 0 78 13 114 36l39 -72c-87 -61 -109 -95 -109 -136
c0 -28 20 -42 45 -42c14 0 26 5 37 13l26 -54c-22 -18 -62 -30 -90 -30zM152 292h218c0 76 -33 122 -100 122c-58 0 -108 -43 -118 -122z" />
    <glyph glyph-name="uni1E17" unicode="&#x1e17;" horiz-adv-x="507" 
d="M283 -12c-136 0 -242 95 -242 257c0 160 111 258 226 258c133 0 203 -96 203 -233c0 -22 -2 -44 -5 -56h-312c10 -87 66 -137 145 -137c42 0 78 13 114 36l39 -72c-47 -31 -106 -53 -168 -53zM152 292h218c0 76 -33 122 -100 122c-58 0 -108 -43 -118 -122zM236 709
l-41 49l140 103l49 -62zM127 596v76h280v-76h-280z" />
    <glyph glyph-name="uni01F5" unicode="&#x1f5;" horiz-adv-x="520" 
d="M244 -217c-117 0 -204 42 -204 128c0 41 25 77 70 105v4c-25 16 -44 42 -44 82c0 38 26 71 54 91v4c-33 25 -64 72 -64 130c0 113 91 176 194 176c27 0 52 -5 72 -12h176v-85h-90c16 -19 28 -49 28 -83c0 -109 -82 -167 -186 -167c-21 0 -45 4 -67 13
c-15 -13 -24 -25 -24 -47c0 -28 20 -45 80 -45h87c118 0 180 -36 180 -121c0 -97 -102 -173 -262 -173zM250 228c47 0 85 36 85 99c0 61 -37 97 -85 97s-86 -35 -86 -97c0 -63 38 -99 86 -99zM262 -142c79 0 133 37 133 79c0 38 -31 49 -87 49h-67c-27 0 -48 2 -67 7
c-26 -20 -38 -42 -38 -65c0 -44 48 -70 126 -70zM272 573l-57 57l147 174l80 -76z" />
    <glyph glyph-name="gcircumflex" unicode="&#x11d;" horiz-adv-x="520" 
d="M244 -217c-117 0 -204 42 -204 128c0 41 25 77 70 105v4c-25 16 -44 42 -44 82c0 38 26 71 54 91v4c-33 25 -64 72 -64 130c0 113 91 176 194 176c27 0 52 -5 72 -12h176v-85h-90c16 -19 28 -49 28 -83c0 -109 -82 -167 -186 -167c-21 0 -45 4 -67 13
c-15 -13 -24 -25 -24 -47c0 -28 20 -45 80 -45h87c118 0 180 -36 180 -121c0 -97 -102 -173 -262 -173zM250 228c47 0 85 36 85 99c0 61 -37 97 -85 97s-86 -35 -86 -97c0 -63 38 -99 86 -99zM262 -142c79 0 133 37 133 79c0 38 -31 49 -87 49h-67c-27 0 -48 2 -67 7
c-26 -20 -38 -42 -38 -65c0 -44 48 -70 126 -70zM105 607l111 135h116l111 -135l-45 -43l-122 103h-4l-122 -103z" />
    <glyph glyph-name="gbreve" unicode="&#x11f;" horiz-adv-x="520" 
d="M244 -217c-117 0 -204 42 -204 128c0 41 25 77 70 105v4c-25 16 -44 42 -44 82c0 38 26 71 54 91v4c-33 25 -64 72 -64 130c0 113 91 176 194 176c27 0 52 -5 72 -12h176v-85h-90c16 -19 28 -49 28 -83c0 -109 -82 -167 -186 -167c-21 0 -45 4 -67 13
c-15 -13 -24 -25 -24 -47c0 -28 20 -45 80 -45h87c118 0 180 -36 180 -121c0 -97 -102 -173 -262 -173zM250 228c47 0 85 36 85 99c0 61 -37 97 -85 97s-86 -35 -86 -97c0 -63 38 -99 86 -99zM262 -142c79 0 133 37 133 79c0 38 -31 49 -87 49h-67c-27 0 -48 2 -67 7
c-26 -20 -38 -42 -38 -65c0 -44 48 -70 126 -70zM274 571c-111 0 -158 73 -163 155l68 11c7 -47 36 -92 95 -92s88 45 95 92l68 -11c-5 -82 -52 -155 -163 -155z" />
    <glyph glyph-name="gdotaccent" unicode="&#x121;" horiz-adv-x="520" 
d="M244 -217c-117 0 -204 42 -204 128c0 41 25 77 70 105v4c-25 16 -44 42 -44 82c0 38 26 71 54 91v4c-33 25 -64 72 -64 130c0 113 91 176 194 176c27 0 52 -5 72 -12h176v-85h-90c16 -19 28 -49 28 -83c0 -109 -82 -167 -186 -167c-21 0 -45 4 -67 13
c-15 -13 -24 -25 -24 -47c0 -28 20 -45 80 -45h87c118 0 180 -36 180 -121c0 -97 -102 -173 -262 -173zM250 228c47 0 85 36 85 99c0 61 -37 97 -85 97s-86 -35 -86 -97c0 -63 38 -99 86 -99zM262 -142c79 0 133 37 133 79c0 38 -31 49 -87 49h-67c-27 0 -48 2 -67 7
c-26 -20 -38 -42 -38 -65c0 -44 48 -70 126 -70zM274 577c-40 0 -68 27 -68 66c0 38 28 65 68 65s68 -27 68 -65c0 -39 -28 -66 -68 -66z" />
    <glyph glyph-name="uni0123" unicode="&#x123;" horiz-adv-x="520" 
d="M244 -217c-117 0 -204 42 -204 128c0 41 25 77 70 105v4c-25 16 -44 42 -44 82c0 38 26 71 54 91v4c-33 25 -64 72 -64 130c0 113 91 176 194 176c27 0 52 -5 72 -12h176v-85h-90c16 -19 28 -49 28 -83c0 -109 -82 -167 -186 -167c-21 0 -45 4 -67 13
c-15 -13 -24 -25 -24 -47c0 -28 20 -45 80 -45h87c118 0 180 -36 180 -121c0 -97 -102 -173 -262 -173zM250 228c47 0 85 36 85 99c0 61 -37 97 -85 97s-86 -35 -86 -97c0 -63 38 -99 86 -99zM262 -142c79 0 133 37 133 79c0 38 -31 49 -87 49h-67c-27 0 -48 2 -67 7
c-26 -20 -38 -42 -38 -65c0 -44 48 -70 126 -70zM316 572c-97 9 -129 33 -129 80c0 63 66 93 181 98l10 -50c-81 -5 -106 -18 -106 -44c0 -22 22 -34 68 -38z" />
    <glyph glyph-name="gcaron" unicode="&#x1e7;" horiz-adv-x="520" 
d="M244 -217c-117 0 -204 42 -204 128c0 41 25 77 70 105v4c-25 16 -44 42 -44 82c0 38 26 71 54 91v4c-33 25 -64 72 -64 130c0 113 91 176 194 176c27 0 52 -5 72 -12h176v-85h-90c16 -19 28 -49 28 -83c0 -109 -82 -167 -186 -167c-21 0 -45 4 -67 13
c-15 -13 -24 -25 -24 -47c0 -28 20 -45 80 -45h87c118 0 180 -36 180 -121c0 -97 -102 -173 -262 -173zM250 228c47 0 85 36 85 99c0 61 -37 97 -85 97s-86 -35 -86 -97c0 -63 38 -99 86 -99zM262 -142c79 0 133 37 133 79c0 38 -31 49 -87 49h-67c-27 0 -48 2 -67 7
c-26 -20 -38 -42 -38 -65c0 -44 48 -70 126 -70zM216 576l-111 135l45 42l122 -102h4l122 102l45 -42l-111 -135h-116z" />
    <glyph glyph-name="uni1E21" unicode="&#x1e21;" horiz-adv-x="520" 
d="M244 -217c-117 0 -204 42 -204 128c0 41 25 77 70 105v4c-25 16 -44 42 -44 82c0 38 26 71 54 91v4c-33 25 -64 72 -64 130c0 113 91 176 194 176c27 0 52 -5 72 -12h176v-85h-90c16 -19 28 -49 28 -83c0 -109 -82 -167 -186 -167c-21 0 -45 4 -67 13
c-15 -13 -24 -25 -24 -47c0 -28 20 -45 80 -45h87c118 0 180 -36 180 -121c0 -97 -102 -173 -262 -173zM250 228c47 0 85 36 85 99c0 61 -37 97 -85 97s-86 -35 -86 -97c0 -63 38 -99 86 -99zM262 -142c79 0 133 37 133 79c0 38 -31 49 -87 49h-67c-27 0 -48 2 -67 7
c-26 -20 -38 -42 -38 -65c0 -44 48 -70 126 -70zM134 596v76h280v-76h-280z" />
    <glyph glyph-name="uni00670303" horiz-adv-x="520" 
d="M244 -217c-117 0 -204 42 -204 128c0 41 25 77 70 105v4c-25 16 -44 42 -44 82c0 38 26 71 54 91v4c-33 25 -64 72 -64 130c0 113 91 176 194 176c27 0 52 -5 72 -12h176v-85h-90c16 -19 28 -49 28 -83c0 -109 -82 -167 -186 -167c-21 0 -45 4 -67 13
c-15 -13 -24 -25 -24 -47c0 -28 20 -45 80 -45h87c118 0 180 -36 180 -121c0 -97 -102 -173 -262 -173zM250 228c47 0 85 36 85 99c0 61 -37 97 -85 97s-86 -35 -86 -97c0 -63 38 -99 86 -99zM262 -142c79 0 133 37 133 79c0 38 -31 49 -87 49h-67c-27 0 -48 2 -67 7
c-26 -20 -38 -42 -38 -65c0 -44 48 -70 126 -70zM343 575c-67 0 -97 74 -136 74c-25 0 -37 -24 -41 -67l-74 4c3 91 40 144 113 144c67 0 97 -74 137 -74c24 0 36 25 40 67l74 -4c-3 -90 -40 -144 -113 -144z" />
    <glyph glyph-name="hcircumflex" unicode="&#x125;" horiz-adv-x="558" 
d="M73 0v706h115v-182l-4 -95c41 39 90 74 157 74c105 0 151 -71 151 -195v-308h-115v293c0 81 -23 111 -77 111c-43 0 -71 -21 -112 -61v-343h-115zM-29 770l97 111h124l97 -111l-50 -33l-107 88h-4l-107 -88z" />
    <glyph glyph-name="uni1E25" unicode="&#x1e25;" horiz-adv-x="558" 
d="M73 0v706h115v-182l-4 -95c41 39 90 74 157 74c105 0 151 -71 151 -195v-308h-115v293c0 81 -23 111 -77 111c-43 0 -71 -21 -112 -61v-343h-115zM290 -217c-40 0 -68 27 -68 66c0 38 28 65 68 65s68 -27 68 -65c0 -39 -28 -66 -68 -66z" />
    <glyph glyph-name="uni1E96" unicode="&#x1e96;" horiz-adv-x="558" 
d="M73 0v706h115v-182l-4 -95c41 39 90 74 157 74c105 0 151 -71 151 -195v-308h-115v293c0 81 -23 111 -77 111c-43 0 -71 -21 -112 -61v-343h-115zM150 -180v76h280v-76h-280z" />
    <glyph glyph-name="uni1E2B" unicode="&#x1e2b;" horiz-adv-x="558" 
d="M73 0v706h115v-182l-4 -95c41 39 90 74 157 74c105 0 151 -71 151 -195v-308h-115v293c0 81 -23 111 -77 111c-43 0 -71 -21 -112 -61v-343h-115zM289 -233c-111 0 -158 73 -163 155l68 11c7 -47 36 -92 95 -92s88 45 95 92l68 -11c-5 -82 -52 -155 -163 -155z" />
    <glyph glyph-name="hbar" unicode="&#x127;" horiz-adv-x="558" 
d="M73 0v564h-71v54l71 5v83h115v-83h176v-59h-176v-84l-4 -95c41 39 90 74 157 74c105 0 151 -71 151 -195v-264h-115v249c0 81 -23 111 -77 111c-43 0 -71 -21 -112 -61v-299h-115z" />
    <glyph glyph-name="igrave" unicode="&#xec;" horiz-adv-x="262" 
d="M73 0v491h115v-491h-115zM133 573l-170 155l80 76l147 -174z" />
    <glyph glyph-name="iacute" unicode="&#xed;" horiz-adv-x="262" 
d="M73 0v491h115v-491h-115zM129 573l-57 57l147 174l80 -76z" />
    <glyph glyph-name="icircumflex" unicode="&#xee;" horiz-adv-x="262" 
d="M73 0v491h115v-491h-115zM-38 607l111 135h116l111 -135l-45 -43l-122 103h-4l-122 -103z" />
    <glyph glyph-name="itilde" unicode="&#x129;" horiz-adv-x="262" 
d="M73 0v491h115v-491h-115zM200 575c-67 0 -97 74 -136 74c-25 0 -37 -24 -41 -67l-74 4c3 91 40 144 113 144c67 0 97 -74 137 -74c24 0 36 25 40 67l74 -4c-3 -90 -40 -144 -113 -144z" />
    <glyph glyph-name="idieresis" unicode="&#xef;" horiz-adv-x="262" 
d="M73 0v491h115v-491h-115zM28 578c-35 0 -61 27 -61 61s26 61 61 61c36 0 61 -27 61 -61s-25 -61 -61 -61zM234 578c-36 0 -61 27 -61 61s25 61 61 61c35 0 61 -27 61 -61s-26 -61 -61 -61z" />
    <glyph glyph-name="imacron" unicode="&#x12b;" horiz-adv-x="262" 
d="M73 0v491h115v-491h-115zM-9 596v76h280v-76h-280z" />
    <glyph glyph-name="uni01D0" unicode="&#x1d0;" horiz-adv-x="262" 
d="M73 0v491h115v-491h-115zM73 576l-111 135l45 42l122 -102h4l122 102l45 -42l-111 -135h-116z" />
    <glyph glyph-name="uni1EC9" unicode="&#x1ec9;" horiz-adv-x="262" 
d="M73 0v491h115v-491h-115zM93 570l-10 49c28 7 50 17 50 41c0 26 -24 41 -81 44l7 73c111 -3 161 -43 161 -108c0 -63 -60 -91 -127 -99z" />
    <glyph glyph-name="uni1ECB" unicode="&#x1ecb;" horiz-adv-x="262" 
d="M73 0v491h115v-491h-115zM131 577c-41 0 -71 27 -71 65c0 39 30 66 71 66s71 -27 71 -66c0 -38 -30 -65 -71 -65zM131 -217c-40 0 -68 27 -68 66c0 38 28 65 68 65s68 -27 68 -65c0 -39 -28 -66 -68 -66z" />
    <glyph glyph-name="iogonek" unicode="&#x12f;" horiz-adv-x="262" 
d="M138 -208c-55 0 -98 30 -98 88c0 56 38 96 64 120h-31v491h115v-491c-46 -24 -68 -60 -68 -95c0 -28 21 -42 45 -42c13 0 25 5 37 13l26 -54c-22 -18 -62 -30 -90 -30zM130 577c-40 0 -71 27 -71 65c0 39 31 66 71 66c41 0 72 -27 72 -66c0 -38 -31 -65 -72 -65z" />
    <glyph glyph-name="iogonek.d" horiz-adv-x="262" 
d="M138 -208c-55 0 -98 30 -98 88c0 56 38 96 64 120h-31v491h115v-491c-46 -24 -68 -60 -68 -95c0 -28 21 -42 45 -42c13 0 25 5 37 13l26 -54c-22 -18 -62 -30 -90 -30z" />
    <glyph glyph-name="uni012D" unicode="&#x12d;" horiz-adv-x="262" 
d="M73 0v491h115v-491h-115zM131 571c-111 0 -158 73 -163 155l68 11c7 -47 36 -92 95 -92s88 45 95 92l68 -11c-5 -82 -52 -155 -163 -155z" />
    <glyph glyph-name="dotlessi" unicode="&#x131;" horiz-adv-x="262" 
d="M73 0v491h115v-491h-115z" />
    <glyph glyph-name="jcircumflex" unicode="&#x135;" horiz-adv-x="263" 
d="M34 -206c-36 0 -61 6 -80 13l22 86c13 -4 27 -8 42 -8c44 0 56 31 56 88v518h116v-516c0 -104 -40 -181 -156 -181zM-37 607l111 135h116l111 -135l-45 -43l-122 103h-4l-122 -103z" />
    <glyph glyph-name="uni0137" unicode="&#x137;" horiz-adv-x="522" 
d="M73 0v706h113v-441h3l182 226h126l-168 -200l185 -291h-125l-126 213l-77 -88v-125h-113zM189 -233l-10 50c81 5 106 18 106 43c0 23 -22 35 -68 39l24 46c97 -9 129 -33 129 -80c0 -63 -66 -93 -181 -98z" />
    <glyph glyph-name="uni1E33" unicode="&#x1e33;" horiz-adv-x="522" 
d="M73 0v706h113v-441h3l182 226h126l-168 -200l185 -291h-125l-126 213l-77 -88v-125h-113zM283 -217c-40 0 -68 27 -68 66c0 38 28 65 68 65s68 -27 68 -65c0 -39 -28 -66 -68 -66z" />
    <glyph glyph-name="uni1E35" unicode="&#x1e35;" horiz-adv-x="522" 
d="M73 0v706h113v-441h3l182 226h126l-168 -200l185 -291h-125l-126 213l-77 -88v-125h-113zM143 -180v76h280v-76h-280z" />
    <glyph glyph-name="kgreenlandic" unicode="&#x138;" horiz-adv-x="522" 
d="M73 0v491h115v-228h4l179 228h126l-166 -200l183 -291h-125l-126 210l-75 -89v-121h-115z" />
    <glyph glyph-name="lacute" unicode="&#x13a;" horiz-adv-x="271" 
d="M185 -12c-82 0 -112 53 -112 138v580h115v-586c0 -28 13 -38 25 -38c5 0 9 0 18 2l15 -86c-14 -6 -34 -10 -61 -10zM116 742l-51 58l157 135l62 -76z" />
    <glyph glyph-name="lcaron" unicode="&#x13e;" horiz-adv-x="295" 
d="M185 -12c-82 0 -112 53 -112 138v580h115v-586c0 -28 13 -38 25 -38c5 0 9 0 18 2l15 -86c-14 -6 -34 -10 -61 -10zM239 548l-5 217h77l-1 -63l-19 -154h-52z" />
    <glyph glyph-name="ldot" unicode="&#x140;" horiz-adv-x="408" 
d="M185 -12c-82 0 -112 53 -112 138v580h115v-586c0 -28 13 -38 25 -38c5 0 9 0 18 2l15 -86c-14 -6 -34 -10 -61 -10zM335 249c-42 0 -75 33 -75 78s33 78 75 78s74 -33 74 -78s-32 -78 -74 -78z" />
    <glyph glyph-name="uni013C" unicode="&#x13c;" horiz-adv-x="271" 
d="M185 -12c-82 0 -112 53 -112 138v580h115v-586c0 -28 13 -38 25 -38c5 0 9 0 18 2l15 -86c-14 -6 -34 -10 -61 -10zM78 -233l-10 50c81 5 106 18 106 43c0 23 -22 35 -68 39l24 46c97 -9 129 -33 129 -80c0 -63 -66 -93 -181 -98z" />
    <glyph glyph-name="uni1E37" unicode="&#x1e37;" horiz-adv-x="271" 
d="M185 -12c-82 0 -112 53 -112 138v580h115v-586c0 -28 13 -38 25 -38c5 0 9 0 18 2l15 -86c-14 -6 -34 -10 -61 -10zM172 -217c-40 0 -68 27 -68 66c0 38 28 65 68 65s68 -27 68 -65c0 -39 -28 -66 -68 -66z" />
    <glyph glyph-name="uni1E39" unicode="&#x1e39;" horiz-adv-x="271" 
d="M185 -12c-82 0 -112 53 -112 138v580h115v-586c0 -28 13 -38 25 -38c5 0 9 0 18 2l15 -86c-14 -6 -34 -10 -61 -10zM-10 812v76h280v-76h-280zM172 -217c-40 0 -68 27 -68 66c0 38 28 65 68 65s68 -27 68 -65c0 -39 -28 -66 -68 -66z" />
    <glyph glyph-name="uni1E3B" unicode="&#x1e3b;" horiz-adv-x="271" 
d="M185 -12c-82 0 -112 53 -112 138v580h115v-586c0 -28 13 -38 25 -38c5 0 9 0 18 2l15 -86c-14 -6 -34 -10 -61 -10zM32 -180v76h280v-76h-280z" />
    <glyph glyph-name="lslash" unicode="&#x142;" horiz-adv-x="283" 
d="M192 -12c-82 0 -112 53 -112 138v177l-51 -31l-40 72l91 54v308h115v-250l51 30l41 -72l-92 -54v-240c0 -28 13 -38 25 -38c5 0 9 0 18 2l15 -86c-14 -6 -34 -10 -61 -10z" />
    <glyph glyph-name="uni1E3F" unicode="&#x1e3f;" horiz-adv-x="843" 
d="M73 0v491h95l8 -67h4c41 44 89 79 150 79c72 0 113 -33 136 -88c47 50 96 88 158 88c104 0 152 -71 152 -195v-308h-116v293c0 81 -24 111 -75 111c-31 0 -65 -20 -103 -61v-343h-115v293c0 81 -24 111 -76 111c-30 0 -65 -20 -103 -61v-343h-115zM427 573l-57 57
l147 174l80 -76z" />
    <glyph glyph-name="uni1E41" unicode="&#x1e41;" horiz-adv-x="843" 
d="M73 0v491h95l8 -67h4c41 44 89 79 150 79c72 0 113 -33 136 -88c47 50 96 88 158 88c104 0 152 -71 152 -195v-308h-116v293c0 81 -24 111 -75 111c-31 0 -65 -20 -103 -61v-343h-115v293c0 81 -24 111 -76 111c-30 0 -65 -20 -103 -61v-343h-115zM429 577
c-40 0 -68 27 -68 66c0 38 28 65 68 65s68 -27 68 -65c0 -39 -28 -66 -68 -66z" />
    <glyph glyph-name="uni1E43" unicode="&#x1e43;" horiz-adv-x="843" 
d="M73 0v491h95l8 -67h4c41 44 89 79 150 79c72 0 113 -33 136 -88c47 50 96 88 158 88c104 0 152 -71 152 -195v-308h-116v293c0 81 -24 111 -75 111c-31 0 -65 -20 -103 -61v-343h-115v293c0 81 -24 111 -76 111c-30 0 -65 -20 -103 -61v-343h-115zM433 -217
c-40 0 -68 27 -68 66c0 38 28 65 68 65s68 -27 68 -65c0 -39 -28 -66 -68 -66z" />
    <glyph glyph-name="nacute" unicode="&#x144;" horiz-adv-x="560" 
d="M73 0v491h95l8 -66h4c44 43 94 78 161 78c105 0 151 -71 151 -195v-308h-115v293c0 81 -23 111 -77 111c-43 0 -71 -21 -112 -61v-343h-115zM298 573l-57 57l147 174l80 -76z" />
    <glyph glyph-name="uni01F9" unicode="&#x1f9;" horiz-adv-x="560" 
d="M73 0v491h95l8 -66h4c44 43 94 78 161 78c105 0 151 -71 151 -195v-308h-115v293c0 81 -23 111 -77 111c-43 0 -71 -21 -112 -61v-343h-115zM302 573l-170 155l80 76l147 -174z" />
    <glyph glyph-name="ncaron" unicode="&#x148;" horiz-adv-x="560" 
d="M73 0v491h95l8 -66h4c44 43 94 78 161 78c105 0 151 -71 151 -195v-308h-115v293c0 81 -23 111 -77 111c-43 0 -71 -21 -112 -61v-343h-115zM242 576l-111 135l45 42l122 -102h4l122 102l45 -42l-111 -135h-116z" />
    <glyph glyph-name="ntilde" unicode="&#xf1;" horiz-adv-x="560" 
d="M73 0v491h95l8 -66h4c44 43 94 78 161 78c105 0 151 -71 151 -195v-308h-115v293c0 81 -23 111 -77 111c-43 0 -71 -21 -112 -61v-343h-115zM369 575c-67 0 -97 74 -136 74c-25 0 -37 -24 -41 -67l-74 4c3 91 40 144 113 144c67 0 97 -74 137 -74c24 0 36 25 40 67l74 -4
c-3 -90 -40 -144 -113 -144z" />
    <glyph glyph-name="uni0146" unicode="&#x146;" horiz-adv-x="560" 
d="M73 0v491h95l8 -66h4c44 43 94 78 161 78c105 0 151 -71 151 -195v-308h-115v293c0 81 -23 111 -77 111c-43 0 -71 -21 -112 -61v-343h-115zM191 -233l-10 50c81 5 106 18 106 43c0 23 -22 35 -68 39l24 46c97 -9 129 -33 129 -80c0 -63 -66 -93 -181 -98z" />
    <glyph glyph-name="uni1E45" unicode="&#x1e45;" horiz-adv-x="560" 
d="M73 0v491h95l8 -66h4c44 43 94 78 161 78c105 0 151 -71 151 -195v-308h-115v293c0 81 -23 111 -77 111c-43 0 -71 -21 -112 -61v-343h-115zM300 577c-40 0 -68 27 -68 66c0 38 28 65 68 65s68 -27 68 -65c0 -39 -28 -66 -68 -66z" />
    <glyph glyph-name="uni1E47" unicode="&#x1e47;" horiz-adv-x="560" 
d="M73 0v491h95l8 -66h4c44 43 94 78 161 78c105 0 151 -71 151 -195v-308h-115v293c0 81 -23 111 -77 111c-43 0 -71 -21 -112 -61v-343h-115zM286 -217c-40 0 -68 27 -68 66c0 38 28 65 68 65s68 -27 68 -65c0 -39 -28 -66 -68 -66z" />
    <glyph glyph-name="uni1E49" unicode="&#x1e49;" horiz-adv-x="560" 
d="M73 0v491h95l8 -66h4c44 43 94 78 161 78c105 0 151 -71 151 -195v-308h-115v293c0 81 -23 111 -77 111c-43 0 -71 -21 -112 -61v-343h-115zM145 -180v76h280v-76h-280z" />
    <glyph glyph-name="napostrophe" unicode="&#x149;" horiz-adv-x="814" 
d="M324 0v491h95l8 -66h4c44 43 94 78 161 78c105 0 151 -71 151 -195v-308h-115v293c0 81 -23 111 -77 111c-43 0 -71 -21 -112 -61v-343h-115zM95 391l-28 51c55 32 83 68 83 126c-3 -1 -6 -1 -9 -1c-35 0 -65 23 -65 62c0 42 27 69 65 69c51 0 79 -41 79 -111
c0 -87 -42 -153 -125 -196z" />
    <glyph glyph-name="ograve" unicode="&#xf2;" horiz-adv-x="549" 
d="M274 -12c-122 0 -233 94 -233 257c0 164 111 258 233 258c123 0 234 -94 234 -258c0 -163 -111 -257 -234 -257zM274 82c72 0 116 65 116 163c0 99 -44 164 -116 164s-115 -65 -115 -164c0 -98 43 -163 115 -163zM276 573l-170 155l80 76l147 -174z" />
    <glyph glyph-name="oacute" unicode="&#xf3;" horiz-adv-x="549" 
d="M274 -12c-122 0 -233 94 -233 257c0 164 111 258 233 258c123 0 234 -94 234 -258c0 -163 -111 -257 -234 -257zM274 82c72 0 116 65 116 163c0 99 -44 164 -116 164s-115 -65 -115 -164c0 -98 43 -163 115 -163zM272 573l-57 57l147 174l80 -76z" />
    <glyph glyph-name="ocircumflex" unicode="&#xf4;" horiz-adv-x="549" 
d="M274 -12c-122 0 -233 94 -233 257c0 164 111 258 233 258c123 0 234 -94 234 -258c0 -163 -111 -257 -234 -257zM274 82c72 0 116 65 116 163c0 99 -44 164 -116 164s-115 -65 -115 -164c0 -98 43 -163 115 -163zM105 607l111 135h116l111 -135l-45 -43l-122 103h-4
l-122 -103z" />
    <glyph glyph-name="otilde" unicode="&#xf5;" horiz-adv-x="549" 
d="M274 -12c-122 0 -233 94 -233 257c0 164 111 258 233 258c123 0 234 -94 234 -258c0 -163 -111 -257 -234 -257zM274 82c72 0 116 65 116 163c0 99 -44 164 -116 164s-115 -65 -115 -164c0 -98 43 -163 115 -163zM343 575c-67 0 -97 74 -136 74c-25 0 -37 -24 -41 -67
l-74 4c3 91 40 144 113 144c67 0 97 -74 137 -74c24 0 36 25 40 67l74 -4c-3 -90 -40 -144 -113 -144z" />
    <glyph glyph-name="odieresis" unicode="&#xf6;" horiz-adv-x="549" 
d="M274 -12c-122 0 -233 94 -233 257c0 164 111 258 233 258c123 0 234 -94 234 -258c0 -163 -111 -257 -234 -257zM274 82c72 0 116 65 116 163c0 99 -44 164 -116 164s-115 -65 -115 -164c0 -98 43 -163 115 -163zM171 578c-35 0 -61 27 -61 61s26 61 61 61
c36 0 61 -27 61 -61s-25 -61 -61 -61zM377 578c-36 0 -61 27 -61 61s25 61 61 61c35 0 61 -27 61 -61s-26 -61 -61 -61z" />
    <glyph glyph-name="omacron" unicode="&#x14d;" horiz-adv-x="549" 
d="M274 -12c-122 0 -233 94 -233 257c0 164 111 258 233 258c123 0 234 -94 234 -258c0 -163 -111 -257 -234 -257zM274 82c72 0 116 65 116 163c0 99 -44 164 -116 164s-115 -65 -115 -164c0 -98 43 -163 115 -163zM134 596v76h280v-76h-280z" />
    <glyph glyph-name="ohungarumlaut" unicode="&#x151;" horiz-adv-x="549" 
d="M274 -12c-122 0 -233 94 -233 257c0 164 111 258 233 258c123 0 234 -94 234 -258c0 -163 -111 -257 -234 -257zM274 82c72 0 116 65 116 163c0 99 -44 164 -116 164s-115 -65 -115 -164c0 -98 43 -163 115 -163zM223 566l-62 28l87 177l79 -36zM388 566l-62 28l87 177
l79 -36z" />
    <glyph glyph-name="uni01D2" unicode="&#x1d2;" horiz-adv-x="549" 
d="M274 -12c-122 0 -233 94 -233 257c0 164 111 258 233 258c123 0 234 -94 234 -258c0 -163 -111 -257 -234 -257zM274 82c72 0 116 65 116 163c0 99 -44 164 -116 164s-115 -65 -115 -164c0 -98 43 -163 115 -163zM216 576l-111 135l45 42l122 -102h4l122 102l45 -42
l-111 -135h-116z" />
    <glyph glyph-name="uni1ECD" unicode="&#x1ecd;" horiz-adv-x="549" 
d="M274 -12c-122 0 -233 94 -233 257c0 164 111 258 233 258c123 0 234 -94 234 -258c0 -163 -111 -257 -234 -257zM274 82c72 0 116 65 116 163c0 99 -44 164 -116 164s-115 -65 -115 -164c0 -98 43 -163 115 -163zM275 -217c-40 0 -68 27 -68 66c0 38 28 65 68 65
s68 -27 68 -65c0 -39 -28 -66 -68 -66z" />
    <glyph glyph-name="uni1ECF" unicode="&#x1ecf;" horiz-adv-x="549" 
d="M274 -12c-122 0 -233 94 -233 257c0 164 111 258 233 258c123 0 234 -94 234 -258c0 -163 -111 -257 -234 -257zM274 82c72 0 116 65 116 163c0 99 -44 164 -116 164s-115 -65 -115 -164c0 -98 43 -163 115 -163zM236 570l-10 49c28 7 50 17 50 41c0 26 -24 41 -81 44
l7 73c111 -3 161 -43 161 -108c0 -63 -60 -91 -127 -99z" />
    <glyph glyph-name="uni1ED1" unicode="&#x1ed1;" horiz-adv-x="549" 
d="M274 -12c-122 0 -233 94 -233 257c0 164 111 258 233 258c123 0 234 -94 234 -258c0 -163 -111 -257 -234 -257zM274 82c72 0 116 65 116 163c0 99 -44 164 -116 164s-115 -65 -115 -164c0 -98 43 -163 115 -163zM169 568l-38 43l97 92h92l97 -92l-38 -43l-103 68h-4z
M384 674l83 123l63 -43l-101 -117z" />
    <glyph glyph-name="uni1ED3" unicode="&#x1ed3;" horiz-adv-x="549" 
d="M274 -12c-122 0 -233 94 -233 257c0 164 111 258 233 258c123 0 234 -94 234 -258c0 -163 -111 -257 -234 -257zM274 82c72 0 116 65 116 163c0 99 -44 164 -116 164s-115 -65 -115 -164c0 -98 43 -163 115 -163zM169 568l-38 43l97 92h92l97 -92l-38 -43l-103 68h-4z
M164 675l-45 -38l-109 116l63 44z" />
    <glyph glyph-name="uni1ED5" unicode="&#x1ed5;" horiz-adv-x="549" 
d="M274 -12c-122 0 -233 94 -233 257c0 164 111 258 233 258c123 0 234 -94 234 -258c0 -163 -111 -257 -234 -257zM274 82c72 0 116 65 116 163c0 99 -44 164 -116 164s-115 -65 -115 -164c0 -98 43 -163 115 -163zM169 568l-38 43l97 92h92l97 -92l-38 -43l-103 68h-4z
M401 640l-9 42c21 6 36 15 36 34c0 22 -17 34 -67 37l10 52c94 -3 135 -30 135 -77c0 -59 -50 -78 -105 -88z" />
    <glyph glyph-name="uni1ED7" unicode="&#x1ed7;" horiz-adv-x="549" 
d="M274 -12c-122 0 -233 94 -233 257c0 164 111 258 233 258c123 0 234 -94 234 -258c0 -163 -111 -257 -234 -257zM274 82c72 0 116 65 116 163c0 99 -44 164 -116 164s-115 -65 -115 -164c0 -98 43 -163 115 -163zM169 568l-38 43l97 86h92l97 -86l-38 -43l-103 62h-4z
M132 721c6 64 32 100 80 100c57 0 84 -42 118 -42c17 0 26 12 31 40l55 -6c-6 -64 -32 -100 -80 -100c-57 0 -84 42 -118 42c-17 0 -26 -12 -31 -40z" />
    <glyph glyph-name="uni1ED9" unicode="&#x1ed9;" horiz-adv-x="549" 
d="M274 -12c-122 0 -233 94 -233 257c0 164 111 258 233 258c123 0 234 -94 234 -258c0 -163 -111 -257 -234 -257zM274 82c72 0 116 65 116 163c0 99 -44 164 -116 164s-115 -65 -115 -164c0 -98 43 -163 115 -163zM105 607l111 135h116l111 -135l-45 -43l-122 103h-4
l-122 -103zM275 -217c-40 0 -68 27 -68 66c0 38 28 65 68 65s68 -27 68 -65c0 -39 -28 -66 -68 -66z" />
    <glyph glyph-name="uni014F" unicode="&#x14f;" horiz-adv-x="549" 
d="M274 -12c-122 0 -233 94 -233 257c0 164 111 258 233 258c123 0 234 -94 234 -258c0 -163 -111 -257 -234 -257zM274 82c72 0 116 65 116 163c0 99 -44 164 -116 164s-115 -65 -115 -164c0 -98 43 -163 115 -163zM274 571c-111 0 -158 73 -163 155l68 11
c7 -47 36 -92 95 -92s88 45 95 92l68 -11c-5 -82 -52 -155 -163 -155z" />
    <glyph glyph-name="uni1E53" unicode="&#x1e53;" horiz-adv-x="549" 
d="M274 -12c-122 0 -233 94 -233 257c0 164 111 258 233 258c123 0 234 -94 234 -258c0 -163 -111 -257 -234 -257zM274 82c72 0 116 65 116 163c0 99 -44 164 -116 164s-115 -65 -115 -164c0 -98 43 -163 115 -163zM243 709l-41 49l140 103l49 -62zM134 596v76h280v-76
h-280z" />
    <glyph glyph-name="oslash" unicode="&#xf8;" horiz-adv-x="549" 
d="M274 -12c-49 0 -97 15 -136 44l-46 -56l-46 36l50 61c-34 43 -55 101 -55 172c0 164 111 258 233 258c50 0 97 -15 136 -44l47 57l46 -36l-50 -62c34 -43 55 -101 55 -173c0 -163 -111 -257 -234 -257zM153 251c0 -35 5 -66 14 -91l182 224c-20 19 -45 29 -75 29
c-72 0 -121 -66 -121 -162zM274 78c72 0 122 65 122 161c0 36 -5 67 -14 92l-183 -223c20 -20 45 -30 75 -30z" />
    <glyph glyph-name="oe" unicode="&#x153;" horiz-adv-x="830" 
d="M266 -12c-122 0 -225 94 -225 257c0 164 105 258 227 258c72 0 132 -38 168 -104c39 65 99 104 164 104c126 0 194 -98 194 -235c0 -22 -3 -42 -5 -54h-303c8 -85 64 -134 136 -134c42 0 76 15 112 38l41 -77c-47 -31 -106 -53 -169 -53c-67 0 -130 39 -168 104
c-40 -68 -96 -104 -172 -104zM268 82c67 0 111 65 111 163c0 99 -44 164 -111 164c-66 0 -110 -65 -110 -164c0 -98 44 -163 110 -163zM486 287h208c0 79 -34 127 -97 127c-57 0 -102 -46 -111 -127z" />
    <glyph glyph-name="ohorn" unicode="&#x1a1;" horiz-adv-x="549" 
d="M274 -12c-122 0 -233 94 -233 257c0 164 111 258 233 258c34 0 66 -7 96 -21c48 11 77 38 77 93c0 21 -7 41 -15 56l86 39c14 -21 27 -54 27 -87c0 -80 -55 -123 -115 -141c47 -44 78 -111 78 -197c0 -163 -111 -257 -234 -257zM274 82c72 0 116 65 116 163
c0 99 -44 164 -116 164s-115 -65 -115 -164c0 -98 43 -163 115 -163z" />
    <glyph glyph-name="uni1EDB" unicode="&#x1edb;" horiz-adv-x="549" 
d="M274 -12c-122 0 -233 94 -233 257c0 164 111 258 233 258c34 0 66 -7 96 -21c48 11 77 38 77 93c0 21 -7 41 -15 56l86 39c14 -21 27 -54 27 -87c0 -80 -55 -123 -115 -141c47 -44 78 -111 78 -197c0 -163 -111 -257 -234 -257zM274 82c72 0 116 65 116 163
c0 99 -44 164 -116 164s-115 -65 -115 -164c0 -98 43 -163 115 -163zM272 573l-57 57l147 174l80 -76z" />
    <glyph glyph-name="uni1EDD" unicode="&#x1edd;" horiz-adv-x="549" 
d="M274 -12c-122 0 -233 94 -233 257c0 164 111 258 233 258c34 0 66 -7 96 -21c48 11 77 38 77 93c0 21 -7 41 -15 56l86 39c14 -21 27 -54 27 -87c0 -80 -55 -123 -115 -141c47 -44 78 -111 78 -197c0 -163 -111 -257 -234 -257zM274 82c72 0 116 65 116 163
c0 99 -44 164 -116 164s-115 -65 -115 -164c0 -98 43 -163 115 -163zM276 573l-170 155l80 76l147 -174z" />
    <glyph glyph-name="uni1EDF" unicode="&#x1edf;" horiz-adv-x="549" 
d="M274 -12c-122 0 -233 94 -233 257c0 164 111 258 233 258c34 0 66 -7 96 -21c48 11 77 38 77 93c0 21 -7 41 -15 56l86 39c14 -21 27 -54 27 -87c0 -80 -55 -123 -115 -141c47 -44 78 -111 78 -197c0 -163 -111 -257 -234 -257zM274 82c72 0 116 65 116 163
c0 99 -44 164 -116 164s-115 -65 -115 -164c0 -98 43 -163 115 -163zM236 570l-10 49c28 7 50 17 50 41c0 26 -24 41 -81 44l7 73c111 -3 161 -43 161 -108c0 -63 -60 -91 -127 -99z" />
    <glyph glyph-name="uni1EE1" unicode="&#x1ee1;" horiz-adv-x="549" 
d="M274 -12c-122 0 -233 94 -233 257c0 164 111 258 233 258c34 0 66 -7 96 -21c48 11 77 38 77 93c0 21 -7 41 -15 56l86 39c14 -21 27 -54 27 -87c0 -80 -55 -123 -115 -141c47 -44 78 -111 78 -197c0 -163 -111 -257 -234 -257zM274 82c72 0 116 65 116 163
c0 99 -44 164 -116 164s-115 -65 -115 -164c0 -98 43 -163 115 -163zM319 575c-67 0 -97 74 -136 74c-25 0 -37 -24 -41 -67l-74 4c3 91 40 144 113 144c67 0 97 -74 137 -74c24 0 36 25 40 67l74 -4c-3 -90 -40 -144 -113 -144z" />
    <glyph glyph-name="uni1EE3" unicode="&#x1ee3;" horiz-adv-x="549" 
d="M274 -12c-122 0 -233 94 -233 257c0 164 111 258 233 258c34 0 66 -7 96 -21c48 11 77 38 77 93c0 21 -7 41 -15 56l86 39c14 -21 27 -54 27 -87c0 -80 -55 -123 -115 -141c47 -44 78 -111 78 -197c0 -163 -111 -257 -234 -257zM274 82c72 0 116 65 116 163
c0 99 -44 164 -116 164s-115 -65 -115 -164c0 -98 43 -163 115 -163zM275 -217c-40 0 -68 27 -68 66c0 38 28 65 68 65s68 -27 68 -65c0 -39 -28 -66 -68 -66z" />
    <glyph glyph-name="uni01EB" unicode="&#x1eb;" horiz-adv-x="549" 
d="M296 -208c-54 0 -98 30 -98 88c0 50 32 90 55 110c-115 10 -212 103 -212 255c0 164 111 258 233 258c123 0 234 -94 234 -258c0 -133 -65 -203 -161 -247c-47 -22 -69 -60 -69 -93c0 -29 22 -42 44 -42c15 0 27 5 38 13l26 -54c-22 -18 -61 -30 -90 -30zM274 82
c72 0 116 65 116 163c0 99 -44 164 -116 164s-115 -65 -115 -164c0 -98 43 -163 115 -163z" />
    <glyph glyph-name="racute" unicode="&#x155;" horiz-adv-x="373" 
d="M73 0v491h95l8 -87h4c35 64 87 99 139 99c25 0 41 -3 56 -10l-20 -100c-17 5 -30 8 -51 8c-39 0 -86 -27 -116 -101v-300h-115zM230 573l-57 57l147 174l80 -76z" />
    <glyph glyph-name="uni0157" unicode="&#x157;" horiz-adv-x="373" 
d="M73 0v491h95l8 -87h4c35 64 87 99 139 99c25 0 41 -3 56 -10l-20 -100c-17 5 -30 8 -51 8c-39 0 -86 -27 -116 -101v-300h-115zM36 -233l-10 50c81 5 106 18 106 43c0 23 -22 35 -68 39l24 46c97 -9 129 -33 129 -80c0 -63 -66 -93 -181 -98z" />
    <glyph glyph-name="rcaron" unicode="&#x159;" horiz-adv-x="373" 
d="M73 0v491h95l8 -87h4c35 64 87 99 139 99c25 0 41 -3 56 -10l-20 -100c-17 5 -30 8 -51 8c-39 0 -86 -27 -116 -101v-300h-115zM174 576l-111 135l45 42l122 -102h4l122 102l45 -42l-111 -135h-116z" />
    <glyph glyph-name="uni1E59" unicode="&#x1e59;" horiz-adv-x="373" 
d="M73 0v491h95l8 -87h4c35 64 87 99 139 99c25 0 41 -3 56 -10l-20 -100c-17 5 -30 8 -51 8c-39 0 -86 -27 -116 -101v-300h-115zM232 577c-40 0 -68 27 -68 66c0 38 28 65 68 65s68 -27 68 -65c0 -39 -28 -66 -68 -66z" />
    <glyph glyph-name="uni1E5B" unicode="&#x1e5b;" horiz-adv-x="373" 
d="M73 0v491h95l8 -87h4c35 64 87 99 139 99c25 0 41 -3 56 -10l-20 -100c-17 5 -30 8 -51 8c-39 0 -86 -27 -116 -101v-300h-115zM130 -217c-40 0 -68 27 -68 66c0 38 28 65 68 65s68 -27 68 -65c0 -39 -28 -66 -68 -66z" />
    <glyph glyph-name="uni1E5D" unicode="&#x1e5d;" horiz-adv-x="373" 
d="M73 0v491h95l8 -87h4c35 64 87 99 139 99c25 0 41 -3 56 -10l-20 -100c-17 5 -30 8 -51 8c-39 0 -86 -27 -116 -101v-300h-115zM92 596v76h280v-76h-280zM130 -217c-40 0 -68 27 -68 66c0 38 28 65 68 65s68 -27 68 -65c0 -39 -28 -66 -68 -66z" />
    <glyph glyph-name="uni1E5F" unicode="&#x1e5f;" horiz-adv-x="373" 
d="M73 0v491h95l8 -87h4c35 64 87 99 139 99c25 0 41 -3 56 -10l-20 -100c-17 5 -30 8 -51 8c-39 0 -86 -27 -116 -101v-300h-115zM-10 -180v76h280v-76h-280z" />
    <glyph glyph-name="sacute" unicode="&#x15b;" horiz-adv-x="431" 
d="M210 -12c-67 0 -138 29 -186 68l54 74c44 -34 86 -55 136 -55c53 0 78 25 78 59c0 41 -53 59 -105 79c-65 24 -138 61 -138 143c0 86 69 147 179 147c68 0 123 -28 163 -59l-53 -70c-34 25 -69 42 -108 42c-49 0 -72 -23 -72 -54c0 -39 49 -54 102 -73
c67 -25 141 -57 141 -149c0 -84 -67 -152 -191 -152zM226 573l-57 57l147 174l80 -76z" />
    <glyph glyph-name="scircumflex" unicode="&#x15d;" horiz-adv-x="431" 
d="M210 -12c-67 0 -138 29 -186 68l54 74c44 -34 86 -55 136 -55c53 0 78 25 78 59c0 41 -53 59 -105 79c-65 24 -138 61 -138 143c0 86 69 147 179 147c68 0 123 -28 163 -59l-53 -70c-34 25 -69 42 -108 42c-49 0 -72 -23 -72 -54c0 -39 49 -54 102 -73
c67 -25 141 -57 141 -149c0 -84 -67 -152 -191 -152zM59 607l111 135h116l111 -135l-45 -43l-122 103h-4l-122 -103z" />
    <glyph glyph-name="scaron" unicode="&#x161;" horiz-adv-x="431" 
d="M210 -12c-67 0 -138 29 -186 68l54 74c44 -34 86 -55 136 -55c53 0 78 25 78 59c0 41 -53 59 -105 79c-65 24 -138 61 -138 143c0 86 69 147 179 147c68 0 123 -28 163 -59l-53 -70c-34 25 -69 42 -108 42c-49 0 -72 -23 -72 -54c0 -39 49 -54 102 -73
c67 -25 141 -57 141 -149c0 -84 -67 -152 -191 -152zM170 576l-111 135l45 42l122 -102h4l122 102l45 -42l-111 -135h-116z" />
    <glyph glyph-name="uni015F" unicode="&#x15f;" horiz-adv-x="431" 
d="M136 -233l-10 50c81 5 106 18 106 47c0 23 -18 37 -77 45l39 80c-62 4 -126 31 -170 67l54 74c44 -34 86 -55 136 -55c53 0 78 25 78 59c0 41 -53 59 -105 79c-65 24 -138 61 -138 143c0 86 69 147 179 147c68 0 123 -28 163 -59l-53 -70c-34 25 -69 42 -108 42
c-49 0 -72 -23 -72 -54c0 -39 49 -54 102 -73c67 -25 141 -57 141 -149c0 -70 -47 -129 -134 -147l-25 -55c48 -12 75 -32 75 -73c0 -63 -66 -93 -181 -98z" />
    <glyph glyph-name="uni0219" unicode="&#x219;" horiz-adv-x="431" 
d="M210 -12c-67 0 -138 29 -186 68l54 74c44 -34 86 -55 136 -55c53 0 78 25 78 59c0 41 -53 59 -105 79c-65 24 -138 61 -138 143c0 86 69 147 179 147c68 0 123 -28 163 -59l-53 -70c-34 25 -69 42 -108 42c-49 0 -72 -23 -72 -54c0 -39 49 -54 102 -73
c67 -25 141 -57 141 -149c0 -84 -67 -152 -191 -152zM134 -233l-10 50c81 5 106 18 106 43c0 23 -22 35 -68 39l24 46c97 -9 129 -33 129 -80c0 -63 -66 -93 -181 -98z" />
    <glyph glyph-name="uni1E61" unicode="&#x1e61;" horiz-adv-x="431" 
d="M210 -12c-67 0 -138 29 -186 68l54 74c44 -34 86 -55 136 -55c53 0 78 25 78 59c0 41 -53 59 -105 79c-65 24 -138 61 -138 143c0 86 69 147 179 147c68 0 123 -28 163 -59l-53 -70c-34 25 -69 42 -108 42c-49 0 -72 -23 -72 -54c0 -39 49 -54 102 -73
c67 -25 141 -57 141 -149c0 -84 -67 -152 -191 -152zM228 577c-40 0 -68 27 -68 66c0 38 28 65 68 65s68 -27 68 -65c0 -39 -28 -66 -68 -66z" />
    <glyph glyph-name="uni1E63" unicode="&#x1e63;" horiz-adv-x="431" 
d="M210 -12c-67 0 -138 29 -186 68l54 74c44 -34 86 -55 136 -55c53 0 78 25 78 59c0 41 -53 59 -105 79c-65 24 -138 61 -138 143c0 86 69 147 179 147c68 0 123 -28 163 -59l-53 -70c-34 25 -69 42 -108 42c-49 0 -72 -23 -72 -54c0 -39 49 -54 102 -73
c67 -25 141 -57 141 -149c0 -84 -67 -152 -191 -152zM228 -217c-40 0 -68 27 -68 66c0 38 28 65 68 65s68 -27 68 -65c0 -39 -28 -66 -68 -66z" />
    <glyph glyph-name="germandbls" unicode="&#xdf;" horiz-adv-x="604" 
d="M404 -12c-56 0 -101 18 -146 47l42 79c35 -27 66 -39 101 -39c44 0 69 29 69 64c0 95 -186 83 -186 218c0 83 79 111 79 190c0 45 -25 78 -73 78c-66 0 -103 -50 -103 -141v-484h-114v501c0 127 74 215 217 215c121 0 184 -74 184 -156c0 -98 -84 -129 -84 -189
c0 -81 187 -69 187 -227c0 -87 -63 -156 -173 -156z" />
    <glyph glyph-name="tcaron" unicode="&#x165;" horiz-adv-x="361" 
d="M246 -12c-114 0 -156 72 -156 178v234h-70v86l76 5l14 134h96v-134h125v-91h-125v-234c0 -58 22 -86 69 -86c17 0 37 5 51 11l20 -85c-27 -9 -61 -18 -100 -18zM268 548l-5 217h77l-1 -63l-19 -154h-52z" />
    <glyph glyph-name="uni0163" unicode="&#x163;" horiz-adv-x="361" 
d="M135 -233l-10 50c81 5 106 18 106 47c0 23 -18 37 -77 45l41 85c-76 19 -105 83 -105 172v234h-70v86l76 5l14 134h96v-134h125v-91h-125v-234c0 -58 22 -86 69 -86c17 0 37 5 51 11l20 -85c-23 -8 -51 -15 -82 -17l-23 -51c48 -12 75 -32 75 -73c0 -63 -66 -93 -181 -98
z" />
    <glyph glyph-name="uni021B" unicode="&#x21b;" horiz-adv-x="361" 
d="M246 -12c-114 0 -156 72 -156 178v234h-70v86l76 5l14 134h96v-134h125v-91h-125v-234c0 -58 22 -86 69 -86c17 0 37 5 51 11l20 -85c-27 -9 -61 -18 -100 -18zM130 -233l-10 50c81 5 106 18 106 43c0 23 -22 35 -68 39l24 46c97 -9 129 -33 129 -80
c0 -63 -66 -93 -181 -98z" />
    <glyph glyph-name="uni1E6D" unicode="&#x1e6d;" horiz-adv-x="361" 
d="M246 -12c-114 0 -156 72 -156 178v234h-70v86l76 5l14 134h96v-134h125v-91h-125v-234c0 -58 22 -86 69 -86c17 0 37 5 51 11l20 -85c-27 -9 -61 -18 -100 -18zM225 -217c-40 0 -68 27 -68 66c0 38 28 65 68 65s68 -27 68 -65c0 -39 -28 -66 -68 -66z" />
    <glyph glyph-name="uni1E6F" unicode="&#x1e6f;" horiz-adv-x="361" 
d="M246 -12c-114 0 -156 72 -156 178v234h-70v86l76 5l14 134h96v-134h125v-91h-125v-234c0 -58 22 -86 69 -86c17 0 37 5 51 11l20 -85c-27 -9 -61 -18 -100 -18zM84 -180v76h280v-76h-280z" />
    <glyph glyph-name="uni1E97" unicode="&#x1e97;" horiz-adv-x="361" 
d="M246 -12c-114 0 -156 72 -156 178v234h-70v86l76 5l14 134h96v-134h125v-91h-125v-234c0 -58 22 -86 69 -86c17 0 37 5 51 11l20 -85c-27 -9 -61 -18 -100 -18zM53 716c-35 0 -61 27 -61 61s26 61 61 61c36 0 61 -27 61 -61s-25 -61 -61 -61zM259 716
c-36 0 -61 27 -61 61s25 61 61 61c35 0 61 -27 61 -61s-26 -61 -61 -61z" />
    <glyph glyph-name="uni0167" unicode="&#x167;" horiz-adv-x="361" 
d="M20 227v54l70 5v114h-70v86l76 5l14 134h96v-134h125v-91h-125v-114h125v-59h-125v-61c0 -58 22 -86 69 -86c17 0 37 5 51 11l20 -85c-27 -9 -61 -18 -100 -18c-114 0 -156 72 -156 178v61h-70z" />
    <glyph glyph-name="ugrave" unicode="&#xf9;" horiz-adv-x="556" 
d="M219 -12c-105 0 -151 71 -151 195v308h115v-293c0 -81 23 -111 76 -111c43 0 72 20 109 68v336h115v-491h-94l-9 72h-3c-43 -51 -91 -84 -158 -84zM281 573l-170 155l80 76l147 -174z" />
    <glyph glyph-name="uacute" unicode="&#xfa;" horiz-adv-x="556" 
d="M219 -12c-105 0 -151 71 -151 195v308h115v-293c0 -81 23 -111 76 -111c43 0 72 20 109 68v336h115v-491h-94l-9 72h-3c-43 -51 -91 -84 -158 -84zM277 573l-57 57l147 174l80 -76z" />
    <glyph glyph-name="ucircumflex" unicode="&#xfb;" horiz-adv-x="556" 
d="M219 -12c-105 0 -151 71 -151 195v308h115v-293c0 -81 23 -111 76 -111c43 0 72 20 109 68v336h115v-491h-94l-9 72h-3c-43 -51 -91 -84 -158 -84zM110 607l111 135h116l111 -135l-45 -43l-122 103h-4l-122 -103z" />
    <glyph glyph-name="utilde" unicode="&#x169;" horiz-adv-x="556" 
d="M219 -12c-105 0 -151 71 -151 195v308h115v-293c0 -81 23 -111 76 -111c43 0 72 20 109 68v336h115v-491h-94l-9 72h-3c-43 -51 -91 -84 -158 -84zM348 575c-67 0 -97 74 -136 74c-25 0 -37 -24 -41 -67l-74 4c3 91 40 144 113 144c67 0 97 -74 137 -74c24 0 36 25 40 67
l74 -4c-3 -90 -40 -144 -113 -144z" />
    <glyph glyph-name="udieresis" unicode="&#xfc;" horiz-adv-x="556" 
d="M219 -12c-105 0 -151 71 -151 195v308h115v-293c0 -81 23 -111 76 -111c43 0 72 20 109 68v336h115v-491h-94l-9 72h-3c-43 -51 -91 -84 -158 -84zM176 578c-35 0 -61 27 -61 61s26 61 61 61c36 0 61 -27 61 -61s-25 -61 -61 -61zM382 578c-36 0 -61 27 -61 61
s25 61 61 61c35 0 61 -27 61 -61s-26 -61 -61 -61z" />
    <glyph glyph-name="umacron" unicode="&#x16b;" horiz-adv-x="556" 
d="M219 -12c-105 0 -151 71 -151 195v308h115v-293c0 -81 23 -111 76 -111c43 0 72 20 109 68v336h115v-491h-94l-9 72h-3c-43 -51 -91 -84 -158 -84zM137 596v76h280v-76h-280z" />
    <glyph glyph-name="ubreve" unicode="&#x16d;" horiz-adv-x="556" 
d="M219 -12c-105 0 -151 71 -151 195v308h115v-293c0 -81 23 -111 76 -111c43 0 72 20 109 68v336h115v-491h-94l-9 72h-3c-43 -51 -91 -84 -158 -84zM279 571c-111 0 -158 73 -163 155l68 11c7 -47 36 -92 95 -92s88 45 95 92l68 -11c-5 -82 -52 -155 -163 -155z" />
    <glyph glyph-name="uring" unicode="&#x16f;" horiz-adv-x="556" 
d="M219 -12c-105 0 -151 71 -151 195v308h115v-293c0 -81 23 -111 76 -111c43 0 72 20 109 68v336h115v-491h-94l-9 72h-3c-43 -51 -91 -84 -158 -84zM279 559c-77 0 -121 44 -121 101c0 58 44 102 121 102s121 -44 121 -102c0 -57 -44 -101 -121 -101zM279 605
c28 0 50 22 50 55c0 34 -22 56 -50 56s-50 -22 -50 -56c0 -33 22 -55 50 -55z" />
    <glyph glyph-name="uhungarumlaut" unicode="&#x171;" horiz-adv-x="556" 
d="M219 -12c-105 0 -151 71 -151 195v308h115v-293c0 -81 23 -111 76 -111c43 0 72 20 109 68v336h115v-491h-94l-9 72h-3c-43 -51 -91 -84 -158 -84zM228 566l-62 28l87 177l79 -36zM393 566l-62 28l87 177l79 -36z" />
    <glyph glyph-name="uni01D4" unicode="&#x1d4;" horiz-adv-x="556" 
d="M219 -12c-105 0 -151 71 -151 195v308h115v-293c0 -81 23 -111 76 -111c43 0 72 20 109 68v336h115v-491h-94l-9 72h-3c-43 -51 -91 -84 -158 -84zM221 576l-111 135l45 42l122 -102h4l122 102l45 -42l-111 -135h-116z" />
    <glyph glyph-name="uni01D6" unicode="&#x1d6;" horiz-adv-x="556" 
d="M219 -12c-105 0 -151 71 -151 195v308h115v-293c0 -81 23 -111 76 -111c43 0 72 20 109 68v336h115v-491h-94l-9 72h-3c-43 -51 -91 -84 -158 -84zM176 579c-31 0 -53 24 -53 54s22 53 53 53s54 -23 54 -53s-23 -54 -54 -54zM138 753v58h281v-58h-281zM382 579
c-31 0 -54 24 -54 54s23 53 54 53s53 -23 53 -53s-22 -54 -53 -54z" />
    <glyph glyph-name="uni01D8" unicode="&#x1d8;" horiz-adv-x="556" 
d="M219 -12c-105 0 -151 71 -151 195v308h115v-293c0 -81 23 -111 76 -111c43 0 72 20 109 68v336h115v-491h-94l-9 72h-3c-43 -51 -91 -84 -158 -84zM279 709l-46 30l80 124l64 -43zM176 579c-31 0 -53 24 -53 54s22 53 53 53s54 -23 54 -53s-23 -54 -54 -54zM382 579
c-31 0 -54 24 -54 54s23 53 54 53s53 -23 53 -53s-22 -54 -53 -54z" />
    <glyph glyph-name="uni01DA" unicode="&#x1da;" horiz-adv-x="556" 
d="M219 -12c-105 0 -151 71 -151 195v308h115v-293c0 -81 23 -111 76 -111c43 0 72 20 109 68v336h115v-491h-94l-9 72h-3c-43 -51 -91 -84 -158 -84zM179 857l98 -69h4l98 69l39 -36l-93 -92h-92l-93 92zM176 579c-31 0 -53 24 -53 54s22 53 53 53s54 -23 54 -53
s-23 -54 -54 -54zM382 579c-31 0 -54 24 -54 54s23 53 54 53s53 -23 53 -53s-22 -54 -53 -54z" />
    <glyph glyph-name="uni01DC" unicode="&#x1dc;" horiz-adv-x="556" 
d="M219 -12c-105 0 -151 71 -151 195v308h115v-293c0 -81 23 -111 76 -111c43 0 72 20 109 68v336h115v-491h-94l-9 72h-3c-43 -51 -91 -84 -158 -84zM279 709l-98 111l64 43l80 -124zM176 579c-31 0 -53 24 -53 54s22 53 53 53s54 -23 54 -53s-23 -54 -54 -54zM382 579
c-31 0 -54 24 -54 54s23 53 54 53s53 -23 53 -53s-22 -54 -53 -54z" />
    <glyph glyph-name="uni1EE5" unicode="&#x1ee5;" horiz-adv-x="556" 
d="M219 -12c-105 0 -151 71 -151 195v308h115v-293c0 -81 23 -111 76 -111c43 0 72 20 109 68v336h115v-491h-94l-9 72h-3c-43 -51 -91 -84 -158 -84zM297 -217c-40 0 -68 27 -68 66c0 38 28 65 68 65s68 -27 68 -65c0 -39 -28 -66 -68 -66z" />
    <glyph glyph-name="uni1EE7" unicode="&#x1ee7;" horiz-adv-x="556" 
d="M219 -12c-105 0 -151 71 -151 195v308h115v-293c0 -81 23 -111 76 -111c43 0 72 20 109 68v336h115v-491h-94l-9 72h-3c-43 -51 -91 -84 -158 -84zM241 570l-10 49c28 7 50 17 50 41c0 26 -24 41 -81 44l7 73c111 -3 161 -43 161 -108c0 -63 -60 -91 -127 -99z" />
    <glyph glyph-name="uogonek" unicode="&#x173;" horiz-adv-x="556" 
d="M414 -208c-55 0 -98 30 -98 88c0 56 40 96 74 121l-10 71h-3c-43 -51 -91 -84 -158 -84c-105 0 -151 71 -151 195v308h115v-293c0 -81 23 -111 76 -111c43 0 72 20 109 68v336h115v-491c-62 -24 -87 -60 -87 -95c0 -28 22 -42 44 -42c14 0 28 5 38 13l26 -54
c-22 -18 -62 -30 -90 -30z" />
    <glyph glyph-name="uhorn" unicode="&#x1b0;" horiz-adv-x="556" 
d="M219 -12c-105 0 -151 71 -151 195v308h115v-293c0 -81 23 -111 76 -111c43 0 72 20 109 68v336h34c42 5 83 22 83 94c0 21 -7 41 -15 56l86 39c15 -21 27 -54 27 -87c0 -81 -49 -123 -100 -140v-453h-94l-9 72h-3c-43 -51 -91 -84 -158 -84z" />
    <glyph glyph-name="uni1EE9" unicode="&#x1ee9;" horiz-adv-x="556" 
d="M219 -12c-105 0 -151 71 -151 195v308h115v-293c0 -81 23 -111 76 -111c43 0 72 20 109 68v336h34c42 5 83 22 83 94c0 21 -7 41 -15 56l86 39c15 -21 27 -54 27 -87c0 -81 -49 -123 -100 -140v-453h-94l-9 72h-3c-43 -51 -91 -84 -158 -84zM268 573l-57 57l147 174
l80 -76z" />
    <glyph glyph-name="uni1EEB" unicode="&#x1eeb;" horiz-adv-x="556" 
d="M219 -12c-105 0 -151 71 -151 195v308h115v-293c0 -81 23 -111 76 -111c43 0 72 20 109 68v336h34c42 5 83 22 83 94c0 21 -7 41 -15 56l86 39c15 -21 27 -54 27 -87c0 -81 -49 -123 -100 -140v-453h-94l-9 72h-3c-43 -51 -91 -84 -158 -84zM272 573l-170 155l80 76
l147 -174z" />
    <glyph glyph-name="uni1EED" unicode="&#x1eed;" horiz-adv-x="556" 
d="M219 -12c-105 0 -151 71 -151 195v308h115v-293c0 -81 23 -111 76 -111c43 0 72 20 109 68v336h34c42 5 83 22 83 94c0 21 -7 41 -15 56l86 39c15 -21 27 -54 27 -87c0 -81 -49 -123 -100 -140v-453h-94l-9 72h-3c-43 -51 -91 -84 -158 -84zM232 570l-10 49
c28 7 50 17 50 41c0 26 -24 41 -81 44l7 73c111 -3 161 -43 161 -108c0 -63 -60 -91 -127 -99z" />
    <glyph glyph-name="uni1EEF" unicode="&#x1eef;" horiz-adv-x="556" 
d="M219 -12c-105 0 -151 71 -151 195v308h115v-293c0 -81 23 -111 76 -111c43 0 72 20 109 68v336h34c42 5 83 22 83 94c0 21 -7 41 -15 56l86 39c15 -21 27 -54 27 -87c0 -81 -49 -123 -100 -140v-453h-94l-9 72h-3c-43 -51 -91 -84 -158 -84zM339 575
c-67 0 -97 74 -136 74c-25 0 -37 -24 -41 -67l-74 4c3 91 40 144 113 144c67 0 97 -74 137 -74c24 0 36 25 40 67l74 -4c-3 -90 -40 -144 -113 -144z" />
    <glyph glyph-name="uni1EF1" unicode="&#x1ef1;" horiz-adv-x="556" 
d="M219 -12c-105 0 -151 71 -151 195v308h115v-293c0 -81 23 -111 76 -111c43 0 72 20 109 68v336h34c42 5 83 22 83 94c0 21 -7 41 -15 56l86 39c15 -21 27 -54 27 -87c0 -81 -49 -123 -100 -140v-453h-94l-9 72h-3c-43 -51 -91 -84 -158 -84zM288 -217
c-40 0 -68 27 -68 66c0 38 28 65 68 65s68 -27 68 -65c0 -39 -28 -66 -68 -66z" />
    <glyph glyph-name="wgrave" unicode="&#x1e81;" horiz-adv-x="748" 
d="M154 0l-130 491h116l59 -255c10 -47 17 -93 26 -141h4c9 48 19 95 31 141l64 255h105l65 -255c12 -47 22 -93 33 -141h4c9 48 17 94 26 141l59 255h108l-125 -491h-137l-57 229c-11 46 -19 91 -30 143h-4c-9 -52 -18 -98 -29 -144l-56 -228h-132zM377 573l-170 155l80 76
l147 -174z" />
    <glyph glyph-name="wacute" unicode="&#x1e83;" horiz-adv-x="748" 
d="M154 0l-130 491h116l59 -255c10 -47 17 -93 26 -141h4c9 48 19 95 31 141l64 255h105l65 -255c12 -47 22 -93 33 -141h4c9 48 17 94 26 141l59 255h108l-125 -491h-137l-57 229c-11 46 -19 91 -30 143h-4c-9 -52 -18 -98 -29 -144l-56 -228h-132zM373 573l-57 57l147 174
l80 -76z" />
    <glyph glyph-name="wcircumflex" unicode="&#x175;" horiz-adv-x="748" 
d="M154 0l-130 491h116l59 -255c10 -47 17 -93 26 -141h4c9 48 19 95 31 141l64 255h105l65 -255c12 -47 22 -93 33 -141h4c9 48 17 94 26 141l59 255h108l-125 -491h-137l-57 229c-11 46 -19 91 -30 143h-4c-9 -52 -18 -98 -29 -144l-56 -228h-132zM206 607l111 135h116
l111 -135l-45 -43l-122 103h-4l-122 -103z" />
    <glyph glyph-name="wdieresis" unicode="&#x1e85;" horiz-adv-x="748" 
d="M154 0l-130 491h116l59 -255c10 -47 17 -93 26 -141h4c9 48 19 95 31 141l64 255h105l65 -255c12 -47 22 -93 33 -141h4c9 48 17 94 26 141l59 255h108l-125 -491h-137l-57 229c-11 46 -19 91 -30 143h-4c-9 -52 -18 -98 -29 -144l-56 -228h-132zM272 578
c-35 0 -61 27 -61 61s26 61 61 61c36 0 61 -27 61 -61s-25 -61 -61 -61zM478 578c-36 0 -61 27 -61 61s25 61 61 61c35 0 61 -27 61 -61s-26 -61 -61 -61z" />
    <glyph glyph-name="ygrave" unicode="&#x1ef3;" horiz-adv-x="495" 
d="M106 -202c-27 0 -46 4 -64 10l21 90c9 -3 23 -7 35 -7c52 0 82 35 98 84l9 31l-193 485h117l85 -241c14 -43 28 -92 43 -138h4c12 45 25 94 37 138l74 241h111l-178 -513c-41 -111 -92 -180 -199 -180zM257 573l-170 155l80 76l147 -174z" />
    <glyph glyph-name="yacute" unicode="&#xfd;" horiz-adv-x="495" 
d="M106 -202c-27 0 -46 4 -64 10l21 90c9 -3 23 -7 35 -7c52 0 82 35 98 84l9 31l-193 485h117l85 -241c14 -43 28 -92 43 -138h4c12 45 25 94 37 138l74 241h111l-178 -513c-41 -111 -92 -180 -199 -180zM253 573l-57 57l147 174l80 -76z" />
    <glyph glyph-name="ycircumflex" unicode="&#x177;" horiz-adv-x="495" 
d="M106 -202c-27 0 -46 4 -64 10l21 90c9 -3 23 -7 35 -7c52 0 82 35 98 84l9 31l-193 485h117l85 -241c14 -43 28 -92 43 -138h4c12 45 25 94 37 138l74 241h111l-178 -513c-41 -111 -92 -180 -199 -180zM86 607l111 135h116l111 -135l-45 -43l-122 103h-4l-122 -103z" />
    <glyph glyph-name="ydieresis" unicode="&#xff;" horiz-adv-x="495" 
d="M106 -202c-27 0 -46 4 -64 10l21 90c9 -3 23 -7 35 -7c52 0 82 35 98 84l9 31l-193 485h117l85 -241c14 -43 28 -92 43 -138h4c12 45 25 94 37 138l74 241h111l-178 -513c-41 -111 -92 -180 -199 -180zM152 578c-35 0 -61 27 -61 61s26 61 61 61c36 0 61 -27 61 -61
s-25 -61 -61 -61zM358 578c-36 0 -61 27 -61 61s25 61 61 61c35 0 61 -27 61 -61s-26 -61 -61 -61z" />
    <glyph glyph-name="uni1E8F" unicode="&#x1e8f;" horiz-adv-x="495" 
d="M106 -202c-27 0 -46 4 -64 10l21 90c9 -3 23 -7 35 -7c52 0 82 35 98 84l9 31l-193 485h117l85 -241c14 -43 28 -92 43 -138h4c12 45 25 94 37 138l74 241h111l-178 -513c-41 -111 -92 -180 -199 -180zM255 577c-40 0 -68 27 -68 66c0 38 28 65 68 65s68 -27 68 -65
c0 -39 -28 -66 -68 -66z" />
    <glyph glyph-name="uni1EF5" unicode="&#x1ef5;" horiz-adv-x="495" 
d="M106 -202c-27 0 -46 4 -64 10l21 90c9 -3 23 -7 35 -7c52 0 82 35 98 84l9 31l-193 485h117l85 -241c14 -43 28 -92 43 -138h4c12 45 25 94 37 138l74 241h111l-178 -513c-41 -111 -92 -180 -199 -180zM420 -211c-40 0 -68 27 -68 66c0 38 28 65 68 65s68 -27 68 -65
c0 -39 -28 -66 -68 -66z" />
    <glyph glyph-name="uni1EF7" unicode="&#x1ef7;" horiz-adv-x="495" 
d="M106 -202c-27 0 -46 4 -64 10l21 90c9 -3 23 -7 35 -7c52 0 82 35 98 84l9 31l-193 485h117l85 -241c14 -43 28 -92 43 -138h4c12 45 25 94 37 138l74 241h111l-178 -513c-41 -111 -92 -180 -199 -180zM217 570l-10 49c28 7 50 17 50 41c0 26 -24 41 -81 44l7 73
c111 -3 161 -43 161 -108c0 -63 -60 -91 -127 -99z" />
    <glyph glyph-name="uni1EF9" unicode="&#x1ef9;" horiz-adv-x="495" 
d="M106 -202c-27 0 -46 4 -64 10l21 90c9 -3 23 -7 35 -7c52 0 82 35 98 84l9 31l-193 485h117l85 -241c14 -43 28 -92 43 -138h4c12 45 25 94 37 138l74 241h111l-178 -513c-41 -111 -92 -180 -199 -180zM324 575c-67 0 -97 74 -136 74c-25 0 -37 -24 -41 -67l-74 4
c3 91 40 144 113 144c67 0 97 -74 137 -74c24 0 36 25 40 67l74 -4c-3 -90 -40 -144 -113 -144z" />
    <glyph glyph-name="zacute" unicode="&#x17a;" horiz-adv-x="443" 
d="M34 0v62l232 338h-206v91h350v-61l-231 -338h239v-92h-384zM235 573l-57 57l147 174l80 -76z" />
    <glyph glyph-name="zcaron" unicode="&#x17e;" horiz-adv-x="443" 
d="M34 0v62l232 338h-206v91h350v-61l-231 -338h239v-92h-384zM179 576l-111 135l45 42l122 -102h4l122 102l45 -42l-111 -135h-116z" />
    <glyph glyph-name="zdotaccent" unicode="&#x17c;" horiz-adv-x="443" 
d="M34 0v62l232 338h-206v91h350v-61l-231 -338h239v-92h-384zM237 577c-40 0 -68 27 -68 66c0 38 28 65 68 65s68 -27 68 -65c0 -39 -28 -66 -68 -66z" />
    <glyph glyph-name="uni1E93" unicode="&#x1e93;" horiz-adv-x="443" 
d="M34 0v62l232 338h-206v91h350v-61l-231 -338h239v-92h-384zM237 -217c-40 0 -68 27 -68 66c0 38 28 65 68 65s68 -27 68 -65c0 -39 -28 -66 -68 -66z" />
    <glyph glyph-name="uni1E95" unicode="&#x1e95;" horiz-adv-x="443" 
d="M34 0v62l232 338h-206v91h350v-61l-231 -338h239v-92h-384zM97 -180v76h280v-76h-280z" />
    <glyph glyph-name="eth" unicode="&#xf0;" horiz-adv-x="552" 
d="M271 -12c-119 0 -223 91 -223 237c0 140 94 226 204 226c45 0 89 -16 120 -54c-18 66 -51 118 -96 162l-142 -72l-31 53l122 62c-30 22 -64 42 -101 62l51 71c48 -25 95 -53 138 -88l143 73l31 -54l-124 -63c79 -80 135 -188 135 -341c0 -161 -88 -274 -227 -274zM274 82
c73 0 115 64 115 174c0 17 -1 34 -2 50c-36 45 -74 58 -114 58c-73 0 -119 -53 -119 -139c0 -89 55 -143 120 -143z" />
    <glyph glyph-name="thorn" unicode="&#xfe;" horiz-adv-x="564" 
d="M73 -194v900h115v-182l-2 -77c39 32 86 56 136 56c126 0 199 -98 199 -250c0 -168 -101 -265 -210 -265c-47 0 -86 18 -125 50l2 -78v-154h-115zM287 83c65 0 115 58 115 169c0 98 -32 156 -106 156c-36 0 -70 -18 -108 -55v-229c36 -30 70 -41 99 -41z" />
    <glyph glyph-name="uni014B" unicode="&#x14b;" horiz-adv-x="560" 
d="M336 -185c-35 0 -60 6 -79 13l21 86c13 -4 27 -7 42 -7c44 0 57 30 57 87v299c0 81 -23 111 -77 111c-43 0 -71 -21 -112 -61v-343h-115v491h95l8 -66h4c44 43 94 78 161 78c105 0 151 -71 151 -195v-312c0 -104 -39 -181 -156 -181z" />
    <glyph glyph-name="uni0237" unicode="&#x237;" horiz-adv-x="263" 
d="M34 -206c-36 0 -61 6 -80 13l22 86c13 -4 27 -8 42 -8c44 0 56 31 56 88v518h116v-516c0 -104 -40 -181 -156 -181z" />
    <glyph glyph-name="uni0133" unicode="&#x133;" horiz-adv-x="524" 
d="M73 0v491h115v-491h-115zM131 577c-41 0 -71 27 -71 65c0 39 30 66 71 66s71 -27 71 -66c0 -38 -30 -65 -71 -65zM296 -206c-36 0 -61 6 -80 13l22 86c13 -4 27 -8 42 -8c44 0 56 31 56 88v518h116v-516c0 -104 -40 -181 -156 -181zM394 577c-40 0 -71 27 -71 65
c0 39 31 66 71 66c41 0 72 -27 72 -66c0 -38 -31 -65 -72 -65z" />
    <glyph glyph-name="uni0250" unicode="&#x250;" horiz-adv-x="523" 
d="M274 -12c-140 0 -208 80 -208 219v284h95l9 -64h3c43 46 99 76 165 76c80 0 132 -52 132 -131c0 -109 -87 -173 -288 -196c2 -50 28 -95 108 -95c48 0 90 22 133 48l42 -77c-51 -34 -118 -64 -191 -64zM182 249c133 18 177 54 177 105c0 41 -27 59 -63 59
c-39 0 -76 -21 -114 -64v-100z" />
    <glyph glyph-name="uni0252" unicode="&#x252;" horiz-adv-x="564" 
d="M311 -12c-43 0 -91 20 -134 60h-3l-9 -48h-92v491h95l8 -53h4c41 36 94 65 148 65c122 0 193 -98 193 -250c0 -168 -101 -265 -210 -265zM287 83c65 0 115 58 115 169c0 98 -32 156 -106 156c-36 0 -70 -18 -108 -55v-229c36 -30 70 -41 99 -41z" />
    <glyph glyph-name="uni0253" unicode="&#x253;" horiz-adv-x="564" 
d="M311 -12c-45 0 -93 22 -134 62h-3l-10 -50h-91v518c0 113 55 200 187 200c36 0 69 -8 91 -17l-23 -86c-18 8 -36 12 -53 12c-57 0 -84 -36 -88 -107l-2 -90c41 36 92 61 142 61c123 0 194 -96 194 -243c0 -165 -101 -260 -210 -260zM287 83c65 0 115 56 115 163
c0 94 -32 150 -106 150c-36 0 -70 -18 -108 -55v-217c35 -30 70 -41 99 -41z" />
    <glyph glyph-name="uni0254" unicode="&#x254;" horiz-adv-x="462" 
d="M184 -12c-56 0 -114 20 -160 60l46 76c28 -23 64 -42 102 -42c76 0 130 65 130 163c0 99 -53 164 -124 164c-40 0 -64 -12 -91 -36l-56 75c37 31 89 55 160 55c123 0 230 -92 230 -258c0 -163 -105 -257 -237 -257z" />
    <glyph glyph-name="uni0255" unicode="&#x255;" horiz-adv-x="462" 
d="M289 77c41 0 69 21 69 47c0 19 -14 40 -45 40s-65 -23 -97 -63c21 -16 46 -24 73 -24zM130 -71l-90 39c16 41 34 77 53 109c-33 43 -52 99 -52 168c0 164 115 258 246 258c63 0 108 -24 144 -55l-53 -70c-26 23 -54 36 -85 36c-83 0 -140 -67 -140 -169
c0 -28 5 -53 13 -75c50 47 104 72 156 72c78 0 124 -46 124 -117c0 -76 -60 -137 -160 -137c-44 0 -86 10 -122 29c-12 -26 -24 -56 -34 -88z" />
    <glyph glyph-name="uni0256" unicode="&#x256;" horiz-adv-x="564" 
d="M521 -185c-97 0 -142 61 -142 144l1 90c-37 -35 -84 -61 -135 -61c-123 0 -202 95 -202 257c0 160 101 258 208 258c56 0 91 -21 129 -54l-4 79v190h115v-732c0 -52 11 -79 46 -79c12 0 23 3 33 7l21 -86c-16 -7 -39 -13 -70 -13zM273 83c38 0 70 17 103 55v229
c-34 30 -67 41 -100 41c-63 0 -114 -59 -114 -162c0 -106 40 -163 111 -163z" />
    <glyph glyph-name="uni0257" unicode="&#x257;" horiz-adv-x="564" 
d="M245 -12c-123 0 -202 95 -202 257c0 160 101 258 208 258c56 0 91 -21 129 -54l-1 107c0 95 44 163 151 163c28 0 47 -4 63 -10l-21 -86c-8 3 -16 5 -26 5c-40 0 -55 -29 -55 -82v-546h-95l-8 53h-4c-36 -36 -86 -65 -139 -65zM273 83c38 0 70 17 103 55v229
c-34 30 -67 41 -100 41c-63 0 -114 -59 -114 -162c0 -106 40 -163 111 -163z" />
    <glyph glyph-name="uni0258" unicode="&#x258;" horiz-adv-x="507" 
d="M228 -12c-62 0 -126 22 -172 53l39 72c36 -23 76 -36 118 -36c81 0 131 50 141 137h-312c-3 12 -5 34 -5 56c0 137 80 233 213 233c118 0 216 -98 216 -258c0 -162 -101 -257 -238 -257zM136 292h219c-9 79 -49 122 -109 122c-67 0 -110 -46 -110 -122z" />
    <glyph glyph-name="uni0251" unicode="&#x251;" horiz-adv-x="564" 
d="M245 -12c-123 0 -202 95 -202 257c0 160 103 258 211 258c52 0 92 -19 133 -60h3l9 48h92v-491h-95l-8 53h-4c-36 -36 -86 -65 -139 -65zM273 83c38 0 70 17 103 55v229c-34 30 -67 41 -100 41c-63 0 -114 -59 -114 -162c0 -106 40 -163 111 -163z" />
    <glyph glyph-name="uni0299" unicode="&#x299;" horiz-adv-x="518" 
d="M73 0v491h199c109 0 190 -33 190 -127c0 -48 -28 -87 -82 -103v-4c58 -14 102 -48 102 -116c0 -99 -87 -141 -200 -141h-209zM186 292h75c64 0 90 23 90 60c0 38 -25 61 -87 61h-78v-121zM186 78h88c66 0 95 27 95 70c0 40 -32 66 -99 66h-84v-136z" />
    <glyph glyph-name="uni0259" unicode="&#x259;" horiz-adv-x="507" 
d="M244 -12c-132 0 -207 96 -207 237c0 22 2 45 5 57h312c-9 83 -55 132 -130 132c-43 0 -81 -14 -117 -37l-39 76c49 33 110 50 175 50c127 0 223 -96 223 -257c0 -160 -101 -258 -222 -258zM241 77c61 0 104 43 114 127h-219c0 -81 37 -127 105 -127z" />
    <glyph glyph-name="uni025A" unicode="&#x25a;" horiz-adv-x="678" 
d="M254 -12c-141 0 -209 103 -217 219l305 128c-21 54 -62 79 -118 79c-45 0 -80 -14 -116 -37l-39 76c49 33 108 50 169 50c96 0 166 -47 202 -127l86 36l58 -22c4 -75 18 -93 48 -93c16 0 30 6 40 13l26 -57c-18 -13 -42 -25 -71 -25c-43 0 -91 20 -109 96l-56 -23
c3 -20 5 -40 5 -62c0 -138 -85 -251 -213 -251zM251 76c65 0 108 66 108 153c0 10 0 19 -1 28l-217 -91c11 -57 54 -90 110 -90z" />
    <glyph glyph-name="uni025B" unicode="&#x25b;" horiz-adv-x="451" 
d="M259 -12c-111 0 -211 54 -211 150c0 68 47 105 106 120v4c-54 18 -82 62 -82 105c0 94 89 136 190 136c58 0 108 -16 154 -47l-44 -75c-35 21 -65 33 -105 33c-47 0 -81 -23 -81 -62c0 -37 29 -60 90 -60h62v-78h-77c-65 0 -99 -21 -99 -65c0 -45 45 -72 109 -72
c37 0 74 11 114 38l46 -75c-58 -39 -108 -52 -172 -52z" />
    <glyph glyph-name="uni025C" unicode="&#x25c;" horiz-adv-x="466" 
d="M213 -12c-65 0 -117 13 -178 52l47 75c40 -27 77 -38 113 -38c65 0 110 27 110 72c0 44 -34 65 -100 65h-76v78h61c62 0 90 23 90 60c0 39 -31 62 -78 62c-40 0 -73 -12 -108 -33l-43 75c48 31 101 47 162 47c98 0 181 -42 181 -136c0 -43 -27 -87 -81 -105v-4
c58 -15 105 -52 105 -120c0 -96 -96 -150 -205 -150z" />
    <glyph glyph-name="uni025E" unicode="&#x25e;" horiz-adv-x="556" 
d="M264 -12c-116 0 -216 54 -216 150c0 68 47 105 106 120v4c-54 18 -82 62 -82 105c0 94 87 136 191 136c136 0 254 -86 254 -258c0 -171 -113 -257 -253 -257zM265 77c84 0 133 55 133 168s-50 169 -132 169c-46 0 -80 -23 -80 -62c0 -37 27 -60 84 -60h30v-78h-45
c-61 0 -93 -21 -93 -65c0 -45 41 -72 103 -72z" />
    <glyph glyph-name="uni025F" unicode="&#x25f;" horiz-adv-x="296" 
d="M50 -206c-36 0 -61 6 -80 13l22 86c13 -4 27 -8 42 -8c44 0 56 31 56 88v254h-80v54l80 5v205h116v-205h76v-59h-76v-252c0 -104 -40 -181 -156 -181z" />
    <glyph glyph-name="uni0260" unicode="&#x260;" horiz-adv-x="571" 
d="M260 -205c-57 0 -126 19 -180 54l40 78c47 -29 97 -41 140 -41c81 0 116 41 119 104l3 76c-35 -33 -82 -57 -134 -57c-122 0 -201 97 -201 245c0 152 103 249 210 249c52 0 87 -21 125 -54v37c0 84 43 155 152 155c28 0 47 -4 63 -10l-21 -86c-8 3 -17 5 -26 5
c-41 0 -56 -31 -56 -82v-478c0 -124 -84 -195 -234 -195zM277 103c38 0 69 17 102 56v208c-33 30 -67 41 -100 41c-63 0 -115 -59 -115 -153c0 -95 42 -152 113 -152z" />
    <glyph glyph-name="uni0261" unicode="&#x261;" horiz-adv-x="571" 
d="M260 -205c-57 0 -126 19 -180 54l40 78c47 -29 97 -41 140 -41c81 0 116 41 119 104l3 76c-35 -33 -82 -57 -134 -57c-122 0 -201 97 -201 245c0 152 103 249 210 249c52 0 92 -18 131 -57h4l8 45h94v-501c0 -124 -84 -195 -234 -195zM277 103c38 0 69 17 102 56v208
c-33 30 -67 41 -100 41c-63 0 -115 -59 -115 -153c0 -95 42 -152 113 -152z" />
    <glyph glyph-name="uni0262" unicode="&#x262;" horiz-adv-x="507" 
d="M284 -12c-131 0 -243 86 -243 257c0 163 115 258 247 258c79 0 125 -28 164 -60l-54 -70c-29 23 -54 41 -103 41c-74 0 -138 -57 -138 -169c0 -106 55 -168 136 -168c28 0 53 9 69 22v102h-95v79h195v-229c-39 -35 -103 -63 -178 -63z" />
    <glyph glyph-name="uni0263" unicode="&#x263;" horiz-adv-x="495" 
d="M250 -217c-82 0 -132 52 -132 130c0 49 21 89 57 156l-163 422h117l78 -233c13 -43 28 -76 41 -120h4c14 44 28 77 42 120l78 233h111l-159 -420c37 -68 59 -108 59 -158c0 -78 -51 -130 -133 -130zM250 -142c24 0 37 19 37 47c0 32 -12 69 -35 113h-5
c-21 -44 -33 -83 -33 -113c0 -28 13 -47 36 -47z" />
    <glyph glyph-name="uni0264" unicode="&#x264;" horiz-adv-x="541" 
d="M270 -12c-116 0 -185 63 -185 175c0 65 45 134 107 193c-30 35 -63 53 -95 53c-18 0 -35 -5 -47 -14l-34 84c22 15 61 24 96 24c54 0 111 -29 158 -83c47 54 104 83 158 83c36 0 75 -9 97 -24l-34 -84c-12 9 -30 14 -47 14c-33 0 -66 -18 -95 -53
c61 -59 107 -128 107 -193c0 -112 -70 -175 -186 -175zM270 82c51 0 77 36 77 84c0 46 -33 96 -77 137c-43 -41 -76 -91 -76 -137c0 -48 25 -84 76 -84z" />
    <glyph glyph-name="uni0265" unicode="&#x265;" horiz-adv-x="560" 
d="M371 -194v162l6 100c-42 -46 -91 -80 -158 -80c-105 0 -151 71 -151 195v308h115v-293c0 -81 23 -111 76 -111c43 0 74 19 112 68v336h115v-685h-115z" />
    <glyph glyph-name="uni0266" unicode="&#x266;" horiz-adv-x="558" 
d="M73 0v518c0 113 55 200 187 200c36 0 69 -8 91 -17l-23 -86c-18 8 -36 12 -53 12c-57 0 -84 -36 -88 -107l-3 -103c41 39 90 74 157 74c105 0 151 -71 151 -195v-296h-115v281c0 81 -23 111 -77 111c-43 0 -71 -21 -112 -61v-331h-115z" />
    <glyph glyph-name="uni0267" unicode="&#x267;" horiz-adv-x="558" 
d="M336 -185c-35 0 -60 6 -79 13l21 86c13 -4 27 -7 42 -7c44 0 57 30 57 87v287c0 81 -23 111 -77 111c-43 0 -71 -21 -112 -61v-331h-115v518c0 113 55 200 187 200c36 0 69 -8 91 -17l-23 -86c-18 8 -36 12 -53 12c-57 0 -84 -36 -88 -107l-3 -103c41 39 90 74 157 74
c105 0 151 -71 151 -195v-300c0 -104 -39 -181 -156 -181z" />
    <glyph glyph-name="uni029C" unicode="&#x29c;" horiz-adv-x="572" 
d="M74 0v491h115v-188h196v188h115v-491h-115v202h-196v-202h-115z" />
    <glyph glyph-name="uni0268" unicode="&#x268;" horiz-adv-x="296" 
d="M10 227v54l80 5v205h115v-205h77v-59h-77v-227h-115v227h-80zM148 577c-41 0 -71 27 -71 65c0 39 30 66 71 66s71 -27 71 -66c0 -38 -30 -65 -71 -65z" />
    <glyph glyph-name="uni026A" unicode="&#x26a;" horiz-adv-x="369" 
d="M49 0v92h78v308h-78v91h271v-91h-78v-308h78v-92h-271z" />
    <glyph glyph-name="uni029D" unicode="&#x29d;" horiz-adv-x="323" 
d="M274 -265c-21 45 -44 85 -68 118c-29 -37 -74 -59 -134 -59c-87 0 -139 58 -139 130c0 69 50 116 136 116c20 0 42 -5 65 -14v465h116v-496c0 -17 -1 -33 -4 -48c42 -43 83 -101 116 -172zM69 -117c36 0 54 22 61 53c-22 17 -43 26 -62 26c-30 0 -46 -16 -46 -37
c0 -23 18 -42 47 -42zM192 577c-40 0 -71 27 -71 65c0 39 31 66 71 66c41 0 72 -27 72 -66c0 -38 -31 -65 -72 -65z" />
    <glyph glyph-name="uni026C" unicode="&#x26c;" horiz-adv-x="340" 
d="M129 305c-95 0 -137 42 -137 96c0 51 38 89 92 89c23 0 41 -7 54 -18v234h115v-342h77v-59h-77v-185c0 -28 13 -38 25 -38c5 0 9 0 18 2l15 -86c-14 -6 -34 -10 -61 -10c-82 0 -112 53 -112 138v179h-9zM117 364h21v4c0 26 -10 64 -48 64c-23 0 -32 -14 -32 -31
c0 -20 18 -37 59 -37z" />
    <glyph glyph-name="uni026D" unicode="&#x26d;" horiz-adv-x="271" 
d="M219 -185c-109 0 -146 73 -146 173v718h115v-720c0 -52 12 -79 47 -79c12 0 22 3 32 7l21 -86c-16 -7 -38 -13 -69 -13z" />
    <glyph glyph-name="uni026E" unicode="&#x26e;" horiz-adv-x="609" 
d="M372 -206c-96 0 -158 37 -202 79l54 72c34 -31 75 -57 135 -57c65 0 114 48 114 126c0 71 -43 113 -115 113c-27 0 -38 -5 -60 -14l-41 58l171 229h-240v-400h-115v706h115v-215h379v-61l-169 -224c120 2 191 -78 191 -188c0 -144 -102 -224 -217 -224z" />
    <glyph glyph-name="uni029F" unicode="&#x29f;" horiz-adv-x="422" 
d="M73 0v491h115v-399h208v-92h-323z" />
    <glyph glyph-name="uni026F" unicode="&#x26f;" horiz-adv-x="843" 
d="M222 -12c-104 0 -152 71 -152 195v308h115v-293c0 -81 24 -111 76 -111c31 0 65 20 103 61v343h115v-293c0 -81 24 -111 75 -111c31 0 65 20 103 61v343h115v-491h-94l-9 67h-3c-42 -43 -89 -79 -151 -79c-72 0 -113 33 -135 88c-47 -50 -96 -88 -158 -88z" />
    <glyph glyph-name="uni0270" unicode="&#x270;" horiz-adv-x="843" 
d="M657 -194v161l6 99c-46 -49 -91 -78 -148 -78c-72 0 -113 33 -135 88c-47 -50 -96 -88 -158 -88c-104 0 -152 71 -152 195v308h115v-293c0 -81 24 -111 76 -111c31 0 65 20 103 61v343h115v-293c0 -81 24 -111 75 -111c31 0 65 20 103 61v343h115v-685h-115z" />
    <glyph glyph-name="uni0271" unicode="&#x271;" horiz-adv-x="843" 
d="M626 -185c-32 0 -56 6 -74 13l22 86c10 -4 23 -7 36 -7c40 0 50 30 50 87v299c0 81 -24 111 -75 111c-31 0 -65 -20 -103 -61v-343h-115v293c0 81 -24 111 -76 111c-30 0 -65 -20 -103 -61v-343h-115v491h95l8 -67h4c41 44 89 79 150 79c72 0 113 -33 136 -88
c47 50 96 88 158 88c104 0 152 -71 152 -195v-312c0 -104 -38 -181 -150 -181z" />
    <glyph glyph-name="uni0272" unicode="&#x272;" horiz-adv-x="560" 
d="M43 -185c-31 0 -54 6 -70 13l21 86c10 -4 21 -7 33 -7c35 0 46 27 46 79v505h96l7 -66h4c44 43 94 78 161 78c105 0 151 -71 151 -195v-308h-115v293c0 81 -23 111 -77 111c-43 0 -71 -21 -112 -61v-355c0 -100 -36 -173 -145 -173z" />
    <glyph glyph-name="uni0273" unicode="&#x273;" horiz-adv-x="560" 
d="M522 -185c-109 0 -145 73 -145 173v305c0 81 -23 111 -77 111c-43 0 -71 -21 -112 -61v-343h-115v491h95l8 -66h4c44 43 94 78 161 78c105 0 151 -71 151 -195v-322c0 -52 11 -79 46 -79c12 0 23 3 33 7l21 -86c-16 -7 -39 -13 -70 -13z" />
    <glyph glyph-name="uni0274" unicode="&#x274;" horiz-adv-x="552" 
d="M73 0v491h107l144 -241c16 -30 38 -75 53 -104h4c-5 61 -10 125 -10 176v169h108v-491h-107l-144 242c-17 28 -38 74 -53 104h-4c5 -63 10 -126 10 -177v-169h-108z" />
    <glyph glyph-name="uni0275" unicode="&#x275;" horiz-adv-x="549" 
d="M274 -12c-124 0 -233 88 -233 257c0 170 109 258 233 258c125 0 234 -88 234 -258c0 -169 -109 -257 -234 -257zM274 416c-65 0 -109 -45 -122 -124h245c-13 79 -58 124 -123 124zM274 76c69 0 116 49 125 138h-249c9 -89 55 -138 124 -138z" />
    <glyph glyph-name="uni0276" unicode="&#x276;" horiz-adv-x="713" 
d="M289 -12c-131 0 -248 85 -248 257c0 171 117 258 248 258c36 0 64 -2 109 -12h282v-85h-217v-114h183v-78h-183v-130h227v-84h-292c-43 -10 -73 -12 -109 -12zM295 80c16 0 36 4 54 9v312c-18 5 -38 9 -54 9c-73 0 -135 -51 -135 -165c0 -118 62 -165 135 -165z" />
    <glyph glyph-name="uni0278" unicode="&#x278;" horiz-adv-x="710" 
d="M159 246c0 -103 61 -163 143 -168v335c-82 -4 -143 -64 -143 -167zM550 246c0 104 -57 163 -142 167v-335c82 5 142 65 142 168zM302 -194v185c-136 6 -261 96 -261 255s125 248 261 254v206h106v-206c137 -6 261 -95 261 -254s-126 -249 -261 -255v-185h-106z" />
    <glyph glyph-name="uni0279" unicode="&#x279;" horiz-adv-x="373" 
d="M54 -12c-25 0 -41 3 -56 10l20 100c18 -5 30 -8 51 -8c39 0 86 27 116 102v299h115v-491h-94l-9 88h-3c-35 -64 -87 -100 -140 -100z" />
    <glyph glyph-name="uni027A" unicode="&#x27a;" horiz-adv-x="373" 
d="M54 -12c-25 0 -41 3 -56 10l20 100c18 -5 30 -8 51 -8c39 0 86 27 116 102v514h115v-706h-94l-9 88h-3c-35 -64 -87 -100 -140 -100z" />
    <glyph glyph-name="uni027B" unicode="&#x27b;" horiz-adv-x="373" 
d="M330 -185c-99 0 -133 66 -133 157v116h-3c-35 -64 -87 -100 -140 -100c-25 0 -41 3 -56 10l20 100c18 -5 30 -8 51 -8c39 0 86 27 116 102v299h115v-505c0 -52 11 -79 46 -79c12 0 23 3 33 7l21 -86c-16 -7 -39 -13 -70 -13z" />
    <glyph glyph-name="uni027D" unicode="&#x27d;" horiz-adv-x="373" 
d="M219 -185c-109 0 -146 73 -146 173v503h95l8 -87h4c35 64 87 99 139 99c25 0 41 -3 56 -10l-20 -100c-17 5 -30 8 -51 8c-39 0 -86 -27 -116 -101v-314c0 -52 12 -79 47 -79c12 0 22 3 32 7l21 -86c-16 -7 -38 -13 -69 -13z" />
    <glyph glyph-name="uni027E" unicode="&#x27e;" horiz-adv-x="357" 
d="M73 0v309c0 113 62 194 187 194c43 0 76 -5 99 -14l-19 -97c-25 9 -38 11 -65 11c-42 0 -87 -35 -87 -119v-284h-115z" />
    <glyph glyph-name="uni0280" unicode="&#x280;" horiz-adv-x="514" 
d="M73 0v491h189c109 0 194 -39 194 -154c0 -73 -39 -118 -92 -141l127 -196h-128l-102 176h-73v-176h-115zM188 257h58c62 0 96 29 96 77c0 49 -34 71 -96 71h-58v-148z" />
    <glyph glyph-name="uni0281" unicode="&#x281;" horiz-adv-x="514" 
d="M252 0c-109 0 -194 40 -194 155c0 73 40 118 92 141l-127 195h128l103 -175h72v175h115v-491h-189zM268 86h58v150h-58c-62 0 -96 -30 -96 -78c0 -49 34 -72 96 -72z" />
    <glyph glyph-name="uni0282" unicode="&#x282;" horiz-adv-x="431" 
d="M210 -12c-28 0 -57 4 -84 12v-6c0 -57 14 -90 58 -90c15 0 29 4 42 8l22 -84c-19 -7 -44 -13 -80 -13c-107 0 -144 77 -144 181v54l54 73c44 -32 86 -48 136 -48c53 0 78 25 78 59c0 41 -53 59 -105 79c-65 24 -138 61 -138 143c0 86 69 147 179 147
c68 0 123 -28 163 -59l-53 -70c-34 25 -69 42 -108 42c-49 0 -72 -23 -72 -54c0 -39 49 -54 102 -73c67 -25 141 -57 141 -149c0 -84 -67 -152 -191 -152z" />
    <glyph glyph-name="uni0283" unicode="&#x283;" horiz-adv-x="263" 
d="M34 -206c-36 0 -61 6 -80 13l22 86c13 -4 27 -8 42 -8c44 0 56 31 56 88v565c0 104 42 181 166 181c31 0 53 -6 70 -13l-22 -86c-10 4 -20 8 -32 8c-51 0 -66 -31 -66 -88v-565c0 -104 -40 -181 -156 -181z" />
    <glyph glyph-name="uni0284" unicode="&#x284;" horiz-adv-x="296" 
d="M50 -206c-36 0 -61 6 -80 13l22 86c13 -4 27 -8 42 -8c44 0 56 31 56 88v254h-80v54l80 5v252c0 104 42 181 166 181c31 0 53 -6 70 -13l-22 -86c-10 4 -20 8 -32 8c-51 0 -66 -31 -66 -88v-254h76v-59h-76v-252c0 -104 -40 -181 -156 -181z" />
    <glyph glyph-name="uni0288" unicode="&#x288;" horiz-adv-x="361" 
d="M246 -186c-114 0 -156 72 -156 178v408h-70v86l76 5l14 134h96v-134h125v-91h-125v-408c0 -58 22 -86 69 -86c17 0 37 6 51 11l20 -85c-27 -8 -61 -18 -100 -18z" />
    <glyph glyph-name="uni0289" unicode="&#x289;" horiz-adv-x="596" 
d="M10 265v54l81 5v167h115v-167h185v167h115v-167h76v-59h-76v-265h-94l-9 72h-3c-43 -51 -91 -84 -158 -84c-105 0 -151 71 -151 195v82h-81zM282 87c43 0 72 20 109 68v110h-185v-67c0 -81 23 -111 76 -111z" />
    <glyph glyph-name="uni028A" unicode="&#x28a;" horiz-adv-x="550" 
d="M275 -12c-147 0 -231 107 -231 217c0 89 40 154 79 192v3h-90v91h200v-74c-45 -46 -73 -101 -73 -187c0 -81 38 -148 115 -148s115 67 115 148c0 86 -28 141 -73 187v74h199v-91h-89v-3c39 -38 79 -103 79 -192c0 -110 -84 -217 -231 -217z" />
    <glyph glyph-name="uni028B" unicode="&#x28b;" horiz-adv-x="541" 
d="M268 -12c-120 0 -200 72 -200 222v281h115v-277c0 -93 37 -132 90 -132c68 0 106 79 106 194c0 91 -20 137 -65 137c-8 0 -15 -2 -24 -5l-15 87c18 6 36 8 63 8c94 0 160 -65 160 -210c0 -179 -78 -305 -230 -305z" />
    <glyph glyph-name="uni028C" unicode="&#x28c;" horiz-adv-x="495" 
d="M12 0l167 491h133l171 -491h-117l-78 255c-13 48 -28 99 -41 148h-4c-14 -49 -28 -100 -42 -148l-78 -255h-111z" />
    <glyph glyph-name="uni028D" unicode="&#x28d;" horiz-adv-x="748" 
d="M24 0l124 491h137l58 -229c10 -46 19 -91 29 -143h4c10 52 18 98 30 144l55 228h133l130 -491h-116l-60 255c-9 47 -16 93 -25 141h-4c-10 -48 -19 -95 -31 -141l-65 -255h-104l-66 255c-12 47 -21 93 -32 141h-4c-10 -48 -17 -94 -27 -141l-58 -255h-108z" />
    <glyph glyph-name="uni028E" unicode="&#x28e;" horiz-adv-x="495" 
d="M12 0l187 539c41 111 93 179 200 179c27 0 46 -4 64 -10l-21 -89c-10 3 -24 7 -36 7c-51 0 -81 -35 -98 -84l-18 -57l193 -485h-117l-85 241c-15 43 -29 92 -43 139h-4c-12 -46 -25 -94 -38 -139l-73 -241h-111z" />
    <glyph glyph-name="uni028F" unicode="&#x28f;" horiz-adv-x="441" 
d="M164 0v157l-168 334h121l55 -122c15 -40 31 -75 48 -115h4c16 40 32 75 48 115l53 122h121l-167 -334v-157h-115z" />
    <glyph glyph-name="uni0290" unicode="&#x290;" horiz-adv-x="443" 
d="M438 -185c-106 0 -145 73 -145 161v24h-259v62l232 338h-206v91h350v-61l-231 -338h229v-106c0 -52 11 -79 46 -79c12 0 23 3 33 7l21 -86c-16 -7 -39 -13 -70 -13z" />
    <glyph glyph-name="uni0291" unicode="&#x291;" horiz-adv-x="477" 
d="M263 -81l-60 12c5 24 11 47 17 69h-186v62l232 338h-206v91h343v-61l-231 -338c26 -2 52 -3 78 -4c36 90 84 145 143 145c61 0 98 -35 98 -101c0 -72 -52 -132 -166 -132h-43c-7 -24 -13 -51 -19 -81zM355 86c46 0 70 24 70 49c0 21 -10 34 -35 34s-53 -25 -78 -83h43z
" />
    <glyph glyph-name="uni0292" unicode="&#x292;" horiz-adv-x="443" 
d="M206 -206c-96 0 -158 37 -202 79l54 72c34 -31 75 -57 135 -57c65 0 114 48 114 126c0 71 -43 113 -115 113c-27 0 -38 -5 -60 -14l-41 58l171 229h-221v91h360v-61l-169 -224c120 2 191 -78 191 -188c0 -144 -102 -224 -217 -224z" />
    <glyph glyph-name="uni0294" unicode="&#x294;" horiz-adv-x="433" 
d="M137 0v320c115 71 161 121 161 196c0 67 -40 108 -108 108c-60 0 -103 -31 -136 -68l-58 74c44 47 109 88 205 88c117 0 213 -67 213 -198c0 -112 -67 -177 -162 -246v-274h-115z" />
    <glyph glyph-name="uni0295" unicode="&#x295;" horiz-adv-x="475" 
d="M198 0v274c-94 69 -162 134 -162 246c0 131 102 198 224 198c91 0 152 -41 195 -88l-59 -74c-30 37 -70 68 -125 68c-74 0 -119 -41 -119 -108c0 -75 47 -125 162 -196v-320h-116z" />
    <glyph glyph-name="uni02A1" unicode="&#x2a1;" horiz-adv-x="459" 
d="M151 0v229h-142v86l76 5h82c104 71 147 131 147 196c0 67 -41 108 -109 108c-59 0 -103 -31 -135 -68l-59 74c45 47 109 88 205 88c117 0 214 -67 214 -198c0 -79 -55 -143 -126 -200h137v-91h-175v-229h-115z" />
    <glyph glyph-name="uni02A2" unicode="&#x2a2;" horiz-adv-x="459" 
d="M193 0v229h-175v91h136c-70 57 -125 121 -125 200c0 131 102 198 224 198c91 0 152 -41 195 -88l-59 -74c-30 37 -70 68 -125 68c-74 0 -119 -41 -119 -108c0 -65 43 -125 147 -196h82l76 -5v-86h-142v-229h-115z" />
    <glyph glyph-name="uni01C2" unicode="&#x1c2;" horiz-adv-x="309" 
d="M6 331v54l77 5h37v360h77v-360h105v-59h-105v-125h105v-59h-105v-397h-77v397h-114v54l77 5h37v125h-114z" />
    <glyph glyph-name="uni0298" unicode="&#x298;" horiz-adv-x="541" 
d="M270 -12c-130 0 -216 117 -216 368c0 241 86 362 216 362c131 0 217 -122 217 -362c0 -251 -86 -368 -217 -368zM270 82c60 0 111 68 111 274c0 193 -51 268 -111 268c-59 0 -110 -75 -110 -268c0 -206 51 -274 110 -274zM270 301c-30 0 -55 24 -55 55c0 32 25 55 55 55
s56 -23 56 -55c0 -31 -26 -55 -56 -55z" />
    <glyph glyph-name="f_f_i" unicode="&#xfb03;" horiz-adv-x="879" 
d="M394 0v400h-186v-400h-115v400h-66v86l66 5v43c0 101 51 174 170 174c37 0 72 -7 96 -18l-22 -86c-19 9 -36 13 -62 13c-41 0 -67 -28 -67 -83v-43h186v51c0 102 46 176 162 176c36 0 68 -8 90 -17l-22 -86c-17 8 -36 12 -53 12c-41 0 -62 -26 -62 -83v-53h96v-91h-96
v-400h-115zM691 0v491h115v-491h-115zM749 577c-41 0 -71 27 -71 65c0 39 30 66 71 66s71 -27 71 -66c0 -38 -30 -65 -71 -65z" />
    <glyph glyph-name="f_f_l" unicode="&#xfb04;" horiz-adv-x="888" 
d="M394 0v400h-186v-400h-115v400h-66v86l66 5v43c0 101 51 174 170 174c37 0 72 -7 96 -18l-22 -86c-19 9 -36 13 -62 13c-41 0 -67 -28 -67 -83v-43h186v51c0 102 46 176 162 176c36 0 68 -8 90 -17l-22 -86c-17 8 -36 12 -53 12c-41 0 -62 -26 -62 -83v-53h96v-91h-96
v-400h-115zM803 -12c-82 0 -112 53 -112 138v580h115v-586c0 -28 13 -38 25 -38c5 0 9 0 18 2l15 -86c-14 -6 -34 -10 -61 -10z" />
    <glyph glyph-name="I.a" horiz-adv-x="370" 
d="M49 0v98h78v458h-78v98h271v-98h-77v-458h77v-98h-271z" />
    <glyph glyph-name="Igrave.a" horiz-adv-x="370" 
d="M49 0v98h78v458h-78v98h271v-98h-77v-458h77v-98h-271zM199 688l-168 117l62 76l157 -135z" />
    <glyph glyph-name="Iacute.a" horiz-adv-x="370" 
d="M49 0v98h78v458h-78v98h271v-98h-77v-458h77v-98h-271zM171 688l-51 58l157 135l62 -76z" />
    <glyph glyph-name="Icircumflex.a" horiz-adv-x="370" 
d="M49 0v98h78v458h-78v98h271v-98h-77v-458h77v-98h-271zM26 725l97 111h124l97 -111l-50 -33l-107 88h-4l-107 -88z" />
    <glyph glyph-name="Itilde.a" horiz-adv-x="370" 
d="M49 0v98h78v458h-78v98h271v-98h-77v-458h77v-98h-271zM258 700c-73 0 -103 64 -143 64c-22 0 -38 -17 -42 -57l-76 6c5 89 50 133 115 133c73 0 103 -64 143 -64c22 0 37 18 42 58l76 -6c-5 -89 -50 -134 -115 -134z" />
    <glyph glyph-name="Idieresis.a" horiz-adv-x="370" 
d="M49 0v98h78v458h-78v98h271v-98h-77v-458h77v-98h-271zM78 708c-35 0 -59 25 -59 59c0 35 24 60 59 60s60 -25 60 -60c0 -34 -25 -59 -60 -59zM292 708c-35 0 -60 25 -60 59c0 35 25 60 60 60s59 -25 59 -60c0 -34 -24 -59 -59 -59z" />
    <glyph glyph-name="Imacron.a" horiz-adv-x="370" 
d="M49 0v98h78v458h-78v98h271v-98h-77v-458h77v-98h-271zM42 728v76h286v-76h-286z" />
    <glyph glyph-name="Idotaccent.a" horiz-adv-x="370" 
d="M49 0v98h78v458h-78v98h271v-98h-77v-458h77v-98h-271zM185 707c-41 0 -71 27 -71 66c0 38 30 65 71 65s71 -27 71 -65c0 -39 -30 -66 -71 -66z" />
    <glyph glyph-name="uni01CF.a" horiz-adv-x="370" 
d="M49 0v98h78v458h-78v98h271v-98h-77v-458h77v-98h-271zM123 704l-97 112l50 32l107 -88h4l107 88l50 -32l-97 -112h-124z" />
    <glyph glyph-name="uni1EC8.a" horiz-adv-x="370" 
d="M49 0v98h78v458h-78v98h271v-98h-77v-458h77v-98h-271zM147 694l-10 49c28 6 50 16 50 37c0 23 -24 35 -81 38l13 61c106 -3 154 -34 154 -86c0 -63 -59 -91 -126 -99z" />
    <glyph glyph-name="uni1ECA.a" horiz-adv-x="370" 
d="M49 0v98h78v458h-78v98h271v-98h-77v-458h77v-98h-271zM186 -217c-40 0 -68 27 -68 66c0 38 28 65 68 65s68 -27 68 -65c0 -39 -28 -66 -68 -66z" />
    <glyph glyph-name="Iogonek.a" horiz-adv-x="370" 
d="M191 -218c-59 0 -105 32 -105 91c0 57 40 104 69 127h-106v98h78v458h-78v98h271v-98h-77v-458h77v-98h-89c-37 -29 -59 -64 -59 -98c0 -29 22 -42 45 -42c14 0 27 6 38 14l28 -60c-22 -18 -61 -32 -92 -32z" />
    <glyph glyph-name="uni012C.a" horiz-adv-x="370" 
d="M49 0v98h78v458h-78v98h271v-98h-77v-458h77v-98h-271zM185 701c-96 0 -146 53 -155 133l66 11c8 -44 38 -75 89 -75s81 31 89 75l66 -11c-9 -80 -59 -133 -155 -133z" />
    <glyph glyph-name="uni014A.a" horiz-adv-x="656" 
d="M420 -174c-36 0 -61 6 -80 14l21 87c13 -4 27 -7 43 -7c44 0 56 33 56 80h-6l-204 368l-67 139h-4c5 -69 15 -148 15 -221v-286h-111v654h119l204 -368l67 -139h4c-5 67 -15 150 -15 223v284h111v-646c0 -105 -42 -182 -153 -182z" />
    <glyph glyph-name="a.a" horiz-adv-x="564" 
d="M245 -12c-123 0 -202 95 -202 257c0 160 103 258 211 258c52 0 92 -19 133 -60h3l9 48h92v-491h-95l-8 53h-4c-36 -36 -86 -65 -139 -65zM273 83c38 0 70 17 103 55v229c-34 30 -67 41 -100 41c-63 0 -114 -59 -114 -162c0 -106 40 -163 111 -163z" />
    <glyph glyph-name="agrave.a" horiz-adv-x="564" 
d="M245 -12c-123 0 -202 95 -202 257c0 160 103 258 211 258c52 0 92 -19 133 -60h3l9 48h92v-491h-95l-8 53h-4c-36 -36 -86 -65 -139 -65zM273 83c38 0 70 17 103 55v229c-34 30 -67 41 -100 41c-63 0 -114 -59 -114 -162c0 -106 40 -163 111 -163zM293 573l-170 155
l80 76l147 -174z" />
    <glyph glyph-name="aacute.a" horiz-adv-x="564" 
d="M245 -12c-123 0 -202 95 -202 257c0 160 103 258 211 258c52 0 92 -19 133 -60h3l9 48h92v-491h-95l-8 53h-4c-36 -36 -86 -65 -139 -65zM273 83c38 0 70 17 103 55v229c-34 30 -67 41 -100 41c-63 0 -114 -59 -114 -162c0 -106 40 -163 111 -163zM289 573l-57 57
l147 174l80 -76z" />
    <glyph glyph-name="acircumflex.a" horiz-adv-x="564" 
d="M245 -12c-123 0 -202 95 -202 257c0 160 103 258 211 258c52 0 92 -19 133 -60h3l9 48h92v-491h-95l-8 53h-4c-36 -36 -86 -65 -139 -65zM273 83c38 0 70 17 103 55v229c-34 30 -67 41 -100 41c-63 0 -114 -59 -114 -162c0 -106 40 -163 111 -163zM122 607l111 135h116
l111 -135l-45 -43l-122 103h-4l-122 -103z" />
    <glyph glyph-name="atilde.a" horiz-adv-x="564" 
d="M245 -12c-123 0 -202 95 -202 257c0 160 103 258 211 258c52 0 92 -19 133 -60h3l9 48h92v-491h-95l-8 53h-4c-36 -36 -86 -65 -139 -65zM273 83c38 0 70 17 103 55v229c-34 30 -67 41 -100 41c-63 0 -114 -59 -114 -162c0 -106 40 -163 111 -163zM360 575
c-67 0 -97 74 -136 74c-25 0 -37 -24 -41 -67l-74 4c3 91 40 144 113 144c67 0 97 -74 137 -74c24 0 36 25 40 67l74 -4c-3 -90 -40 -144 -113 -144z" />
    <glyph glyph-name="adieresis.a" horiz-adv-x="564" 
d="M245 -12c-123 0 -202 95 -202 257c0 160 103 258 211 258c52 0 92 -19 133 -60h3l9 48h92v-491h-95l-8 53h-4c-36 -36 -86 -65 -139 -65zM273 83c38 0 70 17 103 55v229c-34 30 -67 41 -100 41c-63 0 -114 -59 -114 -162c0 -106 40 -163 111 -163zM188 578
c-35 0 -61 27 -61 61s26 61 61 61c36 0 61 -27 61 -61s-25 -61 -61 -61zM394 578c-36 0 -61 27 -61 61s25 61 61 61c35 0 61 -27 61 -61s-26 -61 -61 -61z" />
    <glyph glyph-name="amacron.a" horiz-adv-x="564" 
d="M245 -12c-123 0 -202 95 -202 257c0 160 103 258 211 258c52 0 92 -19 133 -60h3l9 48h92v-491h-95l-8 53h-4c-36 -36 -86 -65 -139 -65zM273 83c38 0 70 17 103 55v229c-34 30 -67 41 -100 41c-63 0 -114 -59 -114 -162c0 -106 40 -163 111 -163zM151 596v76h280v-76
h-280z" />
    <glyph glyph-name="abreve.a" horiz-adv-x="564" 
d="M245 -12c-123 0 -202 95 -202 257c0 160 103 258 211 258c52 0 92 -19 133 -60h3l9 48h92v-491h-95l-8 53h-4c-36 -36 -86 -65 -139 -65zM273 83c38 0 70 17 103 55v229c-34 30 -67 41 -100 41c-63 0 -114 -59 -114 -162c0 -106 40 -163 111 -163zM291 571
c-111 0 -158 73 -163 155l68 11c7 -47 36 -92 95 -92s88 45 95 92l68 -11c-5 -82 -52 -155 -163 -155z" />
    <glyph glyph-name="aring.a" horiz-adv-x="564" 
d="M245 -12c-123 0 -202 95 -202 257c0 160 103 258 211 258c52 0 92 -19 133 -60h3l9 48h92v-491h-95l-8 53h-4c-36 -36 -86 -65 -139 -65zM273 83c38 0 70 17 103 55v229c-34 30 -67 41 -100 41c-63 0 -114 -59 -114 -162c0 -106 40 -163 111 -163zM291 559
c-77 0 -121 44 -121 101c0 58 44 102 121 102s121 -44 121 -102c0 -57 -44 -101 -121 -101zM291 605c28 0 50 22 50 55c0 34 -22 56 -50 56s-50 -22 -50 -56c0 -33 22 -55 50 -55z" />
    <glyph glyph-name="uni01CE.a" horiz-adv-x="564" 
d="M245 -12c-123 0 -202 95 -202 257c0 160 103 258 211 258c52 0 92 -19 133 -60h3l9 48h92v-491h-95l-8 53h-4c-36 -36 -86 -65 -139 -65zM273 83c38 0 70 17 103 55v229c-34 30 -67 41 -100 41c-63 0 -114 -59 -114 -162c0 -106 40 -163 111 -163zM233 576l-111 135
l45 42l122 -102h4l122 102l45 -42l-111 -135h-116z" />
    <glyph glyph-name="uni1EA1.a" horiz-adv-x="564" 
d="M245 -12c-123 0 -202 95 -202 257c0 160 103 258 211 258c52 0 92 -19 133 -60h3l9 48h92v-491h-95l-8 53h-4c-36 -36 -86 -65 -139 -65zM273 83c38 0 70 17 103 55v229c-34 30 -67 41 -100 41c-63 0 -114 -59 -114 -162c0 -106 40 -163 111 -163zM293 -217
c-40 0 -68 27 -68 66c0 38 28 65 68 65s68 -27 68 -65c0 -39 -28 -66 -68 -66z" />
    <glyph glyph-name="uni1EA3.a" horiz-adv-x="564" 
d="M245 -12c-123 0 -202 95 -202 257c0 160 103 258 211 258c52 0 92 -19 133 -60h3l9 48h92v-491h-95l-8 53h-4c-36 -36 -86 -65 -139 -65zM273 83c38 0 70 17 103 55v229c-34 30 -67 41 -100 41c-63 0 -114 -59 -114 -162c0 -106 40 -163 111 -163zM253 570l-10 49
c28 7 50 17 50 41c0 26 -24 41 -81 44l7 73c111 -3 161 -43 161 -108c0 -63 -60 -91 -127 -99z" />
    <glyph glyph-name="uni1EA5.a" horiz-adv-x="564" 
d="M245 -12c-123 0 -202 95 -202 257c0 160 103 258 211 258c52 0 92 -19 133 -60h3l9 48h92v-491h-95l-8 53h-4c-36 -36 -86 -65 -139 -65zM273 83c38 0 70 17 103 55v229c-34 30 -67 41 -100 41c-63 0 -114 -59 -114 -162c0 -106 40 -163 111 -163zM186 568l-38 43l97 92
h92l97 -92l-38 -43l-103 68h-4zM401 674l83 123l63 -43l-101 -117z" />
    <glyph glyph-name="uni1EA7.a" horiz-adv-x="564" 
d="M245 -12c-123 0 -202 95 -202 257c0 160 103 258 211 258c52 0 92 -19 133 -60h3l9 48h92v-491h-95l-8 53h-4c-36 -36 -86 -65 -139 -65zM273 83c38 0 70 17 103 55v229c-34 30 -67 41 -100 41c-63 0 -114 -59 -114 -162c0 -106 40 -163 111 -163zM186 568l-38 43l97 92
h92l97 -92l-38 -43l-103 68h-4zM181 675l-45 -38l-109 116l63 44z" />
    <glyph glyph-name="uni1EA9.a" horiz-adv-x="564" 
d="M245 -12c-123 0 -202 95 -202 257c0 160 103 258 211 258c52 0 92 -19 133 -60h3l9 48h92v-491h-95l-8 53h-4c-36 -36 -86 -65 -139 -65zM273 83c38 0 70 17 103 55v229c-34 30 -67 41 -100 41c-63 0 -114 -59 -114 -162c0 -106 40 -163 111 -163zM186 568l-38 43l97 92
h92l97 -92l-38 -43l-103 68h-4zM418 640l-9 42c21 6 36 15 36 34c0 22 -17 34 -67 37l10 52c94 -3 135 -30 135 -77c0 -59 -50 -78 -105 -88z" />
    <glyph glyph-name="uni1EAB.a" horiz-adv-x="564" 
d="M245 -12c-123 0 -202 95 -202 257c0 160 103 258 211 258c52 0 92 -19 133 -60h3l9 48h92v-491h-95l-8 53h-4c-36 -36 -86 -65 -139 -65zM273 83c38 0 70 17 103 55v229c-34 30 -67 41 -100 41c-63 0 -114 -59 -114 -162c0 -106 40 -163 111 -163zM186 568l-38 43l97 86
h92l97 -86l-38 -43l-103 62h-4zM149 721c6 64 32 100 80 100c57 0 84 -42 118 -42c17 0 26 12 31 40l55 -6c-6 -64 -32 -100 -80 -100c-57 0 -84 42 -118 42c-17 0 -26 -12 -31 -40z" />
    <glyph glyph-name="uni1EAD.a" horiz-adv-x="564" 
d="M245 -12c-123 0 -202 95 -202 257c0 160 103 258 211 258c52 0 92 -19 133 -60h3l9 48h92v-491h-95l-8 53h-4c-36 -36 -86 -65 -139 -65zM273 83c38 0 70 17 103 55v229c-34 30 -67 41 -100 41c-63 0 -114 -59 -114 -162c0 -106 40 -163 111 -163zM122 607l111 135h116
l111 -135l-45 -43l-122 103h-4l-122 -103zM293 -217c-40 0 -68 27 -68 66c0 38 28 65 68 65s68 -27 68 -65c0 -39 -28 -66 -68 -66z" />
    <glyph glyph-name="uni1EAF.a" horiz-adv-x="564" 
d="M245 -12c-123 0 -202 95 -202 257c0 160 103 258 211 258c52 0 92 -19 133 -60h3l9 48h92v-491h-95l-8 53h-4c-36 -36 -86 -65 -139 -65zM273 83c38 0 70 17 103 55v229c-34 30 -67 41 -100 41c-63 0 -114 -59 -114 -162c0 -106 40 -163 111 -163zM293 689l-52 37l91 132
l69 -52zM291 571c-111 0 -158 73 -163 155l62 11c8 -51 39 -98 101 -98s93 47 101 98l62 -11c-5 -82 -52 -155 -163 -155z" />
    <glyph glyph-name="uni1EB1.a" horiz-adv-x="564" 
d="M245 -12c-123 0 -202 95 -202 257c0 160 103 258 211 258c52 0 92 -19 133 -60h3l9 48h92v-491h-95l-8 53h-4c-36 -36 -86 -65 -139 -65zM273 83c38 0 70 17 103 55v229c-34 30 -67 41 -100 41c-63 0 -114 -59 -114 -162c0 -106 40 -163 111 -163zM289 689l-108 117
l69 52l91 -132zM291 571c-111 0 -158 73 -163 155l62 11c8 -51 39 -98 101 -98s93 47 101 98l62 -11c-5 -82 -52 -155 -163 -155z" />
    <glyph glyph-name="uni1EB3.a" horiz-adv-x="564" 
d="M245 -12c-123 0 -202 95 -202 257c0 160 103 258 211 258c52 0 92 -19 133 -60h3l9 48h92v-491h-95l-8 53h-4c-36 -36 -86 -65 -139 -65zM273 83c38 0 70 17 103 55v229c-34 30 -67 41 -100 41c-63 0 -114 -59 -114 -162c0 -106 40 -163 111 -163zM260 690l-9 43
c24 5 40 14 40 34c0 22 -19 34 -72 37l11 65c96 -3 139 -36 139 -90c0 -60 -52 -81 -109 -89zM291 571c-111 0 -158 73 -163 155l62 11c8 -51 39 -98 101 -98s93 47 101 98l62 -11c-5 -82 -52 -155 -163 -155z" />
    <glyph glyph-name="uni1EB5.a" horiz-adv-x="564" 
d="M245 -12c-123 0 -202 95 -202 257c0 160 103 258 211 258c52 0 92 -19 133 -60h3l9 48h92v-491h-95l-8 53h-4c-36 -36 -86 -65 -139 -65zM273 83c38 0 70 17 103 55v229c-34 30 -67 41 -100 41c-63 0 -114 -59 -114 -162c0 -106 40 -163 111 -163zM291 571
c-101 0 -143 55 -149 111l59 10c7 -30 32 -60 90 -60s83 30 90 60l59 -10c-6 -56 -48 -111 -149 -111zM143 720c6 64 35 100 86 100c57 0 84 -42 118 -42c17 0 26 12 31 40l61 -6c-6 -64 -35 -100 -86 -100c-57 0 -84 42 -118 42c-17 0 -26 -12 -31 -40z" />
    <glyph glyph-name="uni1EB7.a" horiz-adv-x="564" 
d="M245 -12c-123 0 -202 95 -202 257c0 160 103 258 211 258c52 0 92 -19 133 -60h3l9 48h92v-491h-95l-8 53h-4c-36 -36 -86 -65 -139 -65zM273 83c38 0 70 17 103 55v229c-34 30 -67 41 -100 41c-63 0 -114 -59 -114 -162c0 -106 40 -163 111 -163zM291 571
c-111 0 -158 73 -163 155l68 11c7 -47 36 -92 95 -92s88 45 95 92l68 -11c-5 -82 -52 -155 -163 -155zM293 -217c-40 0 -68 27 -68 66c0 38 28 65 68 65s68 -27 68 -65c0 -39 -28 -66 -68 -66z" />
    <glyph glyph-name="aogonek.a" horiz-adv-x="564" 
d="M422 -208c-55 0 -99 30 -99 88c0 56 40 96 75 121l-10 52h-4c-36 -36 -86 -65 -139 -65c-123 0 -202 95 -202 257c0 160 103 258 211 258c52 0 92 -19 133 -60h3l9 48h92v-491c-63 -24 -87 -60 -87 -95c0 -28 21 -42 44 -42c14 0 27 5 38 13l26 -54
c-23 -18 -62 -30 -90 -30zM273 83c38 0 70 17 103 55v229c-34 30 -67 41 -100 41c-63 0 -114 -59 -114 -162c0 -106 40 -163 111 -163z" />
    <glyph glyph-name="g.a" horiz-adv-x="571" 
d="M260 -205c-57 0 -126 19 -180 54l40 78c47 -29 97 -41 140 -41c81 0 116 41 119 104l3 76c-35 -33 -82 -57 -134 -57c-122 0 -201 97 -201 245c0 152 103 249 210 249c52 0 92 -18 131 -57h4l8 45h94v-501c0 -124 -84 -195 -234 -195zM277 103c38 0 69 17 102 56v208
c-33 30 -67 41 -100 41c-63 0 -115 -59 -115 -153c0 -95 42 -152 113 -152z" />
    <glyph glyph-name="uni01F5.a" horiz-adv-x="571" 
d="M260 -205c-57 0 -126 19 -180 54l40 78c47 -29 97 -41 140 -41c81 0 116 41 119 104l3 76c-35 -33 -82 -57 -134 -57c-122 0 -201 97 -201 245c0 152 103 249 210 249c52 0 92 -18 131 -57h4l8 45h94v-501c0 -124 -84 -195 -234 -195zM277 103c38 0 69 17 102 56v208
c-33 30 -67 41 -100 41c-63 0 -115 -59 -115 -153c0 -95 42 -152 113 -152zM292 573l-57 57l147 174l80 -76z" />
    <glyph glyph-name="gcircumflex.a" horiz-adv-x="571" 
d="M260 -205c-57 0 -126 19 -180 54l40 78c47 -29 97 -41 140 -41c81 0 116 41 119 104l3 76c-35 -33 -82 -57 -134 -57c-122 0 -201 97 -201 245c0 152 103 249 210 249c52 0 92 -18 131 -57h4l8 45h94v-501c0 -124 -84 -195 -234 -195zM277 103c38 0 69 17 102 56v208
c-33 30 -67 41 -100 41c-63 0 -115 -59 -115 -153c0 -95 42 -152 113 -152zM125 607l111 135h116l111 -135l-45 -43l-122 103h-4l-122 -103z" />
    <glyph glyph-name="gbreve.a" horiz-adv-x="571" 
d="M260 -205c-57 0 -126 19 -180 54l40 78c47 -29 97 -41 140 -41c81 0 116 41 119 104l3 76c-35 -33 -82 -57 -134 -57c-122 0 -201 97 -201 245c0 152 103 249 210 249c52 0 92 -18 131 -57h4l8 45h94v-501c0 -124 -84 -195 -234 -195zM277 103c38 0 69 17 102 56v208
c-33 30 -67 41 -100 41c-63 0 -115 -59 -115 -153c0 -95 42 -152 113 -152zM294 571c-111 0 -158 73 -163 155l68 11c7 -47 36 -92 95 -92s88 45 95 92l68 -11c-5 -82 -52 -155 -163 -155z" />
    <glyph glyph-name="gdotaccent.a" horiz-adv-x="571" 
d="M260 -205c-57 0 -126 19 -180 54l40 78c47 -29 97 -41 140 -41c81 0 116 41 119 104l3 76c-35 -33 -82 -57 -134 -57c-122 0 -201 97 -201 245c0 152 103 249 210 249c52 0 92 -18 131 -57h4l8 45h94v-501c0 -124 -84 -195 -234 -195zM277 103c38 0 69 17 102 56v208
c-33 30 -67 41 -100 41c-63 0 -115 -59 -115 -153c0 -95 42 -152 113 -152zM294 577c-40 0 -68 27 -68 66c0 38 28 65 68 65s68 -27 68 -65c0 -39 -28 -66 -68 -66z" />
    <glyph glyph-name="uni0123.a" horiz-adv-x="571" 
d="M260 -205c-57 0 -126 19 -180 54l40 78c47 -29 97 -41 140 -41c81 0 116 41 119 104l3 76c-35 -33 -82 -57 -134 -57c-122 0 -201 97 -201 245c0 152 103 249 210 249c52 0 92 -18 131 -57h4l8 45h94v-501c0 -124 -84 -195 -234 -195zM277 103c38 0 69 17 102 56v208
c-33 30 -67 41 -100 41c-63 0 -115 -59 -115 -153c0 -95 42 -152 113 -152zM336 572c-97 9 -129 33 -129 80c0 63 66 93 181 98l10 -50c-81 -5 -106 -18 -106 -44c0 -22 22 -34 68 -38z" />
    <glyph glyph-name="gcaron.a" horiz-adv-x="571" 
d="M260 -205c-57 0 -126 19 -180 54l40 78c47 -29 97 -41 140 -41c81 0 116 41 119 104l3 76c-35 -33 -82 -57 -134 -57c-122 0 -201 97 -201 245c0 152 103 249 210 249c52 0 92 -18 131 -57h4l8 45h94v-501c0 -124 -84 -195 -234 -195zM277 103c38 0 69 17 102 56v208
c-33 30 -67 41 -100 41c-63 0 -115 -59 -115 -153c0 -95 42 -152 113 -152zM236 576l-111 135l45 42l122 -102h4l122 102l45 -42l-111 -135h-116z" />
    <glyph glyph-name="uni1E21.a" horiz-adv-x="571" 
d="M260 -205c-57 0 -126 19 -180 54l40 78c47 -29 97 -41 140 -41c81 0 116 41 119 104l3 76c-35 -33 -82 -57 -134 -57c-122 0 -201 97 -201 245c0 152 103 249 210 249c52 0 92 -18 131 -57h4l8 45h94v-501c0 -124 -84 -195 -234 -195zM277 103c38 0 69 17 102 56v208
c-33 30 -67 41 -100 41c-63 0 -115 -59 -115 -153c0 -95 42 -152 113 -152zM154 596v76h280v-76h-280z" />
    <glyph glyph-name="uni00670303.a" horiz-adv-x="571" 
d="M260 -205c-57 0 -126 19 -180 54l40 78c47 -29 97 -41 140 -41c81 0 116 41 119 104l3 76c-35 -33 -82 -57 -134 -57c-122 0 -201 97 -201 245c0 152 103 249 210 249c52 0 92 -18 131 -57h4l8 45h94v-501c0 -124 -84 -195 -234 -195zM277 103c38 0 69 17 102 56v208
c-33 30 -67 41 -100 41c-63 0 -115 -59 -115 -153c0 -95 42 -152 113 -152zM363 575c-67 0 -97 74 -136 74c-25 0 -37 -24 -41 -67l-74 4c3 91 40 144 113 144c67 0 97 -74 137 -74c24 0 36 25 40 67l74 -4c-3 -90 -40 -144 -113 -144z" />
    <glyph glyph-name="l.a" horiz-adv-x="262" 
d="M73 0v706h115v-706h-115z" />
    <glyph glyph-name="lacute.a" horiz-adv-x="262" 
d="M73 0v706h115v-706h-115zM117 742l-51 58l157 135l62 -76z" />
    <glyph glyph-name="lcaron.a" horiz-adv-x="292" 
d="M73 0v706h115v-706h-115zM239 548l-5 217h77l-1 -63l-19 -154h-52z" />
    <glyph glyph-name="ldot.a" horiz-adv-x="408" 
d="M73 0v706h115v-706h-115zM335 249c-42 0 -75 33 -75 78s33 78 75 78s74 -33 74 -78s-32 -78 -74 -78z" />
    <glyph glyph-name="uni013C.a" horiz-adv-x="262" 
d="M73 0v706h115v-706h-115zM36 -233l-10 50c81 5 106 18 106 43c0 23 -22 35 -68 39l24 46c97 -9 129 -33 129 -80c0 -63 -66 -93 -181 -98z" />
    <glyph glyph-name="uni1E37.a" horiz-adv-x="262" 
d="M73 0v706h115v-706h-115zM131 -217c-40 0 -68 27 -68 66c0 38 28 65 68 65s68 -27 68 -65c0 -39 -28 -66 -68 -66z" />
    <glyph glyph-name="uni1E39.a" horiz-adv-x="262" 
d="M73 0v706h115v-706h-115zM-10 812v76h280v-76h-280zM131 -217c-40 0 -68 27 -68 66c0 38 28 65 68 65s68 -27 68 -65c0 -39 -28 -66 -68 -66z" />
    <glyph glyph-name="uni1E3B.a" horiz-adv-x="262" 
d="M73 0v706h115v-706h-115zM-10 -180v76h280v-76h-280z" />
    <glyph glyph-name="lslash.a" horiz-adv-x="278" 
d="M29 272l-40 72l91 54v308h115v-250l51 30l41 -72l-92 -54v-360h-115v303z" />
    <glyph glyph-name="fl.a" horiz-adv-x="596" 
d="M93 0v400h-66v86l66 5v51c0 102 47 176 163 176c35 0 68 -8 90 -17l-22 -86c-18 8 -37 12 -54 12c-40 0 -62 -26 -62 -83v-53h96v-91h-96v-400h-115zM408 0v706h115v-706h-115z" />
    <glyph glyph-name="Alpha" unicode="&#x391;" horiz-adv-x="558" 
d="M217 348l-23 -80h167l-23 80c-21 69 -40 144 -59 216h-4c-18 -73 -37 -147 -58 -216zM-2 0l213 654h136l213 -654h-122l-51 177h-220l-51 -177h-118z" />
    <glyph glyph-name="Beta" unicode="&#x392;" horiz-adv-x="597" 
d="M83 0v654h209c135 0 234 -41 234 -161c0 -62 -34 -122 -91 -142v-4c72 -16 125 -67 125 -155c0 -131 -107 -192 -251 -192h-226zM199 384h83c91 0 130 36 130 92c0 64 -43 88 -128 88h-85v-180zM199 90h98c96 0 150 35 150 108c0 69 -52 99 -150 99h-98v-207z" />
    <glyph glyph-name="Gamma" unicode="&#x393;" horiz-adv-x="510" 
d="M83 0v654h395v-98h-279v-556h-116z" />
    <glyph glyph-name="uni0394" unicode="&#x394;" horiz-adv-x="614" 
d="M32 0v70l207 584h137l206 -584v-70h-550zM157 98h298l-85 259l-63 203h-4l-62 -203z" />
    <glyph glyph-name="Epsilon" unicode="&#x395;" horiz-adv-x="538" 
d="M83 0v654h394v-98h-278v-167h235v-98h-235v-193h288v-98h-404z" />
    <glyph glyph-name="Zeta" unicode="&#x396;" horiz-adv-x="540" 
d="M40 0v70l316 486h-287v98h431v-70l-317 -486h319v-98h-462z" />
    <glyph glyph-name="Eta" unicode="&#x397;" horiz-adv-x="663" 
d="M83 0v654h116v-263h265v263h116v-654h-116v290h-265v-290h-116z" />
    <glyph glyph-name="Theta" unicode="&#x398;" horiz-adv-x="674" 
d="M232 290v101h210v-101h-210zM337 -12c-170 0 -288 130 -288 342c0 211 118 336 288 336c171 0 289 -125 289 -336c0 -212 -118 -342 -289 -342zM337 89c103 0 169 94 169 241c0 146 -66 235 -169 235s-169 -89 -169 -235c0 -147 66 -241 169 -241z" />
    <glyph glyph-name="Iota" unicode="&#x399;" horiz-adv-x="282" 
d="M83 0v654h116v-654h-116z" />
    <glyph glyph-name="Kappa" unicode="&#x39a;" horiz-adv-x="597" 
d="M83 0v654h116v-297h3l233 297h129l-201 -255l235 -399h-128l-177 308l-94 -117v-191h-116z" />
    <glyph glyph-name="Lambda" unicode="&#x39b;" horiz-adv-x="536" 
d="M-4 0l203 654h137l204 -654h-123l-92 329c-21 74 -36 138 -58 213h-4c-22 -75 -37 -139 -57 -213l-91 -329h-119z" />
    <glyph glyph-name="Mu" unicode="&#x39c;" horiz-adv-x="745" 
d="M83 0v654h131l116 -320c14 -41 28 -85 42 -128h4c14 43 27 87 41 128l113 320h132v-654h-107v299c0 61 9 148 15 208h-4l-53 -152l-107 -294h-69l-108 294l-52 152h-4c5 -60 15 -147 15 -208v-299h-105z" />
    <glyph glyph-name="Nu" unicode="&#x39d;" horiz-adv-x="656" 
d="M83 0v654h119l204 -368l67 -139h4c-5 67 -15 150 -15 223v284h111v-654h-119l-204 368l-67 139h-4c5 -69 15 -148 15 -221v-286h-111z" />
    <glyph glyph-name="Xi" unicode="&#x39e;" horiz-adv-x="552" 
d="M51 0v98h451v-98h-451zM122 291v98h308v-98h-308zM61 556v98h431v-98h-431z" />
    <glyph glyph-name="Omicron" unicode="&#x39f;" horiz-adv-x="674" 
d="M337 -12c-170 0 -288 130 -288 342c0 211 118 336 288 336c171 0 289 -125 289 -336c0 -212 -118 -342 -289 -342zM337 89c103 0 169 94 169 241c0 146 -66 235 -169 235s-169 -89 -169 -235c0 -147 66 -241 169 -241z" />
    <glyph glyph-name="Pi" unicode="&#x3a0;" horiz-adv-x="654" 
d="M83 0v654h488v-654h-116v556h-256v-556h-116z" />
    <glyph glyph-name="Rho" unicode="&#x3a1;" horiz-adv-x="582" 
d="M83 0v654h206c145 0 253 -50 253 -202c0 -145 -108 -212 -249 -212h-94v-240h-116zM199 333h85c97 0 144 39 144 119c0 82 -51 109 -148 109h-81v-228z" />
    <glyph glyph-name="Sigma" unicode="&#x3a3;" horiz-adv-x="544" 
d="M41 0v70l213 261l-210 253v70h436v-98h-290l181 -222l-184 -236h321v-98h-467z" />
    <glyph glyph-name="Tau" unicode="&#x3a4;" horiz-adv-x="546" 
d="M215 0v556h-189v98h494v-98h-189v-556h-116z" />
    <glyph glyph-name="Upsilon" unicode="&#x3a5;" horiz-adv-x="501" 
d="M192 0v243l-196 411h124l71 -167c19 -49 37 -94 58 -144h4c21 50 41 95 60 144l71 167h121l-197 -411v-243h-116z" />
    <glyph glyph-name="Phi" unicode="&#x3a6;" horiz-adv-x="740" 
d="M159 330c0 -98 62 -164 159 -174v343c-97 -10 -159 -72 -159 -169zM581 330c0 97 -62 159 -159 169v-343c97 10 159 76 159 174zM318 -22v90c-162 11 -270 106 -270 262s108 247 270 257v89h104v-89c162 -10 270 -101 270 -257s-108 -251 -270 -262v-90h-104z" />
    <glyph glyph-name="Chi" unicode="&#x3a7;" horiz-adv-x="541" 
d="M13 0l186 337l-174 317h129l72 -145c16 -30 30 -61 50 -100h4c16 39 29 70 44 100l69 145h123l-174 -322l186 -332h-129l-80 154c-17 34 -33 67 -53 107h-4c-17 -40 -32 -73 -48 -107l-78 -154h-123z" />
    <glyph glyph-name="Psi" unicode="&#x3a8;" horiz-adv-x="726" 
d="M308 0v232c-157 9 -250 87 -250 261v161h113v-155c0 -119 47 -168 137 -175v330h109v-330c90 7 137 56 137 175v155h114v-161c0 -174 -94 -252 -251 -261v-232h-109z" />
    <glyph glyph-name="uni03A9" unicode="&#x3a9;" horiz-adv-x="695" 
d="M45 0v94h120v4c-50 50 -106 137 -106 256c0 183 115 312 289 312c173 0 288 -129 288 -312c0 -119 -56 -206 -106 -256v-4h120v-94h-250v84c71 61 117 141 117 260c0 128 -63 221 -169 221s-170 -93 -170 -221c0 -119 46 -199 117 -260v-84h-250z" />
    <glyph glyph-name="Alphatonos" unicode="&#x386;" horiz-adv-x="594" 
d="M253 348l-23 -80h167l-23 80c-21 69 -40 144 -59 216h-4c-18 -73 -37 -147 -58 -216zM34 0l213 654h136l213 -654h-122l-51 177h-220l-51 -177h-118zM0 466l29 204l101 -14l-55 -204z" />
    <glyph glyph-name="Epsilontonos" unicode="&#x388;" horiz-adv-x="630" 
d="M175 0v654h394v-98h-278v-167h235v-98h-235v-193h288v-98h-404zM-16 466l29 204l101 -14l-55 -204z" />
    <glyph glyph-name="Etatonos" unicode="&#x389;" horiz-adv-x="755" 
d="M175 0v654h116v-263h265v263h116v-654h-116v290h-265v-290h-116zM-16 466l29 204l101 -14l-55 -204z" />
    <glyph glyph-name="Iotatonos" unicode="&#x38a;" horiz-adv-x="374" 
d="M175 0v654h116v-654h-116zM-16 466l29 204l101 -14l-55 -204z" />
    <glyph glyph-name="Iotadieresis" unicode="&#x3aa;" horiz-adv-x="282" 
d="M83 0v654h116v-654h-116zM34 708c-35 0 -59 25 -59 59c0 35 24 60 59 60s60 -25 60 -60c0 -34 -25 -59 -60 -59zM248 708c-35 0 -60 25 -60 59c0 35 25 60 60 60s59 -25 59 -60c0 -34 -24 -59 -59 -59z" />
    <glyph glyph-name="Omicrontonos" unicode="&#x38c;" horiz-adv-x="744" 
d="M407 -12c-170 0 -288 130 -288 342c0 211 118 336 288 336c171 0 289 -125 289 -336c0 -212 -118 -342 -289 -342zM407 89c103 0 169 94 169 241c0 146 -66 235 -169 235s-169 -89 -169 -235c0 -147 66 -241 169 -241zM-16 466l29 204l101 -14l-55 -204z" />
    <glyph glyph-name="Upsilontonos" unicode="&#x38e;" horiz-adv-x="653" 
d="M344 0v243l-196 411h124l71 -167c19 -49 37 -94 58 -144h4c21 50 41 95 60 144l71 167h121l-197 -411v-243h-116zM-16 466l29 204l101 -14l-55 -204z" />
    <glyph glyph-name="Upsilondieresis" unicode="&#x3ab;" horiz-adv-x="501" 
d="M192 0v243l-196 411h124l71 -167c19 -49 37 -94 58 -144h4c21 50 41 95 60 144l71 167h121l-197 -411v-243h-116zM143 708c-35 0 -59 25 -59 59c0 35 24 60 59 60s60 -25 60 -60c0 -34 -25 -59 -60 -59zM357 708c-35 0 -60 25 -60 59c0 35 25 60 60 60s59 -25 59 -60
c0 -34 -24 -59 -59 -59z" />
    <glyph glyph-name="Omegatonos" unicode="&#x38f;" horiz-adv-x="764" 
d="M115 0v94h120v4c-50 50 -106 137 -106 256c0 183 115 312 289 312c173 0 288 -129 288 -312c0 -119 -56 -206 -106 -256v-4h120v-94h-250v84c71 61 117 141 117 260c0 128 -63 221 -169 221s-170 -93 -170 -221c0 -119 46 -199 117 -260v-84h-250zM-22 466l29 204
l101 -14l-55 -204z" />
    <glyph glyph-name="alpha" unicode="&#x3b1;" horiz-adv-x="578" 
d="M234 -12c-116 0 -193 92 -193 252c0 166 103 263 216 263c58 0 113 -31 143 -113h4l18 101h114c-26 -121 -63 -279 -63 -361c0 -33 21 -48 48 -48c10 0 22 3 33 7l15 -86c-16 -8 -41 -15 -75 -15c-64 0 -104 26 -112 90h-4c-35 -60 -84 -90 -144 -90zM260 83
c54 0 106 58 111 129l7 88c-24 82 -62 108 -105 108c-57 0 -114 -54 -114 -167c0 -104 39 -158 101 -158z" />
    <glyph glyph-name="beta" unicode="&#x3b2;" horiz-adv-x="583" 
d="M72 -178v656c0 137 68 240 216 240c102 0 200 -56 200 -177c0 -69 -33 -122 -90 -158v-4c86 -14 146 -85 146 -183c0 -138 -98 -208 -195 -208c-58 0 -119 16 -169 70c3 -80 6 -157 8 -236h-116zM318 83c61 0 112 42 112 121c0 64 -38 114 -114 114c-16 0 -31 -2 -45 -6
l-15 86c89 16 121 73 121 133c0 64 -42 96 -89 96c-66 0 -103 -59 -105 -159c-2 -106 -3 -210 -3 -317c42 -55 93 -68 138 -68z" />
    <glyph glyph-name="gamma" unicode="&#x3b3;" horiz-adv-x="509" 
d="M190 -178c5 43 6 68 6 129c0 143 -91 386 -194 526l117 26c53 -75 115 -224 147 -371h4c56 112 96 232 106 359h114c-27 -166 -68 -285 -192 -482c9 -60 11 -131 11 -187h-119z" />
    <glyph glyph-name="delta" unicode="&#x3b4;" horiz-adv-x="540" 
d="M271 -12c-119 0 -225 84 -225 224c0 111 76 183 169 218c-62 44 -119 97 -119 173c0 61 54 115 171 115c67 0 140 -14 215 -39l-27 -88c-76 27 -139 41 -189 41c-43 0 -62 -18 -62 -39c0 -43 66 -81 143 -137c86 -62 149 -123 149 -235c0 -139 -84 -233 -225 -233z
M273 82c71 0 111 50 111 139c0 68 -40 114 -91 154c-85 -21 -137 -76 -137 -161c0 -83 55 -132 117 -132z" />
    <glyph glyph-name="epsilon" unicode="&#x3b5;" horiz-adv-x="460" 
d="M260 -12c-124 0 -219 53 -219 150c0 68 41 104 98 119v4c-50 17 -76 63 -76 106c0 94 94 136 200 136c59 0 117 -19 164 -52l-43 -75c-36 25 -75 38 -116 38c-53 0 -91 -23 -91 -62c0 -37 28 -60 90 -60c20 0 41 2 65 4v-85c-28 2 -55 3 -80 3c-66 0 -98 -21 -98 -65
c0 -45 42 -72 117 -72c39 0 80 11 123 44l46 -74c-62 -46 -115 -59 -180 -59z" />
    <glyph glyph-name="zeta" unicode="&#x3b6;" horiz-adv-x="445" 
d="M374 -186l-90 33c31 41 47 61 47 87c0 29 -20 40 -103 58c-95 20 -184 71 -184 233c0 133 122 297 253 397c-48 -2 -159 -3 -221 -7v91h349v-91h-5c-128 -83 -257 -266 -257 -384c0 -97 42 -131 132 -148c97 -19 138 -48 138 -119c0 -32 -17 -90 -59 -150z" />
    <glyph glyph-name="eta" unicode="&#x3b7;" horiz-adv-x="552" 
d="M368 -178c4 157 8 344 8 471c0 81 -19 111 -69 111c-44 0 -75 -25 -119 -90v-314h-115v348c0 39 -1 90 -9 143h104l8 -93h4c46 65 95 105 165 105c100 0 139 -71 139 -195v-486h-116z" />
    <glyph glyph-name="theta" unicode="&#x3b8;" horiz-adv-x="536" 
d="M268 -12c-130 0 -214 117 -214 368c0 241 84 362 214 362s214 -122 214 -362c0 -251 -84 -368 -214 -368zM268 624c-54 0 -96 -55 -101 -228h202c-5 173 -47 228 -101 228zM268 82c54 0 96 54 101 235h-202c5 -181 47 -235 101 -235z" />
    <glyph glyph-name="iota" unicode="&#x3b9;" horiz-adv-x="282" 
d="M191 -12c-89 0 -118 54 -118 141v362h117c-3 -123 -8 -269 -8 -368c0 -30 13 -41 37 -41c9 0 20 2 31 6l14 -86c-18 -8 -38 -14 -73 -14z" />
    <glyph glyph-name="kappa" unicode="&#x3ba;" horiz-adv-x="520" 
d="M396 -10c-45 54 -97 137 -143 226c-8 -10 -17 -21 -26 -32c-33 -38 -45 -88 -45 -157v-27h-109v348c0 39 -1 95 -10 143h114c7 -29 9 -73 9 -118v-122h4c75 124 174 231 284 252l10 -108c-52 -14 -101 -45 -158 -101c49 -97 129 -217 199 -294z" />
    <glyph glyph-name="lambda" unicode="&#x3bb;" horiz-adv-x="524" 
d="M138 -10l-124 10l213 497l-5 18c-19 69 -54 106 -102 106c-29 0 -47 -7 -67 -16l-26 94c28 11 54 19 106 19c106 0 162 -67 205 -209l180 -509h-123l-115 368h-4z" />
    <glyph glyph-name="uni03BC" unicode="&#x3bc;" horiz-adv-x="578" 
d="M73 -178v669h115v-293c0 -78 23 -111 75 -111c39 0 71 16 107 79v325h116c-3 -123 -8 -269 -8 -368c0 -30 16 -41 40 -41c8 0 20 2 30 6l15 -86c-18 -8 -39 -14 -73 -14c-62 0 -97 29 -108 88h-4c-29 -56 -71 -84 -119 -84c-32 0 -59 6 -78 34c1 -84 2 -131 9 -204h-117z
" />
    <glyph glyph-name="nu" unicode="&#x3bd;" horiz-adv-x="499" 
d="M188 0c-33 181 -104 354 -186 477l117 26c60 -97 118 -267 142 -385h4c54 118 90 251 101 373h114c-27 -172 -77 -313 -182 -491h-110z" />
    <glyph glyph-name="xi" unicode="&#x3be;" horiz-adv-x="450" 
d="M380 -186l-91 33c31 41 47 61 47 87c0 29 -21 41 -103 58c-103 21 -187 66 -187 193c0 91 65 163 142 187v4c-58 24 -96 74 -96 138c0 45 22 85 59 108c-45 -2 -71 -3 -129 -7v91h408v-91h-116c-59 0 -106 -39 -106 -104c0 -58 49 -106 105 -106c27 0 42 1 69 7v-92
c-28 6 -50 7 -76 7c-75 0 -142 -48 -142 -125c0 -82 53 -103 142 -119c101 -20 132 -48 132 -119c0 -32 -17 -90 -58 -150z" />
    <glyph glyph-name="omicron" unicode="&#x3bf;" horiz-adv-x="544" 
d="M272 -12c-124 0 -231 94 -231 257c0 165 107 258 231 258s231 -93 231 -258c0 -163 -107 -257 -231 -257zM272 82c74 0 113 64 113 163s-39 164 -113 164s-113 -65 -113 -164s39 -163 113 -163z" />
    <glyph glyph-name="pi" unicode="&#x3c0;" horiz-adv-x="611" 
d="M504 -12c-94 0 -128 55 -128 146c0 40 4 170 5 265h-143c0 -127 -14 -273 -27 -406l-116 7c23 135 35 278 35 399h-110v87l72 5h495v-92h-95c-6 -99 -7 -236 -7 -271c0 -34 15 -46 45 -46c9 0 21 2 38 5l14 -86c-18 -7 -45 -13 -78 -13z" />
    <glyph glyph-name="rho" unicode="&#x3c1;" horiz-adv-x="559" 
d="M69 -178v421c0 178 99 260 226 260c140 0 221 -93 221 -250c0 -168 -100 -265 -203 -265c-47 0 -95 15 -135 62c3 -82 5 -148 8 -228h-117zM288 83c60 0 110 58 110 169c0 98 -33 156 -107 156c-63 0 -113 -56 -113 -159v-113c38 -44 75 -53 110 -53z" />
    <glyph glyph-name="sigma" unicode="&#x3c3;" horiz-adv-x="560" 
d="M268 -12c-124 0 -227 89 -227 252c0 171 112 251 232 251h275v-96c-55 5 -94 9 -147 10v-4c55 -31 86 -95 86 -178c0 -147 -93 -235 -219 -235zM269 82c65 0 108 57 108 152c0 87 -39 163 -107 163c-65 0 -111 -49 -111 -157c0 -98 45 -158 110 -158z" />
    <glyph glyph-name="tau" unicode="&#x3c4;" horiz-adv-x="476" 
d="M300 -12c-90 0 -120 55 -120 146v266h-154v86l72 5h352v-91h-157c-3 -98 -4 -194 -4 -272c0 -34 14 -46 39 -46c17 0 33 3 52 8l16 -87c-26 -8 -59 -15 -96 -15z" />
    <glyph glyph-name="upsilon" unicode="&#x3c5;" horiz-adv-x="521" 
d="M254 -12c-132 0 -197 76 -197 202c0 53 4 106 4 158c0 39 -1 90 -10 143h112c7 -34 8 -73 8 -118c0 -48 -6 -128 -6 -191c0 -70 41 -100 90 -100c61 0 101 51 101 165c0 69 -8 141 -36 231l112 25c25 -82 40 -167 40 -251c0 -168 -82 -264 -218 -264z" />
    <glyph glyph-name="phi" unicode="&#x3c6;" horiz-adv-x="710" 
d="M159 246c0 -103 61 -163 143 -168v335c-82 -4 -143 -64 -143 -167zM550 246c0 104 -57 163 -142 167v-335c82 5 142 65 142 168zM302 -178v169c-136 6 -261 96 -261 255s125 248 261 254v125h106v-125c137 -6 261 -95 261 -254s-126 -249 -261 -255v-169h-106z" />
    <glyph glyph-name="chi" unicode="&#x3c7;" horiz-adv-x="504" 
d="M127 -190l-118 12l190 342l-189 313l114 26l131 -237h4l106 225h120l-171 -324l200 -330l-113 -27l-142 262h-4z" />
    <glyph glyph-name="psi" unicode="&#x3c8;" horiz-adv-x="721" 
d="M306 -178v166c-177 3 -245 107 -245 242v118c0 39 -1 90 -9 143h112c6 -34 8 -73 8 -118c0 -47 -2 -117 -2 -151c0 -81 39 -142 136 -142v545h105v-545c93 3 143 57 143 189c0 66 -9 125 -36 209l111 25c27 -77 41 -149 41 -229c0 -181 -92 -283 -259 -286v-166h-105z
" />
    <glyph glyph-name="omega" unicode="&#x3c9;" horiz-adv-x="724" 
d="M227 -12c-108 0 -181 87 -181 253c0 93 35 189 83 262l107 -43c-52 -80 -81 -149 -81 -241c0 -85 29 -137 78 -137c44 0 76 31 76 107c0 43 -4 76 -10 131h123c-6 -55 -10 -88 -10 -131c0 -81 30 -107 73 -107c45 0 77 52 77 155c0 90 -19 145 -70 226l105 40
c48 -75 81 -151 81 -259c0 -167 -66 -256 -178 -256c-56 0 -112 26 -137 91h-4c-26 -65 -75 -91 -132 -91z" />
    <glyph glyph-name="uni03C2" unicode="&#x3c2;" horiz-adv-x="439" 
d="M333 -183l-92 32c32 41 51 68 51 95c0 32 -14 51 -63 66c-91 32 -188 83 -188 246c0 157 107 247 232 247c63 0 109 -24 144 -55l-56 -75c-26 23 -50 36 -81 36c-73 0 -121 -61 -121 -153c0 -98 50 -129 119 -152c87 -30 116 -57 116 -132c0 -34 -19 -95 -61 -155z" />
    <glyph glyph-name="uni03D0" unicode="&#x3d0;" horiz-adv-x="576" 
d="M312 -12c-115 0 -241 66 -241 247v243c0 137 66 238 210 238c101 0 199 -54 199 -175c0 -69 -34 -125 -106 -158v-4c99 -11 163 -87 163 -185c0 -135 -101 -206 -225 -206zM182 468c-1 -34 -1 -63 -2 -91c149 33 189 86 189 153c0 65 -37 94 -83 94
c-65 0 -101 -56 -104 -156zM308 88c66 0 115 42 115 113c0 64 -36 120 -121 120c-24 0 -56 -8 -123 -28v-46c0 -124 76 -159 129 -159z" />
    <glyph glyph-name="uni03D1" unicode="&#x3d1;" horiz-adv-x="536" 
d="M165 526c0 -71 38 -143 204 -123c-7 167 -54 223 -121 221c-50 0 -83 -42 -83 -98zM266 -12c-125 0 -185 69 -185 184c0 52 0 82 -8 115h108c8 -18 9 -58 9 -99c0 -81 33 -106 81 -106c56 0 95 44 99 247c-249 -30 -312 108 -312 201c0 108 81 188 185 188
c155 0 239 -126 239 -360c0 -263 -77 -370 -216 -370z" />
    <glyph glyph-name="uni03D5" unicode="&#x3d5;" horiz-adv-x="710" 
d="M303 -178v169c-140 5 -262 92 -262 259c0 94 44 188 105 259l95 -67c-54 -65 -83 -123 -83 -203c0 -95 53 -155 145 -161v199c0 159 72 226 169 226c120 0 197 -91 197 -244c0 -166 -124 -262 -260 -268c1 -56 3 -113 5 -169h-111zM406 289c0 -70 0 -140 1 -211
c85 7 143 63 143 174c0 103 -34 156 -82 156c-36 0 -62 -37 -62 -119z" />
    <glyph glyph-name="alphatonos" unicode="&#x3ac;" horiz-adv-x="578" 
d="M234 -12c-116 0 -193 92 -193 252c0 166 103 263 216 263c58 0 113 -31 143 -113h4l18 101h114c-26 -121 -63 -279 -63 -361c0 -33 21 -48 48 -48c10 0 22 3 33 7l15 -86c-16 -8 -41 -15 -75 -15c-64 0 -104 26 -112 90h-4c-35 -60 -84 -90 -144 -90zM260 83
c54 0 106 58 111 129l7 88c-24 82 -62 108 -105 108c-57 0 -114 -54 -114 -167c0 -104 39 -158 101 -158zM245 571l38 211l115 -20l-75 -206z" />
    <glyph glyph-name="epsilontonos" unicode="&#x3ad;" horiz-adv-x="460" 
d="M260 -12c-124 0 -219 53 -219 150c0 68 41 104 98 119v4c-50 17 -76 63 -76 106c0 94 94 136 200 136c59 0 117 -19 164 -52l-43 -75c-36 25 -75 38 -116 38c-53 0 -91 -23 -91 -62c0 -37 28 -60 90 -60c20 0 41 2 65 4v-85c-28 2 -55 3 -80 3c-66 0 -98 -21 -98 -65
c0 -45 42 -72 117 -72c39 0 80 11 123 44l46 -74c-62 -46 -115 -59 -180 -59zM210 571l38 211l115 -20l-75 -206z" />
    </font>
</defs>
</svg>
